(Baroque serenata) Alessandro Scarlatti (Алессандро Скарлатти) - Il giardino d'amore (Derek Lee Ragin, Clemencic Consort, Rene Clemencic) - 1995, FLAC (image+.cue) lossless


 

[Цитировать]

Alessandro Scarlatti - Il giardino d'amore
Жанр: Baroque serenata
Страна-производитель диска: Made in France
Год издания диска: 1995
Издатель (лейбл): ACCORD / MPO
Номер по каталогу: 20082
Дата записи: 1987
Аудиокодек: FLAC
Тип рипа: image+.cue
Битрейт аудио: lossless
Продолжительность: 53'21
Источник: релизер
сайт-источник/ник/другое: Saoshya and Meeting in Music blogspot
Наличие сканов в содержимом раздачи: да
Треклист:

скрытый текст

01. Sinfonia 04:11
02. Aria Nr. 1 Venere - Care selve, amati orrori 05:20
03. Recitaif Venere - Ma voi non rispondete e del vago 00:38
04. Aria Nr. 2 Venere - Fugge l’aura, si posa ogni fronda 02:27
05. Recitatif Adone - In van fra queste selve cerco dar pace 00:55
06. Aria Nr. 3 Adone - Piu non m’allette e piace 05:21
07. Recitatif Adone e Venere - Ciprigna, e dove sei? 01:31
08. Aria Nr. 4 Adone - Se come dolce e vago 03:54
09. Recitatif Venere e Adone - Mira, mio ben, deh, mira 01:02
10. Aria Nr. 5 Venere - Augelletti, si, cantate 05:50
11. Recitatif Adone - O fortunate aurette che a’l bell’idol 00:36
12. Duetto Nr. 6 Venere e Adone - Tanto respira il core 03:29
13. Recitatif Venere - O me felice, o me beata appiento 00:21
14. Aria Nr. 7 Adone - Ah, non mir dir cosi 03:39
15. Recitatif Venere 00:37
16. Aria Nr. 8 Venere - Andianne, o caro bene 03:05
17. Recitatif Adone - Venere, assai ti deggio 00:23
18. Aria Nr. 9 Adone - Con battaglia di fiero tormento 04:58
19. Recitatif Venere e Adone - Io delle sfere il luminoso Impero 00:58
20. Duetto Nr. 10 Adone e Venere - Vola, vieni, soave contento 04:02
Исполнители:

скрытый текст

Alessandro Scarlatti
Il giardino d'amore
serenata for soprano, alto & instruments
Lina Akerlund - soprano
Derek Lee Ragin - contre-tenor
Clemencic Consort
Rene Clemencic - conductor
Audio CD (August 22, 1995)

Лог создания рипа

Exact Audio Copy V0.99 prebeta 4 from 23. January 2008
EAC extraction logfile from 15. February 2014, 17:07
Clemencic Consort, Rene Clemencic / Alessandro Scarlatti - Il Giardino d’Amore
Used drive : SONY DVD-ROM DDU1615 Adapter: 0 ID: 0
Read mode : SecureUtilize accurate stream : YesDefeat audio cache : YesMake use of C2 pointers : No
Read offset correction : 6Overread into Lead-In and Lead-Out : NoFill up missing offset samples with silence : YesDelete leading and trailing silent blocks : NoNull samples used in CRC calculations : YesUsed interface : Native Win32 interface for Win NT & 2000
Used output format : User Defined EncoderSelected bitrate : 1024 kBit/sQuality : HighAdd ID3 tag : NoCommand line compressor : C:\Program Files\REACT\REACT.exeAdditional command line options : REACT %o %s %d "%a" "%g" "%t" "%n" "%x" "%y" "%m" "%e" "%f" "%b" %r
TOC of the extracted CD
Track | Start | Length | Start sector | End sector --------------------------------------------------------- 1 | 0:00.00 | 4:11.22 | 0 | 18846 2 | 4:11.22 | 5:20.13 | 18847 | 42859 3 | 9:31.35 | 0:38.12 | 42860 | 45721 4 | 10:09.47 | 2:27.05 | 45722 | 56751 5 | 12:36.52 | 0:55.30 | 56752 | 60906 6 | 13:32.07 | 5:21.70 | 60907 | 85051 7 | 18:54.02 | 1:31.03 | 85052 | 91879 8 | 20:25.05 | 3:54.70 | 91880 | 109499 9 | 24:20.00 | 1:02.02 | 109500 | 114151 10 | 25:22.02 | 5:50.00 | 114152 | 140401 11 | 31:12.02 | 0:36.03 | 140402 | 143104 12 | 31:48.05 | 3:29.00 | 143105 | 158779 13 | 35:17.05 | 0:21.02 | 158780 | 160356 14 | 35:38.07 | 3:39.73 | 160357 | 176854 15 | 39:18.05 | 0:37.00 | 176855 | 179629 16 | 39:55.05 | 3:05.02 | 179630 | 193506 17 | 43:00.07 | 0:23.00 | 193507 | 195231 18 | 43:23.07 | 4:58.73 | 195232 | 217654 19 | 48:22.05 | 0:58.72 | 217655 | 222076 20 | 49:21.02 | 4:02.43 | 222077 | 240269
Range status and errors
Selected range
Filename L:\Saoshya\Accord 200082 Alessandro Scarlatti - Il Giardino d'Amore (Clemencic Consort, Rene Clemencic)\CDImage\Alessandro Scarlatti - Il Giardino d'Amore - Clemencic Consort.wav
Peak level 90.6 % Range quality 100.0 % Test CRC 5C1F778E Copy CRC 5C1F778E Copy OK
No errors occurred
AccurateRip summary
Track 1 cannot be verified as accurate (confidence 2) [498A424A], AccurateRip returned [DF74E958]Track 2 cannot be verified as accurate (confidence 2) [2DC59324], AccurateRip returned [CEFCCF2D]Track 3 cannot be verified as accurate (confidence 2) [350083FD], AccurateRip returned [E7BC8E8B]Track 4 cannot be verified as accurate (confidence 2) [6BD27062], AccurateRip returned [9DB9255D]Track 5 cannot be verified as accurate (confidence 2) [638BC7BC], AccurateRip returned [3CBCDAEA]Track 6 cannot be verified as accurate (confidence 2) [9D6660F4], AccurateRip returned [B7E0320F]Track 7 cannot be verified as accurate (confidence 2) [09EA670F], AccurateRip returned [6312ACB4]Track 8 cannot be verified as accurate (confidence 2) [BC4826E8], AccurateRip returned [70BD78B9]Track 9 cannot be verified as accurate (confidence 2) [6F100148], AccurateRip returned [7E0F306F]Track 10 cannot be verified as accurate (confidence 2) [68D4084D], AccurateRip returned [E8028ABE]Track 11 cannot be verified as accurate (confidence 2) [B3861BE9], AccurateRip returned [1D0064BE]Track 12 cannot be verified as accurate (confidence 2) [14FBFC99], AccurateRip returned [FE0AF383]Track 13 cannot be verified as accurate (confidence 2) [E1BFEDC9], AccurateRip returned [B014F8FE]Track 14 cannot be verified as accurate (confidence 2) [ECEAC2C0], AccurateRip returned [5A31B0BA]Track 15 cannot be verified as accurate (confidence 2) [45624B3A], AccurateRip returned [B910FD05]Track 16 cannot be verified as accurate (confidence 2) [BA7DAAB2], AccurateRip returned [B6E9C0F2]Track 17 cannot be verified as accurate (confidence 2) [30F3E958], AccurateRip returned [92F9A522]Track 18 cannot be verified as accurate (confidence 2) [173C2AB0], AccurateRip returned [97D569CF]Track 19 cannot be verified as accurate (confidence 2) [7AF866FB], AccurateRip returned [193FDB9D]Track 20 cannot be verified as accurate (confidence 2) [8E9A43AC], AccurateRip returned [F11F6886]
No tracks could be verified as accurateYou may have a different pressing from the one(s) in the database
End of status report



Показать сообщения:    

Текущее время: 06-Дек 22:57

Часовой пояс: UTC + 3


Вы не можете начинать темы
Вы не можете отвечать на сообщения
Вы не можете редактировать свои сообщения
Вы не можете удалять свои сообщения
Вы не можете голосовать в опросах
Вы не можете прикреплять файлы к сообщениям
Вы не можете скачивать файлы