(Opera) Leoncavallo - Zingari (Fratarcangeli, Elena, Roli, Morini - Orchestra Regina, Varoli) - 2000, APE (image+.cue) lossless


 

[Цитировать]

Ruggero Leoncavallo - Zingari
Жанр: Opera
Страна-производитель диска: Italy
Год издания диска: 2000
Издатель (лейбл): Kicco Classic
Номер по каталогу: KC054
Дата записи: 1999
Аудиокодек: APE
Тип рипа: image+.cue
Битрейт аудио: lossless
Продолжительность: 63'31
Источник: собственный рип
Наличие сканов в содержимом раздачи: да
Треклист:
Треклист:
1. Batti! Il fuoco!
2. Son qui! Ritornano!
3. Rimani all'ombra della tenda
4. Cuore mio dolce
5. Addormentarmi, accarzzarmi
6. Danza
7. Intertermezzo
8. Presto! Presto!
9. M'attendevi?
10. Tagliami! Abbruciami!
11. Ho perduto la pace vagabonda
12. Bella! Sei qui tutta fremente
13. Fleana! Ah! Ed io che t'amavo
Исполнители:
Ruggero Leoncavallo - Zingari
Dramma Lirico in due episodi after Puskin
Marina Fratarcangeli, Soprano
Andrea Elena, tenor
Andrea Roli, bass
Carlo Morini, Baritone
Coro Harmonia Cantata
Orchestra Regina
Giovan Battista Varoli, Conductor

Лог создания рипа

Exact Audio Copy V1.0 beta 3 from 29. August 2011
EAC extraction logfile from 21. August 2014, 18:11
Leoncavallo / Zingari, Varoli
Used drive : TS8XDVDSTRANSCEND Adapter: 1 ID: 1
Read mode : SecureUtilize accurate stream : YesDefeat audio cache : YesMake use of C2 pointers : No
Read offset correction : 6Overread into Lead-In and Lead-Out : NoFill up missing offset samples with silence : YesDelete leading and trailing silent blocks : NoNull samples used in CRC calculations : YesUsed interface : Native Win32 interface for Win NT & 2000
Used output format : Monkey's Audio Lossless EncoderSelected bitrate : High Lossless CompressionQuality : HighAdd ID3 tag : NoCommand line compressor : C:\Program Files (x86)\Exact Audio Copy\MAC\MAC.exe
TOC of the extracted CD
Track | Start | Length | Start sector | End sector --------------------------------------------------------- 1 | 0:00.00 | 6:54.72 | 0 | 31121 2 | 6:54.72 | 5:50.74 | 31122 | 57445 3 | 12:45.71 | 4:22.00 | 57446 | 77095 4 | 17:07.71 | 6:10.00 | 77096 | 104845 5 | 23:17.71 | 4:40.74 | 104846 | 125919 6 | 27:58.70 | 6:09.73 | 125920 | 153667 7 | 34:08.68 | 4:40.00 | 153668 | 174667 8 | 38:48.68 | 2:21.73 | 174668 | 185315 9 | 41:10.66 | 5:08.70 | 185316 | 208485 10 | 46:19.61 | 4:31.73 | 208486 | 228883 11 | 50:51.59 | 4:40.72 | 228884 | 249955 12 | 55:32.56 | 4:06.74 | 249956 | 268479 13 | 59:39.55 | 3:16.04 | 268480 | 283183
Range status and errors
Selected range
Filename D:\EAC\Leoncavallo - Zingari, Varoli.wav
Peak level 100.0 % Extraction speed 3.0 X Range quality 100.0 % Test CRC 46B6DFBF Copy CRC 46B6DFBF Copy OK
No errors occurred
AccurateRip summary
Track 1 accurately ripped (confidence 2) [687F0077] (AR v1)Track 2 accurately ripped (confidence 2) [B57631BA] (AR v1)Track 3 accurately ripped (confidence 2) [89E683A0] (AR v1)Track 4 accurately ripped (confidence 2) [18DC640B] (AR v1)Track 5 accurately ripped (confidence 2) [83F06516] (AR v1)Track 6 accurately ripped (confidence 2) [52384B9F] (AR v1)Track 7 accurately ripped (confidence 2) [A88D0B2F] (AR v1)Track 8 accurately ripped (confidence 2) [1176375E] (AR v1)Track 9 accurately ripped (confidence 2) [E5AA635B] (AR v1)Track 10 accurately ripped (confidence 2) [44644FAD] (AR v1)Track 11 accurately ripped (confidence 2) [70F39377] (AR v1)Track 12 accurately ripped (confidence 2) [1AED434B] (AR v1)Track 13 accurately ripped (confidence 2) [D54A97B9] (AR v1)
All tracks accurately ripped
End of status report
---- CUETools DB Plugin V2.1.3
[CTDB TOCID: jfILj5Aaca0LrvRNXA4V6jf0BBo-] disk not present in database, Submit result: unrecognized or virtual drive
==== Log checksum 7A418DFDB53FC24BA50CC585A702977506A1B4F2D363D9C307C7948A2B6E90E5 ====

Содержание индексной карты (.CUE)

REM GENRE OperaREM DATE 1999REM DISCID AB0EBF0DREM COMMENT "ExactAudioCopy v1.0b3"PERFORMER "Leoncavallo "TITLE "Zingari, Varoli"FILE "Leoncavallo - Zingari, Varoli.ape" WAVE TRACK 01 AUDIO TITLE "Batti! Il fuoco!" PERFORMER "Leoncavallo " INDEX 01 00:00:00 TRACK 02 AUDIO TITLE "Son qui! Ritornano!" PERFORMER "Leoncavallo " INDEX 00 06:52:72 INDEX 01 06:54:72 TRACK 03 AUDIO TITLE "Rimani all'ombra della tenda" PERFORMER "Leoncavallo " INDEX 00 12:43:71 INDEX 01 12:45:71 TRACK 04 AUDIO TITLE "Cuore mio dolce" PERFORMER "Leoncavallo " INDEX 00 17:05:71 INDEX 01 17:07:71 TRACK 05 AUDIO TITLE "Addormentarmi, accarzzarmi" PERFORMER "Leoncavallo " INDEX 00 23:15:71 INDEX 01 23:17:71 TRACK 06 AUDIO TITLE "Danza" PERFORMER "Leoncavallo " INDEX 00 27:56:70 INDEX 01 27:58:70 TRACK 07 AUDIO TITLE "Intertermezzo" PERFORMER "Leoncavallo " INDEX 00 34:06:68 INDEX 01 34:08:68 TRACK 08 AUDIO TITLE "Presto! Presto!" PERFORMER "Leoncavallo " INDEX 00 38:46:68 INDEX 01 38:48:68 TRACK 09 AUDIO TITLE "M'attendevi?" PERFORMER "Leoncavallo " INDEX 00 41:08:66 INDEX 01 41:10:66 TRACK 10 AUDIO TITLE "Tagliami! Abbruciami!" PERFORMER "Leoncavallo " INDEX 00 46:17:61 INDEX 01 46:19:61 TRACK 11 AUDIO TITLE "Ho perduto la pace vagabonda" PERFORMER "Leoncavallo " INDEX 00 50:49:59 INDEX 01 50:51:59 TRACK 12 AUDIO TITLE "Bella! Sei qui tutta fremente" PERFORMER "Leoncavallo " INDEX 00 55:30:56 INDEX 01 55:32:56 TRACK 13 AUDIO TITLE "Fleana! Ah! Ed io che t'amavo" PERFORMER "Leoncavallo " INDEX 00 59:37:55 INDEX 01 59:39:55



Показать сообщения:    

Текущее время: 05-Дек 17:30

Часовой пояс: UTC + 3


Вы не можете начинать темы
Вы не можете отвечать на сообщения
Вы не можете редактировать свои сообщения
Вы не можете удалять свои сообщения
Вы не можете голосовать в опросах
Вы не можете прикреплять файлы к сообщениям
Вы не можете скачивать файлы