(Opera) Verdi - Il Trovatore / Верди - Трубадур (Levine, Chernov, Domingo, Zajick, Morris) (2 CD) - 1994, FLAC (image+.cue) lossless


 

[Цитировать]

Verdi - Il Trovatore / Верди - Трубадур (Levine, Chernov, Domingo, Zajick, Morris) (2 CD)
Жанр: Opera
Страна-производитель диска: USA
Год издания диска: 1994
Издатель (лейбл): SONY Classical
Дата записи: 1991
Аудиокодек: FLAC
Тип рипа: image+.cue
Битрейт аудио: lossless
Продолжительность: 2:09:05
Источник: собственный рип
Наличие сканов в содержимом раздачи: да
Исполнители:
Il Conte di Luna.......................................Vladimir Chernov
Leonora..................................................Aprile Millo
Azucena.................................................Dolora Zajick
Manrico..................................................Placido Domingo
Ferrando................................................James Morris
Ines.......................................................Sondra Kelly
Ruiz.......................................................Antony Laciura
Un vecchio zingaro...................................Glenn Bater
Un messo................................................Tim Wilson
Metropolitan Opera Orchestra and Chorus
Chorus Master ..........................................John Keenan
Music Assistant........................................Jane Klaviter
Conductor...............................................James Levine

Треклист CD1

01 All'erta! All'erta!02 Di Due Figli Vivea Padre Beato03 Abbietta Zingara, Fosca Vegliarda04 Brevi E Tristi Giorni Visse05 Sull'orlo Dei Tetti06 Che Piu T'arresti07 Tacea La Notte Placida08 Quanto Narrasti Di Turbamento09 Di Tale Amor10 Tace La Notte!11 Il Trovator! Io Fremo! - Deserto Sulla Terra12 Anima Mia! - Che Far - Piu Dell'usato13 Di Geloso Amor Sprezzato14 Vedi! Le Fosche Notturne15 Stride La Vampa16 Mesta E La Tua Canzon17 Soli Or Siamo!18 Condotta Ell'era In Ceppi19 Non Son Tuo Figlio20 Mal Reggendo All'aspro Assalto21 L'usato Messo Ruiz M'invia - Mi Vendica!22 Perigliarti Ancor Languente23 Tutto E Deserto24 Il Balen Del Tuo Sorriso25 Qual Suono! Oh Ciel!26 Per Me, Ora Fatale27 Ah! Se L'error T'ingombra

Треклист CD2

01 Or Co' Dadi, Ma Fra Poco02 In Braccio Al Mio Rival!03 Giorni Poveri Vivea04 Deh! Rallentate, O Barbari05 Quale D'armi Fragor06 L'onda De' Suoni Mistici07 Di Quella Pira08 Siam Giunti, Ecco La Torre09 D'amor Sull'ali Rosee10 Miserere - Quel Suon, Quelle Preci11 Di Te! Di Te! Scordarmi Di Te!12 Udiste - Come Albeggi13 Mira, Di Acerbe Lagrime14 Conte! - Ne Cessi15 Vivra, Contende Il Giubilo16 Madre, Non Dormi17 Si, La Stanchezza M'opprime18 Ai Nostri Monti Ritorneremo19 Che! Non M'inganna Quel Fioco Lume20 Parlar Non Vuoi?21 Ti Scosta!22 Prima Che D'altri Vivere

Лог CD1

Exact Audio Copy V1.0 beta 3 from 29. August 2011
Отчёт EAC об извлечении, выполненном 14. сентября 2014, 11:50
Guiseppe Verdi / Il Trovatore (Levine) (CD 1)
Дисковод: Optiarc DVD RW AD-7170A Adapter: 0 ID: 0
Режим чтения : ДостоверностьИспользование точного потока : ДаОтключение кэша аудио : ДаИспользование указателей C2 : Нет
Коррекция смещения при чтении : 48Способность читать области Lead-in и Lead-out : НетЗаполнение пропущенных сэмплов тишиной : ДаУдаление блоков с тишиной в начале и конце : НетПри вычислениях CRC использовались нулевые сэмплы : ДаИнтерфейс : Встроенный Win32-интерфейс для Win NT/2000
Выходной формат : Внутренние WAV-операцииФормат сэмплов : 44.100 Гц; 16 бит; стерео
TOC извлечённого CD
Трек | Старт | Длительность | Начальный сектор | Конечный сектор --------------------------------------------------------------------- 1 | 0:00.00 | 3:04.30 | 0 | 13829 2 | 3:04.30 | 0:41.58 | 13830 | 16962 3 | 3:46.13 | 3:30.67 | 16963 | 32779 4 | 7:17.05 | 1:59.63 | 32780 | 41767 5 | 9:16.68 | 1:12.05 | 41768 | 47172 6 | 10:28.73 | 2:13.32 | 47173 | 57179 7 | 12:42.30 | 3:45.68 | 57180 | 74122 8 | 16:28.23 | 0:53.37 | 74123 | 78134 9 | 17:21.60 | 2:53.28 | 78135 | 91137 10 | 20:15.13 | 1:52.55 | 91138 | 99592 11 | 22:07.68 | 1:30.07 | 99593 | 106349 12 | 23:38.00 | 2:03.08 | 106350 | 115582 13 | 25:41.08 | 2:32.37 | 115583 | 127019 14 | 28:13.45 | 2:40.05 | 127020 | 139024 15 | 30:53.50 | 2:43.03 | 139025 | 151252 16 | 33:36.53 | 1:57.37 | 151253 | 160064 17 | 35:34.15 | 1:01.15 | 160065 | 164654 18 | 36:35.30 | 4:48.43 | 164655 | 186297 19 | 41:23.73 | 2:23.62 | 186298 | 197084 20 | 43:47.60 | 2:54.45 | 197085 | 210179 21 | 46:42.30 | 1:21.45 | 210180 | 216299 22 | 48:04.00 | 2:06.45 | 216300 | 225794 23 | 50:10.45 | 1:42.30 | 225795 | 233474 24 | 51:53.00 | 3:30.48 | 233475 | 249272 25 | 55:23.48 | 0:47.55 | 249273 | 252852 26 | 56:11.28 | 3:01.00 | 252853 | 266427 27 | 59:12.28 | 9:22.60 | 266428 | 308637
Характеристики диапазона извлечения и сообщения об ошибках
Выбранный диапазон
Имя файла C:\Users\Uncia\Music\Rips\Trovatore 1991\2\Guiseppe Verdi - Il Trovatore (Levine) (CD 1).wav
Пиковый уровень 100.0 % Скорость извлечения 4.9 X Качество диапазона 99.9 % CRC теста 52B815A2 CRC копии 52B815A2 Копирование... OK
Ошибок не произошло
AccurateRip: сводка
Трек 1 : извлечено точно (доверие 4) [461A63F2] (AR v2)Трек 2 : извлечено точно (доверие 4) [5E272D80] (AR v2)Трек 3 : извлечено точно (доверие 4) [ADAB3B43] (AR v2)Трек 4 : извлечено точно (доверие 4) [FDF983A8] (AR v2)Трек 5 : извлечено точно (доверие 4) [601EA3A4] (AR v2)Трек 6 : извлечено точно (доверие 4) [AF752FCB] (AR v2)Трек 7 : извлечено точно (доверие 4) [35C7E15B] (AR v2)Трек 8 : извлечено точно (доверие 4) [86430F9A] (AR v2)Трек 9 : извлечено точно (доверие 4) [10DA62A3] (AR v2)Трек 10 : извлечено точно (доверие 4) [9D44D287] (AR v2)Трек 11 : извлечено точно (доверие 4) [08EBF269] (AR v2)Трек 12 : извлечено точно (доверие 4) [73029D34] (AR v2)Трек 13 : извлечено точно (доверие 4) [A9951FE6] (AR v2)Трек 14 : извлечено точно (доверие 4) [997454EF] (AR v2)Трек 15 : извлечено точно (доверие 4) [4509A20C] (AR v2)Трек 16 : извлечено точно (доверие 4) [3A3EB84D] (AR v2)Трек 17 : извлечено точно (доверие 4) [E0AE84DA] (AR v2)Трек 18 : извлечено точно (доверие 4) [F9701F47] (AR v2)Трек 19 : извлечено точно (доверие 4) [1C41CFEB] (AR v2)Трек 20 : извлечено точно (доверие 4) [F4A2789E] (AR v2)Трек 21 : извлечено точно (доверие 4) [16F5BC65] (AR v2)Трек 22 : извлечено точно (доверие 4) [0B116469] (AR v2)Трек 23 : извлечено точно (доверие 4) [B678B377] (AR v2)Трек 24 : извлечено точно (доверие 4) [51929EC5] (AR v2)Трек 25 : извлечено точно (доверие 4) [0F00FFB1] (AR v2)Трек 26 : извлечено точно (доверие 4) [0117FFF8] (AR v2)Трек 27 : извлечено точно (доверие 4) [3BEE06FE] (AR v2)
Все треки извлечены точно
Конец отчёта
---- CUETools DB Plugin V2.1.3
[CTDB TOCID: ZKhzrgEIPzVC5DqSqMvtZ9j9H94-] disk not present in database, Submit result: ZKhzrgEIPzVC5DqSqMvtZ9j9H94- has been uploaded

Лог CD2

Exact Audio Copy V1.0 beta 3 from 29. August 2011
Отчёт EAC об извлечении, выполненном 14. сентября 2014, 12:14
Giuseppe Verdi / Il Trovatore (Levine) (CD 2)
Дисковод: Optiarc DVD RW AD-7170A Adapter: 0 ID: 0
Режим чтения : ДостоверностьИспользование точного потока : ДаОтключение кэша аудио : ДаИспользование указателей C2 : Нет
Коррекция смещения при чтении : 48Способность читать области Lead-in и Lead-out : НетЗаполнение пропущенных сэмплов тишиной : ДаУдаление блоков с тишиной в начале и конце : НетПри вычислениях CRC использовались нулевые сэмплы : ДаИнтерфейс : Встроенный Win32-интерфейс для Win NT/2000
Выходной формат : Внутренние WAV-операцииФормат сэмплов : 44.100 Гц; 16 бит; стерео
TOC извлечённого CD
Трек | Старт | Длительность | Начальный сектор | Конечный сектор --------------------------------------------------------------------- 1 | 0:00.00 | 4:16.43 | 0 | 19242 2 | 4:16.43 | 2:15.55 | 19243 | 29422 3 | 6:32.23 | 3:02.60 | 29423 | 43132 4 | 9:35.08 | 2:01.27 | 43133 | 52234 5 | 11:36.35 | 5:12.00 | 52235 | 75634 6 | 16:48.35 | 1:37.03 | 75635 | 82912 7 | 18:25.38 | 1:55.50 | 82913 | 91587 8 | 20:21.13 | 3:10.40 | 91588 | 105877 9 | 23:31.53 | 4:07.32 | 105878 | 124434 10 | 27:39.10 | 4:45.50 | 124435 | 145859 11 | 32:24.60 | 2:30.45 | 145860 | 157154 12 | 34:55.30 | 1:45.35 | 157155 | 165064 13 | 36:40.65 | 2:09.33 | 165065 | 174772 14 | 38:50.23 | 1:15.40 | 174773 | 180437 15 | 40:05.63 | 2:25.27 | 180438 | 191339 16 | 42:31.15 | 5:15.10 | 191340 | 214974 17 | 47:46.25 | 1:24.15 | 214975 | 221289 18 | 49:10.40 | 2:08.58 | 221290 | 230947 19 | 51:19.23 | 1:14.57 | 230948 | 236554 20 | 52:34.05 | 3:08.25 | 236555 | 250679 21 | 55:42.30 | 1:04.50 | 250680 | 255529 22 | 56:47.05 | 3:43.20 | 255530 | 272274
Характеристики диапазона извлечения и сообщения об ошибках
Выбранный диапазон
Имя файла C:\Users\Uncia\Music\Rips\Trovatore 1991\2\Giuseppe Verdi - Il Trovatore (Levine) (CD 2).wav
Пиковый уровень 100.0 % Скорость извлечения 5.3 X Качество диапазона 100.0 % CRC теста F6EBF269 CRC копии F6EBF269 Копирование... OK
Ошибок не произошло
AccurateRip: сводка
Трек 1 : извлечено точно (доверие 5) [0EBDD823] (AR v2)Трек 2 : извлечено точно (доверие 5) [470FAB61] (AR v2)Трек 3 : извлечено точно (доверие 5) [3F06E6FC] (AR v2)Трек 4 : извлечено точно (доверие 5) [BF4773BE] (AR v2)Трек 5 : извлечено точно (доверие 5) [DD5A2392] (AR v2)Трек 6 : извлечено точно (доверие 5) [3DAB204F] (AR v2)Трек 7 : извлечено точно (доверие 5) [103FF70B] (AR v2)Трек 8 : извлечено точно (доверие 5) [5B08C8DD] (AR v2)Трек 9 : извлечено точно (доверие 5) [6E240AF8] (AR v2)Трек 10 : извлечено точно (доверие 5) [9DF121CC] (AR v2)Трек 11 : извлечено точно (доверие 5) [2B288DD8] (AR v2)Трек 12 : извлечено точно (доверие 5) [FD86EF83] (AR v2)Трек 13 : извлечено точно (доверие 5) [6E6156B5] (AR v2)Трек 14 : извлечено точно (доверие 5) [502198F4] (AR v2)Трек 15 : извлечено точно (доверие 5) [8E5A9970] (AR v2)Трек 16 : извлечено точно (доверие 5) [F9D8C8D8] (AR v2)Трек 17 : извлечено точно (доверие 5) [5FA1D1D7] (AR v2)Трек 18 : извлечено точно (доверие 5) [243B8CF0] (AR v2)Трек 19 : извлечено точно (доверие 5) [4FA26FEA] (AR v2)Трек 20 : извлечено точно (доверие 5) [0ED75A47] (AR v2)Трек 21 : извлечено точно (доверие 5) [FE7CEAEA] (AR v2)Трек 22 : извлечено точно (доверие 5) [AF1A7C5D] (AR v2)
Все треки извлечены точно
Конец отчёта
---- CUETools DB Plugin V2.1.3
[CTDB TOCID: ziKjKPFmj1FehT4GdmwDy7hrYsQ-] found, Submit result: already submitted[3eac8082] (1/1) Accurately ripped
------------------------------------------------------------



Показать сообщения:    

Текущее время: 08-Дек 11:01

Часовой пояс: UTC + 3


Вы не можете начинать темы
Вы не можете отвечать на сообщения
Вы не можете редактировать свои сообщения
Вы не можете удалять свои сообщения
Вы не можете голосовать в опросах
Вы не можете прикреплять файлы к сообщениям
Вы не можете скачивать файлы