(Opera) Alfano - Cyrano De Bergerac (Stapp, Johns, di Cesare, Blancas – Orchestra della RAI di Torino, Arena) - 2004, APE (image+.cue) lossless


 

[Цитировать]

Franco Alfano - Cyrano De Bergerac
Жанр: Opera
Страна-производитель диска: USA
Год издания диска: 2004
Издатель (лейбл): Opera D'Oro
Номер по каталогу: OPD-1411
Дата записи: 1975
Аудиокодек: APE
Тип рипа: image+.cue
Битрейт аудио: lossless
Продолжительность: 71'10 + 51'49
Источник: собственный рип
Наличие сканов в содержимом раздачи: да
Треклист:

CD1

1. Guardate tutti la: non si puo veder nulla
2. Beffare un Montfleury! Che coraggio!
3. Io getto con grazia il cappello
4. E tutto cio per un Montfleury, borbottone
5. De Guiche ne ha prezzolati cento contro di me
6. Frutta candita! Torte al miele! Bue stufato!
7. Benedetta sia l'ore che voi, ricordandeo che anch'io
8. Dunque... Io l'amo. Ma occorre che ancor che voi sappiate
9. Possiamo entrar!... Si... Siete qui!
10. Preferisco cantare, sognare
11. Vieni fra le mie braccia!
12. ...e poi ella e partira insieme a un moschettiere
13. Tutto cio... Mi spaventa... Quando s'ama qualcuno
14. Su... Su... Ma voi sarete muto, nevver?
15. La sera scende... Aspettiamo... Siam soli
16. La puoi chiamar... Rossana!
17. Io vi amo... Deliro, ti amo... Sono pazzo

CD2

1. E tremondo... Piu nulla!... Perdio!
2. Vien qui, pastor: siedi un poco fra noi
3. Ma tu me li fai piangere
4. Cristiano... Rossana!... Ahime!
5. Oh no! sempicemente andai al trotto dei cavalli
6. Ed ora, o mio Cristiano
7. Cyrano!... Che c'e? come sei smunto!
8. E voi rimarrete qui, invano bionda
9. Da ben quattordici anni, e questo il primo di
10. Le foglie!... Son d'un caldo biondo veneziano
11. Rossana... Addio! Io moriro. Sara stasera, credo
12. N'ero sicuro: e qui!
Исполнители:
Franco Alfano - Cyrano De Bergerac
Commedia Eroica in four acts
Libretto Henri Cain after Edmond Rostand's play
Olivia Stapp – Roxane
William Johns – Cyrano
Ezio di Cesare – Christiano
Antonio Blancas – De Guiche
Claudio Strudthoff - – Ragueneau
Alfredo Giacomotti – Carbon
Dino Mantovani – Vicomte de Valvert
Miti Truccato Pace – Governess
Agata Palmi – Lise
Giovanni Savolardo – Le Bret
Coro e Orchestra della RAI di Torino
conducted by Maurizio Arena
Sung in Frech

Лог создания рипа

CD1

Exact Audio Copy V1.0 beta 3 from 29. August 2011
EAC extraction logfile from 3. September 2014, 20:28
Alfano / Cyrano de Bergerac., Arena CD1
Used drive : TS8XDVDSTRANSCEND Adapter: 1 ID: 1
Read mode : Secure
Utilize accurate stream : Yes
Defeat audio cache : Yes
Make use of C2 pointers : No
Read offset correction : 6
Overread into Lead-In and Lead-Out : No
Fill up missing offset samples with silence : Yes
Delete leading and trailing silent blocks : No
Null samples used in CRC calculations : Yes
Used interface : Native Win32 interface for Win NT & 2000
Used output format : Monkey's Audio Lossless Encoder
Selected bitrate : High Lossless Compression
Quality : High
Add ID3 tag : No
Command line compressor : C:\Program Files (x86)\Exact Audio Copy\MAC\MAC.exe
TOC of the extracted CD
Track | Start | Length | Start sector | End sector
---------------------------------------------------------
1 | 0:00.00 | 4:25.67 | 0 | 19941
2 | 4:25.67 | 1:51.60 | 19942 | 28326
3 | 6:17.52 | 4:16.15 | 28327 | 47541
4 | 10:33.67 | 3:44.71 | 47542 | 64412
5 | 14:18.63 | 3:35.41 | 64413 | 80578
6 | 17:54.29 | 5:11.34 | 80579 | 103937
7 | 23:05.63 | 4:15.19 | 103938 | 123081
8 | 27:21.07 | 3:30.37 | 123082 | 138868
9 | 30:51.44 | 4:37.46 | 138869 | 159689
10 | 35:29.15 | 3:58.50 | 159690 | 177589
11 | 39:27.65 | 3:54.05 | 177590 | 195144
12 | 43:21.70 | 4:09.49 | 195145 | 213868
13 | 47:31.44 | 5:12.47 | 213869 | 237315
14 | 52:44.16 | 2:52.68 | 237316 | 250283
15 | 55:37.09 | 3:28.27 | 250284 | 265910
16 | 59:05.36 | 6:40.62 | 265911 | 295972
17 | 65:46.23 | 5:23.57 | 295973 | 320254
Range status and errors
Selected range
Filename D:\EAC\Alfano - Cyrano de Bergerac., Arena CD1.wav
Peak level 100.0 %
Extraction speed 3.4 X
Range quality 100.0 %
Test CRC CA60FB8A
Copy CRC CA60FB8A
Copy OK
No errors occurred
AccurateRip summary
Track 1 accurately ripped (confidence 1) [24FC620E] (AR v1)
Track 2 accurately ripped (confidence 1) [1EC9AA90] (AR v1)
Track 3 accurately ripped (confidence 1) [6A53D5F3] (AR v1)
Track 4 accurately ripped (confidence 1) [AD5950D4] (AR v1)
Track 5 accurately ripped (confidence 1) [A7EAC3A1] (AR v1)
Track 6 accurately ripped (confidence 1) [482FFF61] (AR v1)
Track 7 accurately ripped (confidence 1) [F6AE4EE2] (AR v1)
Track 8 accurately ripped (confidence 1) [394D20C0] (AR v1)
Track 9 accurately ripped (confidence 1) [8F13B8B6] (AR v1)
Track 10 accurately ripped (confidence 1) [8200B4A5] (AR v1)
Track 11 accurately ripped (confidence 1) [BD270C3F] (AR v1)
Track 12 accurately ripped (confidence 1) [A124E443] (AR v1)
Track 13 accurately ripped (confidence 1) [6E17591E] (AR v1)
Track 14 accurately ripped (confidence 1) [A734424C] (AR v1)
Track 15 accurately ripped (confidence 1) [8FC4DCB7] (AR v1)
Track 16 accurately ripped (confidence 1) [B0DA7792] (AR v1)
Track 17 accurately ripped (confidence 1) [33524310] (AR v1)
All tracks accurately ripped
End of status report
---- CUETools DB Plugin V2.1.3
[CTDB TOCID: lfCMl9sorSKBP30ddqBPxEA2Aqs-] disk not present in database, Submit result: unrecognized or virtual drive
==== Log checksum 338819B98B5499951FBD870C26BFA081BB6CE23E7784A92D24A6BB965EF61CE2 ====

CD2

Exact Audio Copy V1.0 beta 3 from 29. August 2011
EAC extraction logfile from 3. September 2014, 20:41
Alfano / Cyrano de Bergerac., Arena CD2
Used drive : TSSTcorpCDDVDW SE-208AB Adapter: 1 ID: 0
Read mode : Secure
Utilize accurate stream : Yes
Defeat audio cache : Yes
Make use of C2 pointers : No
Read offset correction : 6
Overread into Lead-In and Lead-Out : No
Fill up missing offset samples with silence : Yes
Delete leading and trailing silent blocks : No
Null samples used in CRC calculations : Yes
Used interface : Native Win32 interface for Win NT & 2000
Used output format : Monkey's Audio Lossless Encoder
Selected bitrate : High Lossless Compression
Quality : High
Add ID3 tag : No
Command line compressor : C:\Program Files (x86)\Exact Audio Copy\MAC\MAC.exe
TOC of the extracted CD
Track | Start | Length | Start sector | End sector
---------------------------------------------------------
1 | 0:00.00 | 3:32.54 | 0 | 15953
2 | 3:32.54 | 4:50.03 | 15954 | 37706
3 | 8:22.57 | 5:32.39 | 37707 | 62645
4 | 13:55.21 | 3:15.61 | 62646 | 77331
5 | 17:11.07 | 4:04.72 | 77332 | 95703
6 | 21:16.04 | 4:22.34 | 95704 | 115387
7 | 25:38.38 | 4:27.23 | 115388 | 135435
8 | 30:05.61 | 6:01.28 | 135436 | 162538
9 | 36:07.14 | 3:11.67 | 162539 | 176930
10 | 39:19.06 | 4:11.05 | 176931 | 195760
11 | 43:30.11 | 3:51.67 | 195761 | 213152
12 | 47:22.03 | 4:27.28 | 213153 | 233205
Range status and errors
Selected range
Filename D:\EAC\Alfano - Cyrano de Bergerac., Arena CD2.wav
Peak level 99.9 %
Extraction speed 1.8 X
Range quality 100.0 %
Test CRC B2AE81AA
Copy CRC B2AE81AA
Copy OK
No errors occurred
AccurateRip summary
Track 1 accurately ripped (confidence 1) [0E7FB7DD] (AR v1)
Track 2 accurately ripped (confidence 1) [A8489EF0] (AR v1)
Track 3 accurately ripped (confidence 1) [B9A041F8] (AR v1)
Track 4 accurately ripped (confidence 1) [D5BE25F0] (AR v1)
Track 5 accurately ripped (confidence 1) [1D43D7B5] (AR v1)
Track 6 accurately ripped (confidence 1) [207C406B] (AR v1)
Track 7 accurately ripped (confidence 1) [1EE8A2D6] (AR v1)
Track 8 accurately ripped (confidence 1) [0431C999] (AR v1)
Track 9 accurately ripped (confidence 1) [23EC159F] (AR v1)
Track 10 accurately ripped (confidence 1) [EB297C94] (AR v1)
Track 11 accurately ripped (confidence 1) [ADE9D60A] (AR v1)
Track 12 accurately ripped (confidence 1) [68547CD2] (AR v1)
All tracks accurately ripped
End of status report
---- CUETools DB Plugin V2.1.3
[CTDB TOCID: _N1anZ.RMsyNzQs5WFpLFvjE1vs-] disk not present in database, Submit result: _N1anZ.RMsyNzQs5WFpLFvjE1vs- has been uploaded
==== Log checksum E6602F924321BC5BB2E25E8CFA6AEAF4AE0F6EF12841A0AD5918165622E30238 ====

Содержание индексной карты (.CUE)

CD1

REM GENRE Opera
REM DATE 1975
REM DISCID 0610AE11
REM COMMENT "ExactAudioCopy v1.0b3"
PERFORMER "Alfano"
TITLE "Cyrano de Bergerac., Arena CD1"
FILE "Alfano - Cyrano de Bergerac., Arena CD1.ape" WAVE
TRACK 01 AUDIO
TITLE "Guardate tutti la: non si puo veder nulla"
PERFORMER "Alfano"
INDEX 01 00:00:00
TRACK 02 AUDIO
TITLE "Beffare un Montfleury! Che coraggio!"
PERFORMER "Alfano"
INDEX 00 04:23:69
INDEX 01 04:25:67
TRACK 03 AUDIO
TITLE "Io getto con grazia il cappello"
PERFORMER "Alfano"
INDEX 00 06:15:54
INDEX 01 06:17:52
TRACK 04 AUDIO
TITLE "E tutto cio per un Montfleury, borbottone"
PERFORMER "Alfano"
INDEX 00 10:31:69
INDEX 01 10:33:67
TRACK 05 AUDIO
TITLE "De Guiche ne ha prezzolati cento contro di me"
PERFORMER "Alfano"
INDEX 00 14:16:65
INDEX 01 14:18:63
TRACK 06 AUDIO
TITLE "Frutta candita! Torte al miele! Bue stufato!"
PERFORMER "Alfano"
INDEX 00 17:52:31
INDEX 01 17:54:29
TRACK 07 AUDIO
TITLE "Benedetta sia l'ore che voi, ricordandeo che anch'io"
PERFORMER "Alfano"
INDEX 00 23:03:65
INDEX 01 23:05:63
TRACK 08 AUDIO
TITLE "Dunque... Io l'amo. Ma occorre che ancor che voi sappiate"
PERFORMER "Alfano"
INDEX 00 27:19:09
INDEX 01 27:21:07
TRACK 09 AUDIO
TITLE "Possiamo entrar!... Si... Siete qui!"
PERFORMER "Alfano"
INDEX 00 30:49:46
INDEX 01 30:51:44
TRACK 10 AUDIO
TITLE "Preferisco cantare, sognare"
PERFORMER "Alfano"
INDEX 00 35:27:17
INDEX 01 35:29:15
TRACK 11 AUDIO
TITLE "Vieni fra le mie braccia!"
PERFORMER "Alfano"
INDEX 00 39:25:67
INDEX 01 39:27:65
TRACK 12 AUDIO
TITLE "...e poi ella e partira insieme a un moschettiere"
PERFORMER "Alfano"
INDEX 00 43:19:72
INDEX 01 43:21:70
TRACK 13 AUDIO
TITLE "Tutto cio... Mi spaventa... Quando s'ama qualcuno"
PERFORMER "Alfano"
INDEX 00 47:29:46
INDEX 01 47:31:44
TRACK 14 AUDIO
TITLE "Su... Su... Ma voi sarete muto, nevver?"
PERFORMER "Alfano"
INDEX 00 52:42:18
INDEX 01 52:44:16
TRACK 15 AUDIO
TITLE "La sera scende... Aspettiamo... Siam soli"
PERFORMER "Alfano"
INDEX 00 55:35:11
INDEX 01 55:37:09
TRACK 16 AUDIO
TITLE "La puoi chiamar... Rossana!"
PERFORMER "Alfano"
INDEX 00 59:03:38
INDEX 01 59:05:36
TRACK 17 AUDIO
TITLE "Io vi amo... Deliro, ti amo... Sono pazzo"
PERFORMER "Alfano"
INDEX 00 65:44:25
INDEX 01 65:46:23

CD2

REM GENRE Opera
REM DATE 1975
REM DISCID 920C250C
REM COMMENT "ExactAudioCopy v1.0b3"
PERFORMER "Alfano"
TITLE "Cyrano de Bergerac., Arena CD2"
FILE "Alfano - Cyrano de Bergerac., Arena CD2.ape" WAVE
TRACK 01 AUDIO
TITLE "1. E tremondo... Piu nulla!... Perdio!"
PERFORMER "Alfano"
INDEX 01 00:00:00
TRACK 02 AUDIO
TITLE "Vien qui, pastor: siedi un poco fra noi"
PERFORMER "Alfano"
INDEX 00 03:30:56
INDEX 01 03:32:54
TRACK 03 AUDIO
TITLE "Ma tu me li fai piangere"
PERFORMER "Alfano"
INDEX 00 08:20:59
INDEX 01 08:22:57
TRACK 04 AUDIO
TITLE "Cristiano... Rossana!... Ahime!"
PERFORMER "Alfano"
INDEX 00 13:53:23
INDEX 01 13:55:21
TRACK 05 AUDIO
TITLE "Oh no! sempicemente andai al trotto dei cavalli"
PERFORMER "Alfano"
INDEX 00 17:09:09
INDEX 01 17:11:07
TRACK 06 AUDIO
TITLE "Ed ora, o mio Cristiano"
PERFORMER "Alfano"
INDEX 00 21:14:06
INDEX 01 21:16:04
TRACK 07 AUDIO
TITLE "Cyrano!... Che c'e? come sei smunto!"
PERFORMER "Alfano"
INDEX 00 25:36:40
INDEX 01 25:38:38
TRACK 08 AUDIO
TITLE "E voi rimarrete qui, invano bionda"
PERFORMER "Alfano"
INDEX 00 30:03:63
INDEX 01 30:05:61
TRACK 09 AUDIO
TITLE "Da ben quattordici anni, e questo il primo di"
PERFORMER "Alfano"
INDEX 00 36:05:16
INDEX 01 36:07:14
TRACK 10 AUDIO
TITLE "Le foglie!... Son d'un caldo biondo veneziano"
PERFORMER "Alfano"
INDEX 00 39:17:08
INDEX 01 39:19:06
TRACK 11 AUDIO
TITLE "Rossana... Addio! Io moriro. Sara stasera, credo"
PERFORMER "Alfano"
INDEX 00 43:28:13
INDEX 01 43:30:11
TRACK 12 AUDIO
TITLE "N'ero sicuro: e qui!"
PERFORMER "Alfano"
INDEX 00 47:20:05
INDEX 01 47:22:03



Показать сообщения:    

Текущее время: 10-Дек 17:45

Часовой пояс: UTC + 3


Вы не можете начинать темы
Вы не можете отвечать на сообщения
Вы не можете редактировать свои сообщения
Вы не можете удалять свои сообщения
Вы не можете голосовать в опросах
Вы не можете прикреплять файлы к сообщениям
Вы не можете скачивать файлы