(opera) Gaetano Donizetti - Poliuto (Jose Carreras, Katia Ricciarelli, Juan Pons, Laszlo Polgar - Oleg Caetani - 1986) - 1989, FLAC (tracks+.cue) lossless


 

[Цитировать]

Gaetano Donizetti - Poliuto (Jose Carreras, Katia Ricciarelli, Juan Pons, Laszlo Polgar - Oleg Caetani - 1986)
Жанр: opera
Страна-производитель диска: Austria
Год издания диска: 1989
Издатель (лейбл): CBS Records
Дата записи: 1986
Аудиокодек: FLAC
Тип рипа: tracks+.cue
Битрейт аудио: lossless
Продолжительность: CD1 - 46'42" CD2 - 59'36"
Источник: собственный рип
Наличие сканов в содержимом раздачи: да
Исполнители:
Poliuto by Gaetano Donizetti performed in Italian
Conductor Oleg Caetani - 1986(LC)
Orchestra - Wiener Symphoniker
Chorus - Chor der Wiener Singakademie
Poliuto - Jose Carreras
Paolina - Katia Ricciarelli
Severo - Juan (Joan) Pons
Callistene - Laszlo Polgar
Nearco - Paolo Gavanelli
Felice - Harrie Peeters
A Christian - Jorge Pita

Треклист

Disc: 1
1. Poliuto: Act I: Sinfonia 'O nume pietoso'
2. Poliuto: Act I: Scendiam
3. Poliuto: Act I: 'Tu sei commosso?'
4. Poliuto: Act I: D'un alma troppo fervida
5. Poliuto: Act I: Ove m'inoltro?
6. Poliuto: Act I: Infiamma quest'alma
7. Poliuto: Act I: Di quasi soavi lagrime
8. Poliuto: Act I: Mira... Donna!
9. Poliuto: Act I: Oggetto de'miei voti
10. Poliuto: Act I: Il croconsol s'avanza
11. Poliuto: Act I: Plausi all'inclito Severo
12. Poliuto: Act I: Decio, signor del mondo
13. Poliuto: Act I: Di tua beltade immagine
14. Poliuto: Act I: Come fausta e a noi l'aurora
15. Poliuto: Act I: Io ti perdo e senza speme
Disc: 2
1. Poliuto: Act II: Inoltra il pie
2. Poliuto: Act II: Donna... Che! Possenti numi!
3. Poliuto: Act II: Il piu lieto
4. Poliuto: Act II: Ah! chi ti guida l'incauto?
5. Poliuto: Act II: Quest' alma e troppo debole
6. Poliuto: Act II: Veleno e l'aura
7. Poliuto: Act II: Sfolgero divino raggio;
8. Poliuto: Act II: Celeste un'aura
9. Poliuto: Act II: Magistrati, guerrieri, popolo
10. Poliuto: Act II: La sagrilega parola
11. Poliuto: Act II: Alla morte lo serbate
12. Poliuto: Act II: Lasciami in pace
13. Poliuto: Act III: Vieni, vieni... al circo
14. Poliuto: Act III: Ecco il sommo Pontefice
15. Poliuto: Act III: Alimento alla fiamma
16. Poliuto: Act III: Donna! Malvagio!
17. Poliuto: Act III: Ah! fuggi da morte
18. Poliuto: Act III: Fia vero! di
19. Poliuto: Act III: Alle fiere chi oltraggia
20. Poliuto: Act III: Piu s'indugia?
21. Poliuto: Act III: Il suon dell'arpe angeliche

Лог создания рипа

Poliuto - Caetani CD1.log

Exact Audio Copy V1.0 beta 3 from 29. August 2011
EAC extraction logfile from 16. June 2014, 19:01
Jose Carreras, Katia Ricciarelli, Juan Pons, Laszlo Polgar / Poliuto - Caetani CD1
Used drive : hp DVDRAM GT50N Adapter: 0 ID: 0
Read mode : Secure
Utilize accurate stream : Yes
Defeat audio cache : Yes
Make use of C2 pointers : No
Read offset correction : 103
Overread into Lead-In and Lead-Out : No
Fill up missing offset samples with silence : Yes
Delete leading and trailing silent blocks : No
Null samples used in CRC calculations : Yes
Used interface : Native Win32 interface for Win NT & 2000
Gap handling : Appended to previous track
Used output format : User Defined Encoder
Selected bitrate : 128 kBit/s
Quality : High
Add ID3 tag : No
Command line compressor : C:\Program Files\Exact Audio Copy\Flac\flac.exe
Additional command line options : -V -8 -T "Genre=%genre%" -T "Artist=%artist%" -T "Title=%title%" -T "Album=%albumtitle%" -T "Date=%year%" -T "Tracknumber=%tracknr%" -T "Comment=%comment%" %source%
TOC of the extracted CD
Track | Start | Length | Start sector | End sector
---------------------------------------------------------
1 | 0:00.00 | 9:45.02 | 0 | 43876
2 | 9:45.02 | 4:04.58 | 43877 | 62234
3 | 13:49.60 | 3:30.45 | 62235 | 78029
4 | 17:20.30 | 1:59.45 | 78030 | 86999
5 | 19:20.00 | 4:44.55 | 87000 | 108354
6 | 24:04.55 | 1:17.05 | 108355 | 114134
7 | 25:21.60 | 3:05.62 | 114135 | 128071
8 | 28:27.47 | 2:05.35 | 128072 | 137481
9 | 30:33.07 | 2:36.73 | 137482 | 149254
10 | 33:10.05 | 2:30.00 | 149255 | 160504
11 | 35:40.05 | 2:57.47 | 160505 | 173826
12 | 38:37.52 | 1:10.40 | 173827 | 179116
13 | 39:48.17 | 2:56.18 | 179117 | 192334
14 | 42:44.35 | 1:13.70 | 192335 | 197879
15 | 43:58.30 | 2:44.02 | 197880 | 210181
Track 1
Filename D:\Temp\Доницетти - Poliuto - Jose Carreras, Katia Ricciarelli, Juan Pons, Laszlo Polgar - Caetani 1986\Poliuto - Caetani CD1\01. Act I- Sinfonia 'O nume pietoso'.wav
Pre-gap length 0:00:02.00
Peak level 79.2 %
Extraction speed 2.9 X
Track quality 100.0 %
Test CRC CCC73658
Copy CRC CCC73658
Accurately ripped (confidence 3) [B6E140C2] (AR v2)
Copy OK
Track 2
Filename D:\Temp\Доницетти - Poliuto - Jose Carreras, Katia Ricciarelli, Juan Pons, Laszlo Polgar - Caetani 1986\Poliuto - Caetani CD1\02. Act I- Scendiam.wav
Pre-gap length 0:00:01.22
Peak level 70.1 %
Extraction speed 3.1 X
Track quality 100.0 %
Test CRC 3BB6989F
Copy CRC 3BB6989F
Accurately ripped (confidence 3) [1758A1A4] (AR v2)
Copy OK
Track 3
Filename D:\Temp\Доницетти - Poliuto - Jose Carreras, Katia Ricciarelli, Juan Pons, Laszlo Polgar - Caetani 1986\Poliuto - Caetani CD1\03. Act I- 'Tu sei commosso'.wav
Peak level 69.2 %
Extraction speed 3.2 X
Track quality 100.0 %
Test CRC AB25F304
Copy CRC AB25F304
Accurately ripped (confidence 3) [A30E7AA1] (AR v2)
Copy OK
Track 4
Filename D:\Temp\Доницетти - Poliuto - Jose Carreras, Katia Ricciarelli, Juan Pons, Laszlo Polgar - Caetani 1986\Poliuto - Caetani CD1\04. Act I- D'un alma troppo fervida.wav
Peak level 55.2 %
Extraction speed 3.0 X
Track quality 100.0 %
Test CRC 4E830678
Copy CRC 4E830678
Accurately ripped (confidence 3) [A7CB3FDA] (AR v2)
Copy OK
Track 5
Filename D:\Temp\Доницетти - Poliuto - Jose Carreras, Katia Ricciarelli, Juan Pons, Laszlo Polgar - Caetani 1986\Poliuto - Caetani CD1\05. Act I- Ove m'inoltro.wav
Peak level 54.0 %
Extraction speed 3.6 X
Track quality 100.0 %
Test CRC FAF4B82B
Copy CRC FAF4B82B
Accurately ripped (confidence 3) [F61E3AEE] (AR v2)
Copy OK
Track 6
Filename D:\Temp\Доницетти - Poliuto - Jose Carreras, Katia Ricciarelli, Juan Pons, Laszlo Polgar - Caetani 1986\Poliuto - Caetani CD1\06. Act I- Infiamma quest'alma.wav
Peak level 28.1 %
Extraction speed 2.9 X
Track quality 100.0 %
Test CRC 31496E48
Copy CRC 31496E48
Accurately ripped (confidence 3) [9ED5C803] (AR v2)
Copy OK
Track 7
Filename D:\Temp\Доницетти - Poliuto - Jose Carreras, Katia Ricciarelli, Juan Pons, Laszlo Polgar - Caetani 1986\Poliuto - Caetani CD1\07. Act I- Di quasi soavi lagrime.wav
Peak level 50.7 %
Extraction speed 3.6 X
Track quality 100.0 %
Test CRC 079F5B08
Copy CRC 079F5B08
Accurately ripped (confidence 3) [80D8FC29] (AR v2)
Copy OK
Track 8
Filename D:\Temp\Доницетти - Poliuto - Jose Carreras, Katia Ricciarelli, Juan Pons, Laszlo Polgar - Caetani 1986\Poliuto - Caetani CD1\08. Act I- Mira... Donna!.wav
Peak level 60.1 %
Extraction speed 2.8 X
Track quality 99.9 %
Test CRC 0DD5DD02
Copy CRC 0DD5DD02
Accurately ripped (confidence 3) [5FF3A8B1] (AR v2)
Copy OK
Track 9
Filename D:\Temp\Доницетти - Poliuto - Jose Carreras, Katia Ricciarelli, Juan Pons, Laszlo Polgar - Caetani 1986\Poliuto - Caetani CD1\09. Act I- Oggetto de'miei voti.wav
Peak level 67.2 %
Extraction speed 3.7 X
Track quality 100.0 %
Test CRC 27C4E65F
Copy CRC 27C4E65F
Accurately ripped (confidence 3) [D12729C4] (AR v2)
Copy OK
Track 10
Filename D:\Temp\Доницетти - Poliuto - Jose Carreras, Katia Ricciarelli, Juan Pons, Laszlo Polgar - Caetani 1986\Poliuto - Caetani CD1\10. Act I- Il croconsol s'avanza.wav
Peak level 61.9 %
Extraction speed 3.8 X
Track quality 100.0 %
Test CRC 3D9D88F7
Copy CRC 3D9D88F7
Accurately ripped (confidence 3) [ADC743CF] (AR v2)
Copy OK
Track 11
Filename D:\Temp\Доницетти - Poliuto - Jose Carreras, Katia Ricciarelli, Juan Pons, Laszlo Polgar - Caetani 1986\Poliuto - Caetani CD1\11. Act I- Plausi all'inclito Severo.wav
Pre-gap length 0:00:02.63
Peak level 59.4 %
Extraction speed 3.4 X
Track quality 99.9 %
Test CRC 2F03D42B
Copy CRC 2F03D42B
Accurately ripped (confidence 3) [186FD093] (AR v2)
Copy OK
Track 12
Filename D:\Temp\Доницетти - Poliuto - Jose Carreras, Katia Ricciarelli, Juan Pons, Laszlo Polgar - Caetani 1986\Poliuto - Caetani CD1\12. Act I- Decio, signor del mondo.wav
Peak level 30.6 %
Extraction speed 3.3 X
Track quality 100.0 %
Test CRC 81061E8D
Copy CRC 81061E8D
Accurately ripped (confidence 3) [4D774CF6] (AR v2)
Copy OK
Track 13
Filename D:\Temp\Доницетти - Poliuto - Jose Carreras, Katia Ricciarelli, Juan Pons, Laszlo Polgar - Caetani 1986\Poliuto - Caetani CD1\13. Act I- Di tua beltade immagine.wav
Peak level 33.4 %
Extraction speed 4.1 X
Track quality 100.0 %
Test CRC E7592E4D
Copy CRC E7592E4D
Accurately ripped (confidence 3) [D88F6F6C] (AR v2)
Copy OK
Track 14
Filename D:\Temp\Доницетти - Poliuto - Jose Carreras, Katia Ricciarelli, Juan Pons, Laszlo Polgar - Caetani 1986\Poliuto - Caetani CD1\14. Act I- Come fausta e a noi l'aurora.wav
Peak level 48.8 %
Extraction speed 3.3 X
Track quality 100.0 %
Test CRC 02A5D358
Copy CRC 02A5D358
Accurately ripped (confidence 3) [6EAF1C38] (AR v2)
Copy OK
Track 15
Filename D:\Temp\Доницетти - Poliuto - Jose Carreras, Katia Ricciarelli, Juan Pons, Laszlo Polgar - Caetani 1986\Poliuto - Caetani CD1\15. Act I- Io ti perdo e senza speme.wav
Peak level 58.6 %
Extraction speed 3.6 X
Track quality 99.9 %
Test CRC CFEA7CCB
Copy CRC CFEA7CCB
Accurately ripped (confidence 3) [6F87DF05] (AR v2)
Copy OK
All tracks accurately ripped
No errors occurred
End of status report
==== Log checksum F35D7F39A28FAEDD1A03BE9EA8B68CD90CBD782C263256D90785747A918DFB97 ====

Poliuto - Caetani CD2.log

Exact Audio Copy V1.0 beta 3 from 29. August 2011
EAC extraction logfile from 16. June 2014, 20:05
Jose Carreras, Katia Ricciarelli, Juan Pons, Laszlo Polgar / Poliuto - Caetani CD2
Used drive : hp DVDRAM GT50N Adapter: 0 ID: 0
Read mode : Secure
Utilize accurate stream : Yes
Defeat audio cache : Yes
Make use of C2 pointers : No
Read offset correction : 103
Overread into Lead-In and Lead-Out : No
Fill up missing offset samples with silence : Yes
Delete leading and trailing silent blocks : No
Null samples used in CRC calculations : Yes
Used interface : Native Win32 interface for Win NT & 2000
Gap handling : Appended to previous track
Used output format : User Defined Encoder
Selected bitrate : 128 kBit/s
Quality : High
Add ID3 tag : No
Command line compressor : C:\Program Files\Exact Audio Copy\Flac\flac.exe
Additional command line options : -V -8 -T "Genre=%genre%" -T "Artist=%artist%" -T "Title=%title%" -T "Album=%albumtitle%" -T "Date=%year%" -T "Tracknumber=%tracknr%" -T "Comment=%comment%" %source%
TOC of the extracted CD
Track | Start | Length | Start sector | End sector
---------------------------------------------------------
1 | 0:00.00 | 3:22.52 | 0 | 15201
2 | 3:22.52 | 0:59.43 | 15202 | 19669
3 | 4:22.20 | 2:48.65 | 19670 | 32334
4 | 7:11.10 | 1:28.30 | 32335 | 38964
5 | 8:39.40 | 2:37.27 | 38965 | 50766
6 | 11:16.67 | 2:05.13 | 50767 | 60154
7 | 13:22.05 | 1:40.62 | 60155 | 67716
8 | 15:02.67 | 3:06.23 | 67717 | 81689
9 | 18:09.15 | 4:27.55 | 81690 | 101769
10 | 22:36.70 | 5:52.37 | 101770 | 128206
11 | 28:29.32 | 2:01.03 | 128207 | 137284
12 | 30:30.35 | 3:23.15 | 137285 | 152524
13 | 33:53.50 | 1:03.20 | 152525 | 157269
14 | 34:56.70 | 2:47.12 | 157270 | 169806
15 | 37:44.07 | 3:22.63 | 169807 | 185019
16 | 41:06.70 | 5:38.52 | 185020 | 210421
17 | 46:45.47 | 3:30.25 | 210422 | 226196
18 | 50:15.72 | 1:37.00 | 226197 | 233471
19 | 51:52.72 | 4:40.00 | 233472 | 254471
20 | 56:32.72 | 1:22.28 | 254472 | 260649
21 | 57:55.25 | 1:41.25 | 260650 | 268249
Track 1
Filename D:\Temp\Доницетти - Poliuto - Jose Carreras, Katia Ricciarelli, Juan Pons, Laszlo Polgar - Caetani 1986\Poliuto - Caetani CD2\01. Act II- Inoltra il pie.wav
Pre-gap length 0:00:02.00
Peak level 56.4 %
Extraction speed 2.4 X
Track quality 100.0 %
Test CRC DE912D54
Copy CRC DE912D54
Accurately ripped (confidence 3) [569F5955] (AR v2)
Copy OK
Track 2
Filename D:\Temp\Доницетти - Poliuto - Jose Carreras, Katia Ricciarelli, Juan Pons, Laszlo Polgar - Caetani 1986\Poliuto - Caetani CD2\02. Act II- Donna... Che! Possenti numi!.wav
Peak level 55.6 %
Extraction speed 1.9 X
Track quality 100.0 %
Test CRC B9F28FEE
Copy CRC B9F28FEE
Accurately ripped (confidence 3) [B25BB5A7] (AR v2)
Copy OK
Track 3
Filename D:\Temp\Доницетти - Poliuto - Jose Carreras, Katia Ricciarelli, Juan Pons, Laszlo Polgar - Caetani 1986\Poliuto - Caetani CD2\03. Act II- Il piu lieto.wav
Peak level 46.1 %
Extraction speed 2.5 X
Track quality 100.0 %
Test CRC BFEA9AA4
Copy CRC BFEA9AA4
Accurately ripped (confidence 3) [86926CA8] (AR v2)
Copy OK
Track 4
Filename D:\Temp\Доницетти - Poliuto - Jose Carreras, Katia Ricciarelli, Juan Pons, Laszlo Polgar - Caetani 1986\Poliuto - Caetani CD2\04. Act II- Ah! chi ti guida l'incauto.wav
Peak level 48.0 %
Extraction speed 2.3 X
Track quality 100.0 %
Test CRC 23BB7676
Copy CRC 23BB7676
Accurately ripped (confidence 3) [9192B00F] (AR v2)
Copy OK
Track 5
Filename D:\Temp\Доницетти - Poliuto - Jose Carreras, Katia Ricciarelli, Juan Pons, Laszlo Polgar - Caetani 1986\Poliuto - Caetani CD2\05. Act II- Quest' alma e troppo debole.wav
Peak level 53.7 %
Extraction speed 2.3 X
Track quality 99.9 %
Test CRC 40D23AA1
Copy CRC 40D23AA1
Accurately ripped (confidence 3) [356BB47E] (AR v2)
Copy OK
Track 6
Filename D:\Temp\Доницетти - Poliuto - Jose Carreras, Katia Ricciarelli, Juan Pons, Laszlo Polgar - Caetani 1986\Poliuto - Caetani CD2\06. Act II- Veleno e l'aura.wav
Peak level 53.9 %
Extraction speed 2.2 X
Track quality 99.9 %
Test CRC 08E6C83D
Copy CRC 08E6C83D
Accurately ripped (confidence 3) [E905BFB2] (AR v2)
Copy OK
Track 7
Filename D:\Temp\Доницетти - Poliuto - Jose Carreras, Katia Ricciarelli, Juan Pons, Laszlo Polgar - Caetani 1986\Poliuto - Caetani CD2\07. Act II- Sfolgero divino raggio.wav
Peak level 73.3 %
Extraction speed 2.6 X
Track quality 100.0 %
Test CRC 861A280E
Copy CRC 861A280E
Accurately ripped (confidence 3) [08445172] (AR v2)
Copy OK
Track 8
Filename D:\Temp\Доницетти - Poliuto - Jose Carreras, Katia Ricciarelli, Juan Pons, Laszlo Polgar - Caetani 1986\Poliuto - Caetani CD2\08. Act II- Celeste un'aura.wav
Peak level 86.7 %
Extraction speed 3.2 X
Track quality 100.0 %
Test CRC B8052CC7
Copy CRC B8052CC7
Accurately ripped (confidence 3) [6CBBDCA2] (AR v2)
Copy OK
Track 9
Filename D:\Temp\Доницетти - Poliuto - Jose Carreras, Katia Ricciarelli, Juan Pons, Laszlo Polgar - Caetani 1986\Poliuto - Caetani CD2\09. Act II- Magistrati, guerrieri, popolo.wav
Peak level 56.8 %
Extraction speed 3.6 X
Track quality 100.0 %
Test CRC B3569A20
Copy CRC B3569A20
Accurately ripped (confidence 3) [29C4741D] (AR v2)
Copy OK
Track 10
Filename D:\Temp\Доницетти - Poliuto - Jose Carreras, Katia Ricciarelli, Juan Pons, Laszlo Polgar - Caetani 1986\Poliuto - Caetani CD2\10. Act II- La sagrilega parola.wav
Peak level 69.6 %
Extraction speed 3.9 X
Track quality 100.0 %
Test CRC 617A003F
Copy CRC 617A003F
Accurately ripped (confidence 3) [E0ED6298] (AR v2)
Copy OK
Track 11
Filename D:\Temp\Доницетти - Poliuto - Jose Carreras, Katia Ricciarelli, Juan Pons, Laszlo Polgar - Caetani 1986\Poliuto - Caetani CD2\11. Act II- Alla morte lo serbate.wav
Peak level 74.7 %
Extraction speed 3.4 X
Track quality 100.0 %
Test CRC 386768AF
Copy CRC 386768AF
Accurately ripped (confidence 3) [BB487296] (AR v2)
Copy OK
Track 12
Filename D:\Temp\Доницетти - Poliuto - Jose Carreras, Katia Ricciarelli, Juan Pons, Laszlo Polgar - Caetani 1986\Poliuto - Caetani CD2\12. Act II- Lasciami in pace.wav
Peak level 71.4 %
Extraction speed 3.4 X
Track quality 99.9 %
Test CRC 83822B91
Copy CRC 83822B91
Accurately ripped (confidence 3) [6C39C592] (AR v2)
Copy OK
Track 13
Filename D:\Temp\Доницетти - Poliuto - Jose Carreras, Katia Ricciarelli, Juan Pons, Laszlo Polgar - Caetani 1986\Poliuto - Caetani CD2\13. Act III- Vieni, vieni... al circo.wav
Pre-gap length 0:00:04.68
Peak level 48.2 %
Extraction speed 2.9 X
Track quality 100.0 %
Test CRC 733FAB79
Copy CRC 733FAB79
Accurately ripped (confidence 3) [929724BB] (AR v2)
Copy OK
Track 14
Filename D:\Temp\Доницетти - Poliuto - Jose Carreras, Katia Ricciarelli, Juan Pons, Laszlo Polgar - Caetani 1986\Poliuto - Caetani CD2\14. Act III- Ecco il sommo Pontefice.wav
Peak level 56.3 %
Extraction speed 3.9 X
Track quality 100.0 %
Test CRC 22926BB6
Copy CRC 22926BB6
Accurately ripped (confidence 3) [61A09CF0] (AR v2)
Copy OK
Track 15
Filename D:\Temp\Доницетти - Poliuto - Jose Carreras, Katia Ricciarelli, Juan Pons, Laszlo Polgar - Caetani 1986\Poliuto - Caetani CD2\15. Act III- Alimento alla fiamma.wav
Peak level 46.0 %
Extraction speed 3.7 X
Track quality 99.9 %
Test CRC 73E009DB
Copy CRC 73E009DB
Accurately ripped (confidence 3) [7D8971CA] (AR v2)
Copy OK
Track 16
Filename D:\Temp\Доницетти - Poliuto - Jose Carreras, Katia Ricciarelli, Juan Pons, Laszlo Polgar - Caetani 1986\Poliuto - Caetani CD2\16. Act III- Donna! Malvagio!.wav
Pre-gap length 0:00:04.60
Peak level 69.7 %
Extraction speed 4.8 X
Track quality 100.0 %
Test CRC 6C0A95F1
Copy CRC 6C0A95F1
Accurately ripped (confidence 3) [8919BD0D] (AR v2)
Copy OK
Track 17
Filename D:\Temp\Доницетти - Poliuto - Jose Carreras, Katia Ricciarelli, Juan Pons, Laszlo Polgar - Caetani 1986\Poliuto - Caetani CD2\17. Act III- Ah! fuggi da morte.wav
Peak level 63.7 %
Extraction speed 4.6 X
Track quality 100.0 %
Test CRC 55B14448
Copy CRC 55B14448
Accurately ripped (confidence 3) [570AA92B] (AR v2)
Copy OK
Track 18
Filename D:\Temp\Доницетти - Poliuto - Jose Carreras, Katia Ricciarelli, Juan Pons, Laszlo Polgar - Caetani 1986\Poliuto - Caetani CD2\18. Act III- Fia vero! di.wav
Peak level 63.9 %
Extraction speed 4.0 X
Track quality 100.0 %
Test CRC 81B411FA
Copy CRC 81B411FA
Accurately ripped (confidence 3) [ED85AFA3] (AR v2)
Copy OK
Track 19
Filename D:\Temp\Доницетти - Poliuto - Jose Carreras, Katia Ricciarelli, Juan Pons, Laszlo Polgar - Caetani 1986\Poliuto - Caetani CD2\19. Act III- Alle fiere chi oltraggia.wav
Peak level 58.4 %
Extraction speed 5.0 X
Track quality 100.0 %
Test CRC EC42C8AB
Copy CRC EC42C8AB
Accurately ripped (confidence 3) [DAFD1432] (AR v2)
Copy OK
Track 20
Filename D:\Temp\Доницетти - Poliuto - Jose Carreras, Katia Ricciarelli, Juan Pons, Laszlo Polgar - Caetani 1986\Poliuto - Caetani CD2\20. Act III- Piu s'indugia.wav
Peak level 60.5 %
Extraction speed 4.0 X
Track quality 100.0 %
Test CRC F98619E8
Copy CRC F98619E8
Accurately ripped (confidence 3) [E48F959A] (AR v2)
Copy OK
Track 21
Filename D:\Temp\Доницетти - Poliuto - Jose Carreras, Katia Ricciarelli, Juan Pons, Laszlo Polgar - Caetani 1986\Poliuto - Caetani CD2\21. Act III- Il suon dell'arpe angeliche.wav
Peak level 95.5 %
Extraction speed 4.2 X
Track quality 100.0 %
Test CRC 25657D4B
Copy CRC 25657D4B
Accurately ripped (confidence 3) [D54D49D1] (AR v2)
Copy OK
All tracks accurately ripped
No errors occurred
End of status report
==== Log checksum 8AFE1E8382CD23EFBFE97FBDE15353429CF2930B6DA0F9BA2EE20424EF776D55 ====

Содержание индексной карты (.CUE)

Poliuto - Caetani CD1.cue

REM GENRE Opera
REM DATE 1989
REM DISCID C90AF20F
REM COMMENT "ExactAudioCopy v1.0b3"
PERFORMER "Jose Carreras, Katia Ricciarelli, Juan Pons, Laszlo Polgar "
TITLE "Poliuto - Caetani CD1"
FILE "01. Act I- Sinfonia 'O nume pietoso'.wav" WAVE
TRACK 01 AUDIO
TITLE "Act I: Sinfonia 'O nume pietoso'"
PERFORMER "Jose Carreras, Katia Ricciarelli, Juan Pons, Laszlo Polgar "
INDEX 01 00:00:00
TRACK 02 AUDIO
TITLE "Act I: Scendiam"
PERFORMER "Jose Carreras, Katia Ricciarelli, Juan Pons, Laszlo Polgar "
INDEX 00 09:43:55
FILE "02. Act I- Scendiam.wav" WAVE
INDEX 01 00:00:00
FILE "03. Act I- 'Tu sei commosso'.wav" WAVE
TRACK 03 AUDIO
TITLE "Act I: 'Tu sei commosso?'"
PERFORMER "Jose Carreras, Katia Ricciarelli, Juan Pons, Laszlo Polgar "
INDEX 01 00:00:00
FILE "04. Act I- D'un alma troppo fervida.wav" WAVE
TRACK 04 AUDIO
TITLE "Act I: D'un alma troppo fervida"
PERFORMER "Jose Carreras, Katia Ricciarelli, Juan Pons, Laszlo Polgar "
INDEX 01 00:00:00
FILE "05. Act I- Ove m'inoltro.wav" WAVE
TRACK 05 AUDIO
TITLE "Act I: Ove m'inoltro?"
PERFORMER "Jose Carreras, Katia Ricciarelli, Juan Pons, Laszlo Polgar "
INDEX 01 00:00:00
FILE "06. Act I- Infiamma quest'alma.wav" WAVE
TRACK 06 AUDIO
TITLE "Act I: Infiamma quest'alma"
PERFORMER "Jose Carreras, Katia Ricciarelli, Juan Pons, Laszlo Polgar "
INDEX 01 00:00:00
FILE "07. Act I- Di quasi soavi lagrime.wav" WAVE
TRACK 07 AUDIO
TITLE "Act I: Di quasi soavi lagrime"
PERFORMER "Jose Carreras, Katia Ricciarelli, Juan Pons, Laszlo Polgar "
INDEX 01 00:00:00
FILE "08. Act I- Mira... Donna!.wav" WAVE
TRACK 08 AUDIO
TITLE "Act I: Mira... Donna!"
PERFORMER "Jose Carreras, Katia Ricciarelli, Juan Pons, Laszlo Polgar "
INDEX 01 00:00:00
FILE "09. Act I- Oggetto de'miei voti.wav" WAVE
TRACK 09 AUDIO
TITLE "Act I: Oggetto de'miei voti"
PERFORMER "Jose Carreras, Katia Ricciarelli, Juan Pons, Laszlo Polgar "
INDEX 01 00:00:00
FILE "10. Act I- Il croconsol s'avanza.wav" WAVE
TRACK 10 AUDIO
TITLE "Act I: Il croconsol s'avanza"
PERFORMER "Jose Carreras, Katia Ricciarelli, Juan Pons, Laszlo Polgar "
INDEX 01 00:00:00
TRACK 11 AUDIO
TITLE "Act I: Plausi all'inclito Severo"
PERFORMER "Jose Carreras, Katia Ricciarelli, Juan Pons, Laszlo Polgar "
INDEX 00 02:27:12
FILE "11. Act I- Plausi all'inclito Severo.wav" WAVE
INDEX 01 00:00:00
FILE "12. Act I- Decio, signor del mondo.wav" WAVE
TRACK 12 AUDIO
TITLE "Act I: Decio, signor del mondo"
PERFORMER "Jose Carreras, Katia Ricciarelli, Juan Pons, Laszlo Polgar "
INDEX 01 00:00:00
FILE "13. Act I- Di tua beltade immagine.wav" WAVE
TRACK 13 AUDIO
TITLE "Act I: Di tua beltade immagine"
PERFORMER "Jose Carreras, Katia Ricciarelli, Juan Pons, Laszlo Polgar "
INDEX 01 00:00:00
FILE "14. Act I- Come fausta e a noi l'aurora.wav" WAVE
TRACK 14 AUDIO
TITLE "Act I: Come fausta e a noi l'aurora"
PERFORMER "Jose Carreras, Katia Ricciarelli, Juan Pons, Laszlo Polgar "
INDEX 01 00:00:00
FILE "15. Act I- Io ti perdo e senza speme.wav" WAVE
TRACK 15 AUDIO
TITLE "Act I: Io ti perdo e senza speme"
PERFORMER "Jose Carreras, Katia Ricciarelli, Juan Pons, Laszlo Polgar "
INDEX 01 00:00:00

Poliuto - Caetani CD2.cue

REM GENRE Opera
REM DATE 1989
REM DISCID 170DF815
REM COMMENT "ExactAudioCopy v1.0b3"
PERFORMER "Jose Carreras, Katia Ricciarelli, Juan Pons, Laszlo Polgar"
TITLE "Poliuto - Caetani CD2"
FILE "01. Act II- Inoltra il pie.wav" WAVE
TRACK 01 AUDIO
TITLE "Act II: Inoltra il pie"
PERFORMER "Jose Carreras, Katia Ricciarelli, Juan Pons, Laszlo Polgar"
INDEX 01 00:00:00
FILE "02. Act II- Donna... Che! Possenti numi!.wav" WAVE
TRACK 02 AUDIO
TITLE "Act II: Donna... Che! Possenti numi!"
PERFORMER "Jose Carreras, Katia Ricciarelli, Juan Pons, Laszlo Polgar"
INDEX 01 00:00:00
FILE "03. Act II- Il piu lieto.wav" WAVE
TRACK 03 AUDIO
TITLE "Act II: Il piu lieto"
PERFORMER "Jose Carreras, Katia Ricciarelli, Juan Pons, Laszlo Polgar"
INDEX 01 00:00:00
FILE "04. Act II- Ah! chi ti guida l'incauto.wav" WAVE
TRACK 04 AUDIO
TITLE "Act II: Ah! chi ti guida l'incauto?"
PERFORMER "Jose Carreras, Katia Ricciarelli, Juan Pons, Laszlo Polgar"
INDEX 01 00:00:00
FILE "05. Act II- Quest' alma e troppo debole.wav" WAVE
TRACK 05 AUDIO
TITLE "Act II: Quest' alma e troppo debole"
PERFORMER "Jose Carreras, Katia Ricciarelli, Juan Pons, Laszlo Polgar"
INDEX 01 00:00:00
FILE "06. Act II- Veleno e l'aura.wav" WAVE
TRACK 06 AUDIO
TITLE "Act II: Veleno e l'aura"
PERFORMER "Jose Carreras, Katia Ricciarelli, Juan Pons, Laszlo Polgar"
INDEX 01 00:00:00
FILE "07. Act II- Sfolgero divino raggio.wav" WAVE
TRACK 07 AUDIO
TITLE "Act II: Sfolgero divino raggio"
PERFORMER "Jose Carreras, Katia Ricciarelli, Juan Pons, Laszlo Polgar"
INDEX 01 00:00:00
FILE "08. Act II- Celeste un'aura.wav" WAVE
TRACK 08 AUDIO
TITLE "Act II: Celeste un'aura"
PERFORMER "Jose Carreras, Katia Ricciarelli, Juan Pons, Laszlo Polgar"
INDEX 01 00:00:00
FILE "09. Act II- Magistrati, guerrieri, popolo.wav" WAVE
TRACK 09 AUDIO
TITLE "Act II: Magistrati, guerrieri, popolo"
PERFORMER "Jose Carreras, Katia Ricciarelli, Juan Pons, Laszlo Polgar"
INDEX 01 00:00:00
FILE "10. Act II- La sagrilega parola.wav" WAVE
TRACK 10 AUDIO
TITLE "Act II: La sagrilega parola"
PERFORMER "Jose Carreras, Katia Ricciarelli, Juan Pons, Laszlo Polgar"
INDEX 01 00:00:00
FILE "11. Act II- Alla morte lo serbate.wav" WAVE
TRACK 11 AUDIO
TITLE "Act II: Alla morte lo serbate"
PERFORMER "Jose Carreras, Katia Ricciarelli, Juan Pons, Laszlo Polgar"
INDEX 01 00:00:00
FILE "12. Act II- Lasciami in pace.wav" WAVE
TRACK 12 AUDIO
TITLE "Act II: Lasciami in pace"
PERFORMER "Jose Carreras, Katia Ricciarelli, Juan Pons, Laszlo Polgar"
INDEX 01 00:00:00
TRACK 13 AUDIO
TITLE "Act III: Vieni, vieni... al circo"
PERFORMER "Jose Carreras, Katia Ricciarelli, Juan Pons, Laszlo Polgar"
INDEX 00 03:18:22
FILE "13. Act III- Vieni, vieni... al circo.wav" WAVE
INDEX 01 00:00:00
FILE "14. Act III- Ecco il sommo Pontefice.wav" WAVE
TRACK 14 AUDIO
TITLE "Act III: Ecco il sommo Pontefice"
PERFORMER "Jose Carreras, Katia Ricciarelli, Juan Pons, Laszlo Polgar"
INDEX 01 00:00:00
FILE "15. Act III- Alimento alla fiamma.wav" WAVE
TRACK 15 AUDIO
TITLE "Act III: Alimento alla fiamma"
PERFORMER "Jose Carreras, Katia Ricciarelli, Juan Pons, Laszlo Polgar"
INDEX 01 00:00:00
TRACK 16 AUDIO
TITLE "Act III: Donna! Malvagio!"
PERFORMER "Jose Carreras, Katia Ricciarelli, Juan Pons, Laszlo Polgar"
INDEX 00 03:18:03
FILE "16. Act III- Donna! Malvagio!.wav" WAVE
INDEX 01 00:00:00
FILE "17. Act III- Ah! fuggi da morte.wav" WAVE
TRACK 17 AUDIO
TITLE "Act III: Ah! fuggi da morte"
PERFORMER "Jose Carreras, Katia Ricciarelli, Juan Pons, Laszlo Polgar"
INDEX 01 00:00:00
FILE "18. Act III- Fia vero! di.wav" WAVE
TRACK 18 AUDIO
TITLE "Act III: Fia vero! di"
PERFORMER "Jose Carreras, Katia Ricciarelli, Juan Pons, Laszlo Polgar"
INDEX 01 00:00:00
FILE "19. Act III- Alle fiere chi oltraggia.wav" WAVE
TRACK 19 AUDIO
TITLE "Act III: Alle fiere chi oltraggia"
PERFORMER "Jose Carreras, Katia Ricciarelli, Juan Pons, Laszlo Polgar"
INDEX 01 00:00:00
FILE "20. Act III- Piu s'indugia.wav" WAVE
TRACK 20 AUDIO
TITLE "Act III: Piu s'indugia?"
PERFORMER "Jose Carreras, Katia Ricciarelli, Juan Pons, Laszlo Polgar"
INDEX 01 00:00:00
FILE "21. Act III- Il suon dell'arpe angeliche.wav" WAVE
TRACK 21 AUDIO
TITLE "Act III: Il suon dell'arpe angeliche "
PERFORMER "Jose Carreras, Katia Ricciarelli, Juan Pons, Laszlo Polgar"
INDEX 01 00:00:00
Доп. информация: Сканы в раздаче не мои, скачаны с Авакса вместе с рипом в MP3.



Показать сообщения:    

Текущее время: 04-Дек 11:14

Часовой пояс: UTC + 3


Вы не можете начинать темы
Вы не можете отвечать на сообщения
Вы не можете редактировать свои сообщения
Вы не можете удалять свои сообщения
Вы не можете голосовать в опросах
Вы не можете прикреплять файлы к сообщениям
Вы не можете скачивать файлы