(opera) Giuseppe Verdi - La traviata (Cheryl Studer, Luciano Pavarotti, Juan Pons - James Levine - 1991) - 1992, APE (image+.cue) lossless


 

[Цитировать]

Giuseppe Verdi - La traviata (Cheryl Studer, Luciano Pavarotti, Juan Pons - James Levine - 1991)
Жанр: opera
Страна-производитель диска: Germany
Год издания диска: 1992
Издатель (лейбл): Deutsche Grammophon
Дата записи: 1991
Аудиокодек: APE
Тип рипа: image+.cue
Битрейт аудио: lossless
Продолжительность: CD1 - 70'31" CD2 51'51"
Источник: собственный рип
Наличие сканов в содержимом раздачи: нет
Исполнители:
La traviata by Giuseppe Verdi performed in Italian
Conductor James Levine - 1991(STU)
Orchestra - Metropolitan Opera
Chorus - Metropolitan Opera
Violetta Valery - Cheryl Studer
Flora Bervoix - Wendy White
Annina - Sondra Kelly
Alfredo Germont - Luciano Pavarotti
Giorgio Germont - Juan (Joan) Pons
Gastone - Anthony Laciura
Dottore Grenvil - Julien Robbins
Barone Douphol - Bruno Pola
Marchese d'Obigny - Jeffrey Wells

Треклист

CD 1: Verdi: La Traviata
Giuseppe Verdi (1813 - 1901)
La traviata
Act 1
01 Prelude [4:06]
02 "Dell'invito trascorsa e gia l'ora" [4:36]
03 "Libiamo ne'lieti calici" (Brindisi) [2:54]
04 "Che e cio?" [2:16]
05 "Un di felice, eterea" [3:10]
06 "Ebben? che diavol fate?" [1:16]
07 "Si ridesta in ciel l'aurora" [1:37]
08 "E strano!" - "Ah, fors'e lui" [5:48]
09 "Follie! Delirio vano e questo!" - "Sempre libera" [4:23]
Act 2
10 "Lunge da lei" - "De' miei bollenti spiriti" [3:24]
11 "Annina, donde vieni?" - "Oh mio rimorso!" [3:31]
12 "Alfredo?" "Per Parigi or or partiva" [3:32]
13 "Pura siccome un angelo" [1:44]
14 "Non sapete quale affetto" [2:09]
15 "Un di, quando le veneri" [2:45]
16 "Ah! Dite alla giovine" [4:35]
17 "Imponete" "Non amarlo ditegli" [4:46]
18 "Dammi tu forza, o cielo!" [1:51]
19 "Che fai?" "Nulla" [2:23]
20 "Ah, vive sol quel core" [2:10]
21 "Di Provenza il mar, il suol" [4:34]
22 "Ne rispondi d'un padre all'affetto?" - "No, non udrai rimproveri" [3:01]
Total Playing Time: [1:10:31]
CD 2: VerdiI: La Traviata
Giuseppe Verdi (1813 - 1901)
La traviata
Act 2
01 "Avrem lieta di maschere la notte" [1:02]
02 "Noi siamo zingarelle" [2:53]
03 "Di Madride noi siam mattadori" [2:37]
04 "Alfredo! Voi!" [3:43]
05 "Invitato a qui seguirmi" [2:25]
06 "Ogni suo aver tal femmina" [1:32]
07 "Di sprezzo degno se stesso rende" [1:52]
08 "Alfredo, Alfredo, di questo core" [4:28]
Act 3
09 Prelude [3:55]
10 "Annina?" "Comandate?" [4:35]
11 "Tenesta la promessa" - "Attendo, ne a me giungon mai" - "Addio del passato" [7:28]
12 "Largo a quadrupede" [0:47]
13 Signora...Che t'accadde...Parigi, o cara [5:09]
14 "Ah, non piu!" - "Ah! Gran Dio! Morir si giovine" [3:23]
15 "Ah, Violetta!" "Voi? Signor?" [1:46]
16 "Prendi, quest'e l'immagine" [4:16]
Total Playing Time: [51:51]

Лог создания рипа

La Traviata (CD 1).log

Exact Audio Copy V1.0 beta 3 from 29. August 2011
EAC extraction logfile from 7. September 2014, 11:08
Cheryl Studer, Luciano Pavarotti, Juan Pons / Giuseppe Verdi - La Traviata (CD 1)
Used drive : hp DVDRAM GT50N Adapter: 0 ID: 0
Read mode : Secure
Utilize accurate stream : Yes
Defeat audio cache : Yes
Make use of C2 pointers : No
Read offset correction : 103
Overread into Lead-In and Lead-Out : No
Fill up missing offset samples with silence : Yes
Delete leading and trailing silent blocks : No
Null samples used in CRC calculations : Yes
Used interface : Native Win32 interface for Win NT & 2000
Used output format : User Defined Encoder
Selected bitrate : 128 kBit/s
Quality : High
Add ID3 tag : No
Command line compressor : C:\Program Files\Exact Audio Copy\APE\MAC.exe
Additional command line options : %source% %dest% -c3000
TOC of the extracted CD
Track | Start | Length | Start sector | End sector
---------------------------------------------------------
1 | 0:00.33 | 4:06.15 | 33 | 18497
2 | 4:06.48 | 4:35.62 | 18498 | 39184
3 | 8:42.35 | 2:49.50 | 39185 | 51909
4 | 11:32.10 | 2:16.23 | 51910 | 62132
5 | 13:48.33 | 3:06.12 | 62133 | 76094
6 | 16:54.45 | 1:16.20 | 76095 | 81814
7 | 18:10.65 | 1:36.58 | 81815 | 89072
8 | 19:47.48 | 5:47.45 | 89073 | 115142
9 | 25:35.18 | 4:33.15 | 115143 | 135632
10 | 30:08.33 | 3:23.40 | 135633 | 150897
11 | 33:31.73 | 3:31.42 | 150898 | 166764
12 | 37:03.40 | 3:31.43 | 166765 | 182632
13 | 40:35.08 | 1:44.02 | 182633 | 190434
14 | 42:19.10 | 2:09.38 | 190435 | 200147
15 | 44:28.48 | 2:44.52 | 200148 | 212499
16 | 47:13.25 | 4:33.08 | 212500 | 232982
17 | 51:46.33 | 4:42.25 | 232983 | 254157
18 | 56:28.58 | 1:50.47 | 254158 | 262454
19 | 58:19.30 | 2:19.70 | 262455 | 272949
20 | 60:39.25 | 2:10.08 | 272950 | 282707
21 | 62:49.33 | 4:28.25 | 282708 | 302832
22 | 67:17.58 | 3:00.50 | 302833 | 316382
Range status and errors
Selected range
Filename D:\Temp\Верди - La Traviata - Cheryl Studer, Luciano Pavarotti, Juan Pons - Levine\Cheryl Studer, Luciano Pavarotti, Juan Pons - Giuseppe Verdi - La Traviata (CD 1).wav
Peak level 99.6 %
Extraction speed 4.3 X
Range quality 100.0 %
Test CRC 180CFDDA
Copy CRC 180CFDDA
Copy OK
No errors occurred
AccurateRip summary
Track 1 cannot be verified as accurate (confidence 16) [717DC469], AccurateRip returned [376FBE78] (AR v2)
Track 2 cannot be verified as accurate (confidence 18) [77378EC6], AccurateRip returned [E4EAA6E3] (AR v2)
Track 3 cannot be verified as accurate (confidence 18) [449198F5], AccurateRip returned [13A35AAA] (AR v2)
Track 4 cannot be verified as accurate (confidence 18) [676639A2], AccurateRip returned [123BFDB6] (AR v2)
Track 5 cannot be verified as accurate (confidence 18) [E3B17E05], AccurateRip returned [C69AB0F9] (AR v2)
Track 6 cannot be verified as accurate (confidence 18) [7C81888E], AccurateRip returned [34D8BF4E] (AR v2)
Track 7 cannot be verified as accurate (confidence 18) [754B494A], AccurateRip returned [50EE48C3] (AR v2)
Track 8 cannot be verified as accurate (confidence 18) [D78E9CB4], AccurateRip returned [1F52AA4C] (AR v2)
Track 9 cannot be verified as accurate (confidence 18) [6D53BAAA], AccurateRip returned [B5E6A82B] (AR v2)
Track 10 cannot be verified as accurate (confidence 18) [62795DA6], AccurateRip returned [4FF1F05A] (AR v2)
Track 11 cannot be verified as accurate (confidence 18) [9CB275A4], AccurateRip returned [CDB1E21E] (AR v2)
Track 12 cannot be verified as accurate (confidence 18) [33D41F0B], AccurateRip returned [E872366D] (AR v2)
Track 13 cannot be verified as accurate (confidence 17) [78430545], AccurateRip returned [94DC73F7] (AR v2)
Track 14 cannot be verified as accurate (confidence 17) [B1C2C23F], AccurateRip returned [069C6ED7] (AR v2)
Track 15 cannot be verified as accurate (confidence 18) [BB7DB556], AccurateRip returned [479C3D4B] (AR v2)
Track 16 cannot be verified as accurate (confidence 18) [E296BF02], AccurateRip returned [D2B0BC0E] (AR v2)
Track 17 cannot be verified as accurate (confidence 18) [792D4832], AccurateRip returned [EA78E0E7] (AR v2)
Track 18 cannot be verified as accurate (confidence 17) [E95280B8], AccurateRip returned [A2A60738] (AR v2)
Track 19 cannot be verified as accurate (confidence 16) [0FE2968B], AccurateRip returned [5A65D018] (AR v2)
Track 20 cannot be verified as accurate (confidence 16) [9234D286], AccurateRip returned [E6DEC684] (AR v2)
Track 21 cannot be verified as accurate (confidence 17) [A5756CBA], AccurateRip returned [9F842ED2] (AR v2)
Track 22 cannot be verified as accurate (confidence 18) [AED95FC0], AccurateRip returned [75DC4A7C] (AR v2)
No tracks could be verified as accurate
You may have a different pressing from the one(s) in the database
End of status report
==== Log checksum D5F1834EB7A26E9D8AF64CAC4852DA45C0E503A3C7CE38262EE94AD56936CF3E ====

La Traviata (CD 2).log

Exact Audio Copy V1.0 beta 3 from 29. August 2011
EAC extraction logfile from 7. September 2014, 11:53
Cheryl Studer, Luciano Pavarotti, Juan Pons / Giuseppe Verdi - La Traviata (CD 2)
Used drive : hp DVDRAM GT50N Adapter: 0 ID: 0
Read mode : Secure
Utilize accurate stream : Yes
Defeat audio cache : Yes
Make use of C2 pointers : No
Read offset correction : 103
Overread into Lead-In and Lead-Out : No
Fill up missing offset samples with silence : Yes
Delete leading and trailing silent blocks : No
Null samples used in CRC calculations : Yes
Used interface : Native Win32 interface for Win NT & 2000
Used output format : User Defined Encoder
Selected bitrate : 128 kBit/s
Quality : High
Add ID3 tag : No
Command line compressor : C:\Program Files\Exact Audio Copy\APE\MAC.exe
Additional command line options : %source% %dest% -c3000
TOC of the extracted CD
Track | Start | Length | Start sector | End sector
---------------------------------------------------------
1 | 0:00.33 | 1:01.57 | 33 | 4664
2 | 1:02.15 | 2:53.13 | 4665 | 17652
3 | 3:55.28 | 2:36.17 | 17653 | 29369
4 | 6:31.45 | 3:43.63 | 29370 | 46157
5 | 10:15.33 | 2:24.65 | 46158 | 57022
6 | 12:40.23 | 1:32.05 | 57023 | 63927
7 | 14:12.28 | 1:51.65 | 63928 | 72317
8 | 16:04.18 | 4:38.15 | 72318 | 93182
9 | 20:42.33 | 3:55.00 | 93183 | 110807
10 | 24:37.33 | 4:35.00 | 110808 | 131432
11 | 29:12.33 | 7:27.62 | 131433 | 165019
12 | 36:40.20 | 0:46.03 | 165020 | 168472
13 | 37:26.23 | 5:03.00 | 168473 | 191197
14 | 42:29.23 | 3:23.02 | 191198 | 206424
15 | 45:52.25 | 1:46.20 | 206425 | 214394
16 | 47:38.45 | 4:15.63 | 214395 | 233582
Range status and errors
Selected range
Filename D:\Temp\Верди - La Traviata - Cheryl Studer, Luciano Pavarotti, Juan Pons - Levine\Cheryl Studer, Luciano Pavarotti, Juan Pons - Giuseppe Verdi - La Traviata (CD 2).wav
Peak level 96.0 %
Extraction speed 4.1 X
Range quality 100.0 %
Test CRC 7D67C6EC
Copy CRC 7D67C6EC
Copy OK
No errors occurred
AccurateRip summary
Track 1 cannot be verified as accurate (confidence 18) [5826D110], AccurateRip returned [A863673B] (AR v2)
Track 2 cannot be verified as accurate (confidence 18) [C23D2CDF], AccurateRip returned [144057A4] (AR v2)
Track 3 cannot be verified as accurate (confidence 18) [70159A17], AccurateRip returned [7CE1470B] (AR v2)
Track 4 cannot be verified as accurate (confidence 18) [9AEC3B61], AccurateRip returned [15790616] (AR v2)
Track 5 cannot be verified as accurate (confidence 18) [537488A5], AccurateRip returned [7449514A] (AR v2)
Track 6 cannot be verified as accurate (confidence 18) [3A6F79E5], AccurateRip returned [90B4D7B0] (AR v2)
Track 7 cannot be verified as accurate (confidence 18) [3FD5998E], AccurateRip returned [5A6577B7] (AR v2)
Track 8 cannot be verified as accurate (confidence 18) [245C96F6], AccurateRip returned [68EF0082] (AR v2)
Track 9 cannot be verified as accurate (confidence 18) [FFBF93FA], AccurateRip returned [1A983DD4] (AR v2)
Track 10 cannot be verified as accurate (confidence 18) [3CA477CA], AccurateRip returned [EE689456] (AR v2)
Track 11 cannot be verified as accurate (confidence 18) [349D5C8C], AccurateRip returned [F26F218B] (AR v2)
Track 12 cannot be verified as accurate (confidence 18) [E0324DAE], AccurateRip returned [1104D2A8] (AR v2)
Track 13 cannot be verified as accurate (confidence 18) [7E8D7F38], AccurateRip returned [36280E9F] (AR v2)
Track 14 cannot be verified as accurate (confidence 18) [B2D176D0], AccurateRip returned [BB0A7A86] (AR v2)
Track 15 cannot be verified as accurate (confidence 18) [586702AC], AccurateRip returned [C6B5B8D4] (AR v2)
Track 16 cannot be verified as accurate (confidence 18) [16B99B60], AccurateRip returned [B11207D8] (AR v2)
No tracks could be verified as accurate
You may have a different pressing from the one(s) in the database
End of status report
==== Log checksum 96706E14CEECCFF041C0B56CFFE55D048F1B6A1D0890FF8F1F8D120EEFA6E530 ====

Содержание индексной карты (.CUE)

La Traviata (CD 1).cue

REM GENRE Opera
REM DATE 1991
REM DISCID 1D107A16
REM COMMENT "ExactAudioCopy v1.0b3"
PERFORMER "Cheryl Studer, Luciano Pavarotti, Juan Pons"
TITLE "Giuseppe Verdi - La Traviata (CD 1)"
FILE "Cheryl Studer, Luciano Pavarotti, Juan Pons - Giuseppe Verdi - La Traviata (CD 1).ape" WAVE
TRACK 01 AUDIO
TITLE "Preludio"
PERFORMER "Cheryl Studer, Luciano Pavarotti, Juan Pons"
INDEX 00 00:00:00
INDEX 01 00:00:33
TRACK 02 AUDIO
TITLE "Dell'invito trascorsa e gia l'ora"
PERFORMER "Cheryl Studer, Luciano Pavarotti, Juan Pons"
INDEX 01 04:06:48
TRACK 03 AUDIO
TITLE "Libiamo ne'lieti calici (Brindisi)"
PERFORMER "Cheryl Studer, Luciano Pavarotti, Juan Pons"
INDEX 01 08:42:35
TRACK 04 AUDIO
TITLE "Che e cio?"
PERFORMER "Cheryl Studer, Luciano Pavarotti, Juan Pons"
INDEX 01 11:32:10
TRACK 05 AUDIO
TITLE "Un di felice, eterea"
PERFORMER "Cheryl Studer, Luciano Pavarotti, Juan Pons"
INDEX 01 13:48:33
TRACK 06 AUDIO
TITLE "Ebben? che diavol fate?"
PERFORMER "Cheryl Studer, Luciano Pavarotti, Juan Pons"
INDEX 01 16:54:45
TRACK 07 AUDIO
TITLE "Si ridesta in ciel l'aurora"
PERFORMER "Cheryl Studer, Luciano Pavarotti, Juan Pons"
INDEX 01 18:10:65
TRACK 08 AUDIO
TITLE "E strano! - Ah, fors'e lui"
PERFORMER "Cheryl Studer, Luciano Pavarotti, Juan Pons"
INDEX 01 19:47:48
TRACK 09 AUDIO
TITLE "Follie! Delirio vano e questo! - Sempre libera"
PERFORMER "Cheryl Studer, Luciano Pavarotti, Juan Pons"
INDEX 01 25:35:18
TRACK 10 AUDIO
TITLE "Lunge da lei - De' miei bollenti spiriti"
PERFORMER "Cheryl Studer, Luciano Pavarotti, Juan Pons"
INDEX 00 29:58:33
INDEX 01 30:08:33
TRACK 11 AUDIO
TITLE "Annina, donde vieni? - Oh mio rimorso!"
PERFORMER "Cheryl Studer, Luciano Pavarotti, Juan Pons"
INDEX 01 33:31:73
TRACK 12 AUDIO
TITLE "Alfredo? - Per Parigi or or partiva"
PERFORMER "Cheryl Studer, Luciano Pavarotti, Juan Pons"
INDEX 01 37:03:40
TRACK 13 AUDIO
TITLE "Pura siccome un angelo"
PERFORMER "Cheryl Studer, Luciano Pavarotti, Juan Pons"
INDEX 01 40:35:08
TRACK 14 AUDIO
TITLE "Non sapete quale affetto"
PERFORMER "Cheryl Studer, Luciano Pavarotti, Juan Pons"
INDEX 01 42:19:10
TRACK 15 AUDIO
TITLE "Un di, quando le veneri"
PERFORMER "Cheryl Studer, Luciano Pavarotti, Juan Pons"
INDEX 01 44:28:48
TRACK 16 AUDIO
TITLE "Ah! Dite alla giovine"
PERFORMER "Cheryl Studer, Luciano Pavarotti, Juan Pons"
INDEX 01 47:13:25
TRACK 17 AUDIO
TITLE "Imponete - Non amarlo ditegli"
PERFORMER "Cheryl Studer, Luciano Pavarotti, Juan Pons"
INDEX 01 51:46:33
TRACK 18 AUDIO
TITLE "Dammi tu forza, o cielo!"
PERFORMER "Cheryl Studer, Luciano Pavarotti, Juan Pons"
INDEX 01 56:28:58
TRACK 19 AUDIO
TITLE "Che fai? - Nulla"
PERFORMER "Cheryl Studer, Luciano Pavarotti, Juan Pons"
INDEX 01 58:19:30
TRACK 20 AUDIO
TITLE "Ah, vive sol quel core"
PERFORMER "Cheryl Studer, Luciano Pavarotti, Juan Pons"
INDEX 01 60:39:25
TRACK 21 AUDIO
TITLE "Di Provenza il mar, il suol"
PERFORMER "Cheryl Studer, Luciano Pavarotti, Juan Pons"
INDEX 01 62:49:33
TRACK 22 AUDIO
TITLE "Ne rispondi d'un padre all'affetto?"
PERFORMER "Cheryl Studer, Luciano Pavarotti, Juan Pons"
INDEX 01 67:17:58

La Traviata (CD 2).cue

REM GENRE Classical
REM DATE 1991
REM DISCID E00C2A10
REM COMMENT "ExactAudioCopy v1.0b3"
PERFORMER "Cheryl Studer, Luciano Pavarotti, Juan Pons"
TITLE "Giuseppe Verdi - La Traviata (CD 2)"
FILE "Cheryl Studer, Luciano Pavarotti, Juan Pons - Giuseppe Verdi - La Traviata (CD 2).ape" WAVE
TRACK 01 AUDIO
TITLE "Avrem lieta di maschere la notte"
PERFORMER "Cheryl Studer, Luciano Pavarotti, Juan Pons"
INDEX 00 00:00:00
INDEX 01 00:00:33
TRACK 02 AUDIO
TITLE "Noi siamo zingarelle"
PERFORMER "Cheryl Studer, Luciano Pavarotti, Juan Pons"
INDEX 01 01:02:15
TRACK 03 AUDIO
TITLE "Di Madride noi siam mattadori"
PERFORMER "Cheryl Studer, Luciano Pavarotti, Juan Pons"
INDEX 01 03:55:28
TRACK 04 AUDIO
TITLE "Alfredo! Voi!"
PERFORMER "Cheryl Studer, Luciano Pavarotti, Juan Pons"
INDEX 01 06:31:45
TRACK 05 AUDIO
TITLE "Invitato a qui seguirmi"
PERFORMER "Cheryl Studer, Luciano Pavarotti, Juan Pons"
INDEX 01 10:15:33
TRACK 06 AUDIO
TITLE "Ogni suo aver tal femmina"
PERFORMER "Cheryl Studer, Luciano Pavarotti, Juan Pons"
INDEX 01 12:40:23
TRACK 07 AUDIO
TITLE "Di sprezzo degno se stesso rende"
PERFORMER "Cheryl Studer, Luciano Pavarotti, Juan Pons"
INDEX 01 14:12:28
TRACK 08 AUDIO
TITLE "Alfredo, Alfredo, di questo core"
PERFORMER "Cheryl Studer, Luciano Pavarotti, Juan Pons"
INDEX 01 16:04:18
TRACK 09 AUDIO
TITLE "Atto III. Preludio"
PERFORMER "Cheryl Studer, Luciano Pavarotti, Juan Pons"
INDEX 00 20:32:33
INDEX 01 20:42:33
TRACK 10 AUDIO
TITLE "Annina? - Comandate?"
PERFORMER "Cheryl Studer, Luciano Pavarotti, Juan Pons"
INDEX 01 24:37:33
TRACK 11 AUDIO
TITLE "Teneste la promessa... Attendo, ne a me giungon mai... Addio del passato"
PERFORMER "Cheryl Studer, Luciano Pavarotti, Juan Pons"
INDEX 01 29:12:33
TRACK 12 AUDIO
TITLE "Largo al quadrupede"
PERFORMER "Cheryl Studer, Luciano Pavarotti, Juan Pons"
INDEX 01 36:40:20
TRACK 13 AUDIO
TITLE "Signora - Che t'accadde? - Parigi, o cara, noi lasceremo"
PERFORMER "Cheryl Studer, Luciano Pavarotti, Juan Pons"
INDEX 01 37:26:23
TRACK 14 AUDIO
TITLE "Ah, non piu!... Ah! Gran Dio! Morir si giovine"
PERFORMER "Cheryl Studer, Luciano Pavarotti, Juan Pons"
INDEX 01 42:29:23
TRACK 15 AUDIO
TITLE "Ah, Violetta! - Voi? Signor?"
PERFORMER "Cheryl Studer, Luciano Pavarotti, Juan Pons"
INDEX 01 45:52:25
TRACK 16 AUDIO
TITLE "Prendi, quest'e l'immagine"
PERFORMER "Cheryl Studer, Luciano Pavarotti, Juan Pons"
INDEX 01 47:38:45



Показать сообщения:    

Текущее время: 04-Дек 17:16

Часовой пояс: UTC + 3


Вы не можете начинать темы
Вы не можете отвечать на сообщения
Вы не можете редактировать свои сообщения
Вы не можете удалять свои сообщения
Вы не можете голосовать в опросах
Вы не можете прикреплять файлы к сообщениям
Вы не можете скачивать файлы