(Opera) Giordano - Fedora (Olivero, Giacomini, D'Anna, Ratti, De Vietri - Orchestra dell'Angelicum di Milano, Scaglia) [Bonustracks:Puccini*Mascagni*Alfano*Cilea*Boito] - 1997, APE (image+.cue) lossless


 

[Цитировать]

Umberto Giordano - Fedora
Жанр: Opera
Страна-производитель диска: Germany
Год издания диска: 1997
Издатель (лейбл): Bella Voce
Номер по каталогу: BLV 107.205
Дата записи: 1971
Аудиокодек: APE
Тип рипа: image+.cue
Битрейт аудио: lossless
Продолжительность: 63'06 + 60'31
Источник: собственный рип
Наличие сканов в содержимом раздачи: да
Треклист:

CD1

01. Act I: Intro. 'Four! ... Six!'
02. Act I: 'Rather A Cold Evening'
03. Act I: 'At What Time Did Your Master?'
04. Act I: 'Call It Courage'
05. Act II: Intro. 'Friends, May I Present To You'
06. Act II: 'Oh! Monsieur De Siriex'
07. Act II: 'Thank you ... May I Present Lazinsky'
08. Act II: Canzonetta Russa. 'The Russian Woman Is Womankind Twice Over'
09. Act II: 'But Then, Is It Love?' 'Love, Itself'
10. Act II: Tempo Di Polacca. 'Highness, May Boleslao Begin?'
11. Act II: Intermezzo
12. Act II: 'Where Are You Men?'
13. Act II: 'Quiet ... He's Returning!'
14. Act II: 'But Who Accuses Me?'

CD2

01. Act III: Intro. 'The Blackcap Warbler Says'
02. Act III: 'How Perfectly Beautiful You Are!' 'Whom Do I See? De Siriex!'
03. Act III: 'Your High-ness, I Have Not Come Here Because Of Her'
04. Act III: 'My LIttle Mountain Maiden' 'God Of Justice'
05. Act III: 'Back So Soon? No Word From My Mother'
06. Act III: 'Yariskin Produced For The Emperor'
07. Act III: 'Perhaps She Now Weeps For Them With You'
08. Act III: 'It's No Use! No Use!'

Bonus: CD2

09. Puccini - Manon Lescaut: 'Inquelle Trine'
10. Puccini - Tosca: 'Vissi D'Arte'
11. Mascagni - Iris: 'Undi Era Piccina'
12. Alfano - Risurrezione: 'Dio Pietoso'
13. Cilea - Adriana Lecouvreur: 'Io Son L'Umile Ancel'
14. Boito - Mefistofele: 'L'Altra Notte' 'Spunta L'Aurora Pallida'
Исполнители:Fedora:
Umberto Giordano - Fedora
Magda Olivero (Soprano)
Giuseppe Giacomini (Tenor)
Mario D'Anna (Baritone)
Eugenia Ratti (Soprano)
Pietro De Vietri
Orchestra e Coro dell'Angelicum di Milano
Conductor: Ferruccio Scaglia
1971
Language: ItalianBonus:
Magda Olivero
Groot Omroeporkest
Conductor: Fulvio Vernizi
Concertgebouw Amsterdam
1962

Лог создания рипа

CD1

Exact Audio Copy V1.0 beta 3 from 29. August 2011
EAC extraction logfile from 30. August 2014, 17:19
Giordano / Fedora, Scaglia CD1
Used drive : TS8XDVDSTRANSCEND Adapter: 1 ID: 1
Read mode : Secure
Utilize accurate stream : Yes
Defeat audio cache : Yes
Make use of C2 pointers : No
Read offset correction : 6
Overread into Lead-In and Lead-Out : No
Fill up missing offset samples with silence : Yes
Delete leading and trailing silent blocks : No
Null samples used in CRC calculations : Yes
Used interface : Native Win32 interface for Win NT & 2000
Used output format : Monkey's Audio Lossless Encoder
Selected bitrate : High Lossless Compression
Quality : High
Add ID3 tag : No
Command line compressor : C:\Program Files (x86)\Exact Audio Copy\MAC\MAC.exe
TOC of the extracted CD
Track | Start | Length | Start sector | End sector
---------------------------------------------------------
1 | 0:00.00 | 3:00.37 | 0 | 13536
2 | 3:00.37 | 6:42.18 | 13537 | 43704
3 | 9:42.55 | 7:04.17 | 43705 | 75521
4 | 16:46.72 | 6:24.73 | 75522 | 104394
5 | 23:11.70 | 1:25.17 | 104395 | 110786
6 | 24:37.12 | 2:35.18 | 110787 | 122429
7 | 27:12.30 | 1:16.45 | 122430 | 128174
8 | 28:29.00 | 2:10.17 | 128175 | 137941
9 | 30:39.17 | 3:36.17 | 137942 | 154158
10 | 34:15.34 | 6:10.13 | 154159 | 181921
11 | 40:25.47 | 5:38.15 | 181922 | 207286
12 | 46:03.62 | 1:39.43 | 207287 | 214754
13 | 47:43.30 | 8:43.37 | 214755 | 254016
14 | 56:26.67 | 6:37.10 | 254017 | 283801
Range status and errors
Selected range
Filename D:\EAC\Giordano - Fedora, Scaglia CD1.wav
Peak level 94.6 %
Extraction speed 3.0 X
Range quality 100.0 %
Test CRC A09E0E4E
Copy CRC A09E0E4E
Copy OK
No errors occurred
AccurateRip summary
Track 1 cannot be verified as accurate (confidence 1) [2345ABBE], AccurateRip returned [5D600CC1] (AR v2)
Track 2 cannot be verified as accurate (confidence 1) [A68B1F6A], AccurateRip returned [DD8D0B62] (AR v2)
Track 3 cannot be verified as accurate (confidence 1) [F9271069], AccurateRip returned [A2B3FE75] (AR v2)
Track 4 cannot be verified as accurate (confidence 1) [D9A5EFA4], AccurateRip returned [CB2E4F67] (AR v2)
Track 5 cannot be verified as accurate (confidence 1) [55591223], AccurateRip returned [BC322375] (AR v2)
Track 6 cannot be verified as accurate (confidence 1) [40FA00ED], AccurateRip returned [7D731526] (AR v2)
Track 7 cannot be verified as accurate (confidence 1) [528B9508], AccurateRip returned [07ECBC4C] (AR v2)
Track 8 cannot be verified as accurate (confidence 1) [C889F6E9], AccurateRip returned [DB89AB8A] (AR v2)
Track 9 cannot be verified as accurate (confidence 1) [6F68B0A3], AccurateRip returned [F750D29F] (AR v2)
Track 10 cannot be verified as accurate (confidence 1) [23A67FB0], AccurateRip returned [293F4162] (AR v2)
Track 11 cannot be verified as accurate (confidence 1) [5E64919C], AccurateRip returned [451B0CD5] (AR v2)
Track 12 cannot be verified as accurate (confidence 1) [8900937C], AccurateRip returned [12D1C59F] (AR v2)
Track 13 cannot be verified as accurate (confidence 1) [4706E31F], AccurateRip returned [0D9BB113] (AR v2)
Track 14 cannot be verified as accurate (confidence 1) [4CC5EE16], AccurateRip returned [E04D1A18] (AR v2)
No tracks could be verified as accurate
You may have a different pressing from the one(s) in the database
End of status report
---- CUETools DB Plugin V2.1.3
[CTDB TOCID: ._IpcaBPDCHsJcapOdknnwdh1oc-] found, Submit result: unrecognized or virtual drive
[dd292d7d] (2/2) Accurately ripped
==== Log checksum 1093289E66C927B602D294B46671A7A875E84FDAEE049D4A038A59208532EDD1 ====

CD2

Exact Audio Copy V1.0 beta 3 from 29. August 2011
EAC extraction logfile from 30. August 2014, 17:41
Giordano / Fedora, Scaglia CD2
Used drive : TSSTcorpCDDVDW SE-208AB Adapter: 1 ID: 0
Read mode : Secure
Utilize accurate stream : Yes
Defeat audio cache : Yes
Make use of C2 pointers : No
Read offset correction : 6
Overread into Lead-In and Lead-Out : No
Fill up missing offset samples with silence : Yes
Delete leading and trailing silent blocks : No
Null samples used in CRC calculations : Yes
Used interface : Native Win32 interface for Win NT & 2000
Used output format : Monkey's Audio Lossless Encoder
Selected bitrate : High Lossless Compression
Quality : High
Add ID3 tag : No
Command line compressor : C:\Program Files (x86)\Exact Audio Copy\MAC\MAC.exe
TOC of the extracted CD
Track | Start | Length | Start sector | End sector
---------------------------------------------------------
1 | 0:00.00 | 2:40.07 | 0 | 12006
2 | 2:40.07 | 7:56.33 | 12007 | 47739
3 | 10:36.40 | 3:54.37 | 47740 | 65326
4 | 14:31.02 | 2:03.20 | 65327 | 74571
5 | 16:34.22 | 1:56.40 | 74572 | 83311
6 | 18:30.62 | 4:52.53 | 83312 | 105264
7 | 23:23.40 | 3:38.27 | 105265 | 121641
8 | 27:01.67 | 6:32.23 | 121642 | 151064
9 | 33:34.15 | 3:04.30 | 151065 | 164894
10 | 36:38.45 | 3:49.40 | 164895 | 182109
11 | 40:28.10 | 4:00.72 | 182110 | 200181
12 | 44:29.07 | 4:44.40 | 200182 | 221521
13 | 49:13.47 | 3:58.30 | 221522 | 239401
14 | 53:12.02 | 7:17.53 | 239402 | 272229
Range status and errors
Selected range
Filename D:\EAC\Giordano - Fedora, Scaglia CD2.wav
Peak level 89.3 %
Extraction speed 1.9 X
Range quality 99.9 %
Test CRC F3D261A1
Copy CRC F3D261A1
Copy OK
No errors occurred
AccurateRip summary
Track 1 cannot be verified as accurate (confidence 1) [887EF226], AccurateRip returned [41A2435E] (AR v2)
Track 2 cannot be verified as accurate (confidence 1) [91A37BF9], AccurateRip returned [F5B9289B] (AR v2)
Track 3 cannot be verified as accurate (confidence 1) [A437BDD1], AccurateRip returned [93679B50] (AR v2)
Track 4 cannot be verified as accurate (confidence 1) [7EBF01FD], AccurateRip returned [7298BC26] (AR v2)
Track 5 cannot be verified as accurate (confidence 1) [CCF4965B], AccurateRip returned [A4C6B289] (AR v2)
Track 6 cannot be verified as accurate (confidence 1) [F8848125], AccurateRip returned [26AE8F4C] (AR v2)
Track 7 cannot be verified as accurate (confidence 1) [46ACC0E8], AccurateRip returned [7E84F95B] (AR v2)
Track 8 cannot be verified as accurate (confidence 1) [F4B0BB94], AccurateRip returned [138C2F2F] (AR v2)
Track 9 cannot be verified as accurate (confidence 1) [337F0444], AccurateRip returned [8E5B43DC] (AR v2)
Track 10 cannot be verified as accurate (confidence 1) [0BC42E2B], AccurateRip returned [76003380] (AR v2)
Track 11 cannot be verified as accurate (confidence 1) [B8FFA68E], AccurateRip returned [7B2FCAA4] (AR v2)
Track 12 cannot be verified as accurate (confidence 1) [A0EBE9FA], AccurateRip returned [03B95CC4] (AR v2)
Track 13 cannot be verified as accurate (confidence 1) [C28929EA], AccurateRip returned [FA7D25D4] (AR v2)
Track 14 cannot be verified as accurate (confidence 1) [FCBA099D], AccurateRip returned [E5D2613F] (AR v2)
No tracks could be verified as accurate
You may have a different pressing from the one(s) in the database
End of status report
---- CUETools DB Plugin V2.1.3
[CTDB TOCID: zvS64eIrgAMn0skE8iw6LCUmxho-] found, Submit result: zvS64eIrgAMn0skE8iw6LCUmxho- has been confirmed
[a91bff30] (1/2) No match
[f4bebacd] (1/2) Accurately ripped
==== Log checksum AB6E073D9F0D46EAD0707EBF214A3FB3CC80EFA7449440043991AC9A3A092ABF ====

Содержание индексной карты (.CUE)

CD1

REM GENRE Opera
REM DATE 1971
REM DISCID CE0EC80E
REM COMMENT "ExactAudioCopy v1.0b3"
CATALOG 0000000000000
PERFORMER "Giordano"
TITLE "Fedora, Scaglia CD1"
FILE "Giordano - Fedora, Scaglia CD1.ape" WAVE
TRACK 01 AUDIO
TITLE "Act I: Intro. 'Four! ... Six!'"
PERFORMER "Giordano"
INDEX 01 00:00:00
TRACK 02 AUDIO
TITLE "Act I: 'Rather A Cold Evening' "
PERFORMER "Giordano"
INDEX 01 03:00:37
TRACK 03 AUDIO
TITLE "Act I: 'At What Time Did Your Master?' "
PERFORMER "Giordano"
INDEX 01 09:42:55
TRACK 04 AUDIO
TITLE "Act I: 'Call It Courage'"
PERFORMER "Giordano"
INDEX 01 16:46:72
TRACK 05 AUDIO
TITLE "Act II: Intro. 'Friends, May I Present To You' "
PERFORMER "Giordano"
INDEX 00 23:05:25
INDEX 01 23:11:70
TRACK 06 AUDIO
TITLE "Act II: 'Oh! Monsieur De Siriex'"
PERFORMER "Giordano"
INDEX 01 24:37:12
TRACK 07 AUDIO
TITLE "Act II: 'Thank you ... May I Present Lazinsky' "
PERFORMER "Giordano"
INDEX 01 27:12:30
TRACK 08 AUDIO
TITLE "Act II: Canzonetta Russa. 'The Russian Woman Is Womankind Twice Over' "
PERFORMER "Giordano"
INDEX 01 28:29:00
TRACK 09 AUDIO
TITLE "Act II: 'But Then, Is It Love?' 'Love, Itself' "
PERFORMER "Giordano"
INDEX 01 30:39:17
TRACK 10 AUDIO
TITLE "Act II: Tempo Di Polacca. 'Highness, May Boleslao Begin?' "
PERFORMER "Giordano"
INDEX 01 34:15:34
TRACK 11 AUDIO
TITLE "Act II: Intermezzo "
PERFORMER "Giordano"
INDEX 01 40:25:47
TRACK 12 AUDIO
TITLE "Act II: 'Where Are You Men?'"
PERFORMER "Giordano"
INDEX 01 46:03:62
TRACK 13 AUDIO
TITLE "Act II: 'Quiet ... He's Returning!'"
PERFORMER "Giordano"
INDEX 01 47:43:30
TRACK 14 AUDIO
TITLE "Act II: 'But Who Accuses Me?' "
PERFORMER "Giordano"
INDEX 01 56:26:67

CD2

REM GENRE Opera
REM DATE 1971
REM DISCID AD0E2D0E
REM COMMENT "ExactAudioCopy v1.0b3"
CATALOG 0000000000000
PERFORMER "Giordano"
TITLE "Fedora, Scaglia CD2"
FILE "Giordano - Fedora, Scaglia CD2.ape" WAVE
TRACK 01 AUDIO
TITLE "Act III: Intro. 'The Blackcap Warbler Says' "
PERFORMER "Giordano"
INDEX 01 00:00:00
TRACK 02 AUDIO
TITLE "Act III: 'How Perfectly Beautiful You Are!' 'Whom Do I See? De Siriex!'"
PERFORMER "Giordano"
INDEX 01 02:40:07
TRACK 03 AUDIO
TITLE "Act III: 'Your High-ness, I Have Not Come Here Because Of Her'"
PERFORMER "Giordano"
INDEX 01 10:36:40
TRACK 04 AUDIO
TITLE "Act III: 'My LIttle Mountain Maiden' 'God Of Justice'"
PERFORMER "Giordano"
INDEX 01 14:31:02
TRACK 05 AUDIO
TITLE "Act III: 'Back So Soon? No Word From My Mother' "
PERFORMER "Giordano"
INDEX 01 16:34:22
TRACK 06 AUDIO
TITLE "Act III: 'Yariskin Produced For The Emperor' "
PERFORMER "Giordano"
INDEX 01 18:30:62
TRACK 07 AUDIO
TITLE "Act III: 'Perhaps She Now Weeps For Them With You' "
PERFORMER "Giordano"
INDEX 01 23:23:40
TRACK 08 AUDIO
TITLE "Act III: 'It's No Use! No Use!'"
PERFORMER "Giordano"
INDEX 01 27:01:67
TRACK 09 AUDIO
TITLE "Manon Lescaut: 'Inquelle Trine'"
PERFORMER "Giordano"
INDEX 00 33:27:52
INDEX 01 33:34:15
TRACK 10 AUDIO
TITLE "Tosca: 'Vissi D'Arte' "
PERFORMER "Giordano"
INDEX 00 36:34:05
INDEX 01 36:38:45
TRACK 11 AUDIO
TITLE "Iris: 'Undi Era Piccina'"
PERFORMER "Giordano"
INDEX 00 40:23:17
INDEX 01 40:28:10
TRACK 12 AUDIO
TITLE "Risurrezione: 'Dio Pietoso'"
PERFORMER "Giordano"
INDEX 00 44:24:27
INDEX 01 44:29:07
TRACK 13 AUDIO
TITLE "Adriana Lecouvreur: 'Io Son L'Umile Ancel' "
PERFORMER "Giordano"
INDEX 00 49:09:02
INDEX 01 49:13:47
TRACK 14 AUDIO
TITLE "Mefistofele: 'L'Altra Notte' 'Spunta L'Aurora Pallida'"
PERFORMER "Giordano"
INDEX 00 53:07:42
INDEX 01 53:12:02



Показать сообщения:    

Текущее время: 03-Дек 20:45

Часовой пояс: UTC + 3


Вы не можете начинать темы
Вы не можете отвечать на сообщения
Вы не можете редактировать свои сообщения
Вы не можете удалять свои сообщения
Вы не можете голосовать в опросах
Вы не можете прикреплять файлы к сообщениям
Вы не можете скачивать файлы