(Opera) М.Мусоргский - »Хованщина« (А.Кривченя • Г.Большаков • М.Рейзен • М.Максакова • Н.Ханаев • А.Иванов • Хор и Оркестр Большого Театра - В.Небольсин) - 2003, FLAC (image+.cue) lossless


 

[Цитировать]

M.Mussorgsky
KHOVANSHCHINA
- Жанр: Opera
Страна-производитель диска: Россия
Год издания диска: 2003
Издатель (лейбл): Great Hall
Дата записи: 1950
Аудиокодек: FLAC
Тип рипа: image+.cue
Битрейт аудио: lossless
Продолжительность: 2:38'55''
Источник: собственный рип
Наличие сканов в содержимом раздачи: да
Треклист:

CD1

[1] Действие I
[2] Действие II

Лог создания рипа

Exact Audio Copy V1.0 beta 3 from 29. August 2011
EAC extraction logfile from 24. August 2014, 15:27
Krivchenya, Bolshakov, Reizen, Nebolsin / Modest Mussorgsky - Khovanshchina (CD1)
Used drive : TSSTcorpCDDVDW SN-208BB Adapter: 0 ID: 1
Read mode : SecureUtilize accurate stream : YesDefeat audio cache : YesMake use of C2 pointers : No
Read offset correction : 6Overread into Lead-In and Lead-Out : NoFill up missing offset samples with silence : YesDelete leading and trailing silent blocks : NoNull samples used in CRC calculations : YesUsed interface : Native Win32 interface for Win NT & 2000
Used output format : User Defined EncoderSelected bitrate : 896 kBit/sQuality : HighAdd ID3 tag : NoCommand line compressor : C:\Program Files (x86)\FLAC\flac.exeAdditional command line options : -T "COMMENT=rip by el coronel" -8 -V %source%
TOC of the extracted CD
Track | Start | Length | Start sector | End sector --------------------------------------------------------- 1 | 0:00.00 | 41:55.21 | 0 | 188645 2 | 41:55.21 | 38:01.54 | 188646 | 359774
Range status and errors
Selected range
Filename D:\Modest Mussorgsky - Khovanshchina - Nebolsin 1950 (CD1).wav
Peak level 91.4 % Extraction speed 3.5 X Range quality 100.0 % Test CRC 9F77875D Copy CRC 9F77875D Copy OK
No errors occurred
AccurateRip summary
Track 1 accurately ripped (confidence 1) [8A2BE2CF] (AR v2)Track 2 accurately ripped (confidence 1) [4D605680] (AR v2)
All tracks accurately ripped
End of status report
==== Log checksum DAE52471C2E659D86F92053454B87B122A0189892E33D886E8486676D517D53E ====

Содержание индексной карты (.CUE)

REM GENRE OperaREM DATE 2003REM DISCID 1112BD02REM COMMENT "ExactAudioCopy v1.0b3"PERFORMER "Krivchenya, Bolshakov, Reizen, Nebolsin"TITLE "Modest Mussorgsky - Khovanshchina (CD1)"FILE "Modest Mussorgsky - Khovanshchina - Nebolsin 1950 (CD1).flac" WAVE TRACK 01 AUDIO TITLE "Act 1" PERFORMER "Krivchenya, Bolshakov, Reizen, Nebolsin" FLAGS DCP INDEX 01 00:00:00 TRACK 02 AUDIO TITLE "Act 2" PERFORMER "Krivchenya, Bolshakov, Reizen, Nebolsin" FLAGS DCP INDEX 01 41:55:21

CD2

[1] Действие III
[2] Действие IV, Сцена 1
[3] Действие IV, Сцена 2
[2] Действие V

Лог создания рипа

Exact Audio Copy V1.0 beta 3 from 29. August 2011
EAC extraction logfile from 24. August 2014, 16:19
Krivchenya, Bolshakov, Reizen, Nebolsin / Modest Mussorgsky - Khovanshchina (CD2)
Used drive : TSSTcorpCDDVDW SN-208BB Adapter: 0 ID: 1
Read mode : SecureUtilize accurate stream : YesDefeat audio cache : YesMake use of C2 pointers : No
Read offset correction : 6Overread into Lead-In and Lead-Out : NoFill up missing offset samples with silence : YesDelete leading and trailing silent blocks : NoNull samples used in CRC calculations : YesUsed interface : Native Win32 interface for Win NT & 2000
Used output format : User Defined EncoderSelected bitrate : 896 kBit/sQuality : HighAdd ID3 tag : NoCommand line compressor : C:\Program Files (x86)\FLAC\flac.exeAdditional command line options : -T "COMMENT=rip by el coronel" -8 -V %source%
TOC of the extracted CD
Track | Start | Length | Start sector | End sector --------------------------------------------------------- 1 | 0:00.00 | 24:26.01 | 0 | 109950 2 | 24:26.01 | 13:43.18 | 109951 | 171693 3 | 38:09.19 | 15:14.19 | 171694 | 240262 4 | 53:23.38 | 25:34.27 | 240263 | 355339
Range status and errors
Selected range
Filename D:\Modest Mussorgsky - Khovanshchina - Nebolsin 1950 (CD2).wav
Peak level 84.6 % Extraction speed 3.5 X Range quality 100.0 % Test CRC 4C9F65A4 Copy CRC 4C9F65A4 Copy OK
No errors occurred
AccurateRip summary
Track 1 accurately ripped (confidence 1) [33C5402D] (AR v2)Track 2 accurately ripped (confidence 1) [700BF569] (AR v2)Track 3 accurately ripped (confidence 1) [D99C9425] (AR v2)Track 4 cannot be verified as accurate (confidence 1) [F282A288], AccurateRip returned [C1039616] (AR v2)
3 трек(и) скопированы точно 1 трек(и) не удалось проверить на точность
Some tracks could not be verified as accurate
End of status report
==== Log checksum C3544AEE88DA7C62BDF1AF14F46F1B49D1A745BE0DF7ED90A0059380887199AF ====

Содержание индексной карты (.CUE)

REM GENRE OperaREM DATE 2003REM DISCID 2D128104REM COMMENT "ExactAudioCopy v1.0b3"PERFORMER "Krivchenya, Bolshakov, Reizen, Nebolsin"TITLE "Modest Mussorgsky - Khovanshchina (CD2)"FILE "Modest Mussorgsky - Khovanshchina - Nebolsin 1950 (CD2).flac" WAVE TRACK 01 AUDIO TITLE "Act 3" PERFORMER "Krivchenya, Bolshakov, Reizen, Nebolsin" FLAGS DCP INDEX 01 00:00:00 TRACK 02 AUDIO TITLE "Act 4, Scene 1" PERFORMER "Krivchenya, Bolshakov, Reizen, Nebolsin" FLAGS DCP INDEX 01 24:26:01 TRACK 03 AUDIO TITLE "Act 4, Scene 2" PERFORMER "Krivchenya, Bolshakov, Reizen, Nebolsin" FLAGS DCP INDEX 01 38:09:19 TRACK 04 AUDIO TITLE "Act 5" PERFORMER "Krivchenya, Bolshakov, Reizen, Nebolsin" FLAGS DCP INDEX 01 53:23:38
Исполнители:
Алексей Кривченя - Иван Хованский | Григорий Большаков - Андрей Хованский | Никандр Ханаев - Василий Голицын | Алексей Иванов - Шакловитый | Марк Рейзен - Досифей | Мария Максакова - Марфа
Хор и Оркестр Большого Театра - Василий Небольсин-



Показать сообщения:    

Текущее время: 09-Дек 06:55

Часовой пояс: UTC + 3


Вы не можете начинать темы
Вы не можете отвечать на сообщения
Вы не можете редактировать свои сообщения
Вы не можете удалять свои сообщения
Вы не можете голосовать в опросах
Вы не можете прикреплять файлы к сообщениям
Вы не можете скачивать файлы