(Opera) Ponchielli - La Gioconda (Gencer, Nave, Raimondi, Pecile, Grilli - Orchestra del Teatro La Fenice, De Fabritiis) - 1997, APE (image+.cue) lossless


 

[Цитировать]

Amilcare Ponchielli - La Gioconda
Жанр: Opera
Страна-производитель диска: EU
Год издания диска: 1997
Издатель (лейбл): Mondo Musica
Номер по каталогу: MFOH 10081
Дата записи: 1971
Аудиокодек: APE
Тип рипа: image+.cue
Битрейт аудио: lossless
Продолжительность: 63'47 + 53'36 + 42'15
Источник: собственный рип
Наличие сканов в содержимом раздачи: да
Треклист:
CD1
1. 1.0 Coro d'introduzione
2. 1.1 Scena e terzettino
3. 1.2 Recitativo, coro e romanza
4. 1.3 Enzo e Barnaba
5. 1.4 Scena, recitativo e monologo
6. 1.5 Finale I
7. 2.0 Rosario, marinaresca, recitativo, monologo
8. 2.1 Recitativo, barcarola, romanza
CD2
1. 2.2 Scena e duetto
2. 2.3 Scene e Romanza
3. 2.4 Duetto
4. 2.5 Scena e Duetta Finale II
5. 3.0 Scena ed Aria
6. 3.1 Scena e Duetto
7. 3.2 Scena e Serenata
8. 3.3 Scena, Ingresso dei Cavalieri
9. 3.4 Recitativo e Danza
CD3
1. 3.5 Scena e finale III
2. 4.0 Preludio, scena e aria
3. 4.1 Duettino, scena e terzetto
4. 4.2 Scena e duetto finale
Исполнител
LA GIOCONDA
Dramma in quattro atti di Tobia Gorrio (A. Boito) da "Anqelo " di victor Hugo
Musica di AMILCARE PONCHIELLI
La Gioconda - LEYLA GENCER
Laura Adorno - LUISA BORDIN NAVE
Alvise - RUGGERO RAIMONDI
La Cieca - MlRNA PECILE
Enzo Grimaldo - UMBERTO GRILLl
Barnaba - MARIO ZANASI
Zuane - PAOLO BADOER
Un Cantore e Un Barnabotte - GIOVANNI ANTONINI
Isepo - GUIDO FABBRIS
Un Pilota - UMBERTO SCAGLlONE
Coro del Teatro La Fenice
Orchestra del Teatro La Fenice
OLIVIERO DE FABRITIIS

Лог создания рипа

CD1

Exact Audio Copy V1.0 beta 3 from 29. August 2011
EAC extraction logfile from 28. August 2014, 23:42
Ponchielli / La Gioconda, De Fabritiis, CD1
Used drive : HL-DT-STDVDRAM GH22NS50 Adapter: 0 ID: 2
Read mode : Secure
Utilize accurate stream : Yes
Defeat audio cache : Yes
Make use of C2 pointers : No
Read offset correction : 667
Overread into Lead-In and Lead-Out : No
Fill up missing offset samples with silence : Yes
Delete leading and trailing silent blocks : No
Null samples used in CRC calculations : Yes
Used interface : Native Win32 interface for Win NT & 2000
Used output format : Monkey's Audio Lossless Encoder
Selected bitrate : High Lossless Compression
Quality : High
Add ID3 tag : No
Command line compressor : C:\Program Files (x86)\Exact Audio Copy\MAC\MAC.exe
TOC of the extracted CD
Track | Start | Length | Start sector | End sector
---------------------------------------------------------
1 | 0:00.00 | 2:54.71 | 0 | 13120
2 | 2:54.71 | 5:28.65 | 13121 | 37785
3 | 8:23.61 | 19:22.24 | 37786 | 124959
4 | 27:46.10 | 6:14.07 | 124960 | 153016
5 | 34:00.17 | 5:27.54 | 153017 | 177595
6 | 39:27.71 | 8:43.45 | 177596 | 216865
7 | 48:11.41 | 7:44.40 | 216866 | 251705
8 | 55:56.06 | 7:48.08 | 251706 | 286813
Range status and errors
Selected range
Filename D:\EAC\Ponchielli - La Gioconda, De Fabritiis, CD1.wav
Peak level 89.0 %
Extraction speed 3.3 X
Range quality 100.0 %
Test CRC 5485B729
Copy CRC 5485B729
Copy OK
No errors occurred
AccurateRip summary
Track 1 not present in database
Track 2 not present in database
Track 3 not present in database
Track 4 not present in database
Track 5 not present in database
Track 6 not present in database
Track 7 not present in database
Track 8 not present in database
None of the tracks are present in the AccurateRip database
End of status report
---- CUETools DB Plugin V2.1.3
[CTDB TOCID: k9ktCWbuiltMPkXvjSOseMvuzvk-] found, Submit result: k9ktCWbuiltMPkXvjSOseMvuzvk- has been confirmed
[530fb506] (1/1) Accurately ripped
==== Log checksum E7DC84B8DD6D5AA1F124240169DE02CC9D9DA271A7AC81911D8920B9C73ADA23 ====

CD2

Exact Audio Copy V1.0 beta 3 from 29. August 2011
EAC extraction logfile from 28. August 2014, 23:51
Ponchielli / La Gioconda, De Fabritiis, CD2
Used drive : TS8XDVDSTRANSCEND Adapter: 1 ID: 1
Read mode : Secure
Utilize accurate stream : Yes
Defeat audio cache : Yes
Make use of C2 pointers : No
Read offset correction : 6
Overread into Lead-In and Lead-Out : No
Fill up missing offset samples with silence : Yes
Delete leading and trailing silent blocks : No
Null samples used in CRC calculations : Yes
Used interface : Native Win32 interface for Win NT & 2000
Used output format : Monkey's Audio Lossless Encoder
Selected bitrate : High Lossless Compression
Quality : High
Add ID3 tag : No
Command line compressor : C:\Program Files (x86)\Exact Audio Copy\MAC\MAC.exe
TOC of the extracted CD
Track | Start | Length | Start sector | End sector
---------------------------------------------------------
1 | 0:00.00 | 7:42.43 | 0 | 34692
2 | 7:42.43 | 3:08.52 | 34693 | 48844
3 | 10:51.20 | 3:50.52 | 48845 | 66146
4 | 14:41.72 | 6:58.10 | 66147 | 97506
5 | 21:40.07 | 5:13.70 | 97507 | 121051
6 | 26:54.02 | 5:25.27 | 121052 | 145453
7 | 32:19.29 | 5:30.60 | 145454 | 170263
8 | 37:50.14 | 3:54.28 | 170264 | 187841
9 | 41:44.42 | 11:43.44 | 187842 | 240610
Range status and errors
Selected range
Filename D:\EAC\Ponchielli - La Gioconda, De Fabritiis, CD2.wav
Peak level 89.2 %
Extraction speed 1.8 X
Range quality 100.0 %
Test CRC D311BCEF
Copy CRC D311BCEF
Copy OK
No errors occurred
AccurateRip summary
Track 1 not present in database
Track 2 not present in database
Track 3 not present in database
Track 4 not present in database
Track 5 not present in database
Track 6 not present in database
Track 7 not present in database
Track 8 not present in database
Track 9 not present in database
None of the tracks are present in the AccurateRip database
End of status report
---- CUETools DB Plugin V2.1.3
[CTDB TOCID: RiKgUiKLnNBpjZ6hXle1KOnmosw-] found, Submit result: unrecognized or virtual drive
[cab5d435] (1/1) Accurately ripped
==== Log checksum 086DBBBFFD486B094E9818E787DF77AC7DB67E828BC163E60B2C43C4236853B6 ====

CD3

Exact Audio Copy V1.0 beta 3 from 29. August 2011
EAC extraction logfile from 28. August 2014, 23:37
Ponchielli / La Gioconda, De Fabritiis, CD3
Used drive : TSSTcorpCDDVDW SE-208AB Adapter: 1 ID: 0
Read mode : Secure
Utilize accurate stream : Yes
Defeat audio cache : Yes
Make use of C2 pointers : No
Read offset correction : 6
Overread into Lead-In and Lead-Out : No
Fill up missing offset samples with silence : Yes
Delete leading and trailing silent blocks : No
Null samples used in CRC calculations : Yes
Used interface : Native Win32 interface for Win NT & 2000
Used output format : Monkey's Audio Lossless Encoder
Selected bitrate : High Lossless Compression
Quality : High
Add ID3 tag : No
Command line compressor : C:\Program Files (x86)\Exact Audio Copy\MAC\MAC.exe
TOC of the extracted CD
Track | Start | Length | Start sector | End sector
---------------------------------------------------------
1 | 0:00.00 | 8:32.37 | 0 | 38436
2 | 8:32.37 | 9:41.26 | 38437 | 82037
3 | 18:13.63 | 16:29.56 | 82038 | 156268
4 | 34:43.44 | 7:28.30 | 156269 | 189898
Range status and errors
Selected range
Filename D:\EAC\Ponchielli - La Gioconda, De Fabritiis, CD3.wav
Peak level 91.2 %
Extraction speed 1.7 X
Range quality 100.0 %
Test CRC 9195965C
Copy CRC 9195965C
Copy OK
No errors occurred
AccurateRip summary
Track 1 not present in database
Track 2 not present in database
Track 3 not present in database
Track 4 not present in database
None of the tracks are present in the AccurateRip database
End of status report
---- CUETools DB Plugin V2.1.3
[CTDB TOCID: gdW19W4zm1IrXNXYK.x95ixIMFo-] found, Submit result: gdW19W4zm1IrXNXYK.x95ixIMFo- has been confirmed
[369e03ba] (1/1) Accurately ripped
==== Log checksum D087508E6AA0548175D3E49C06DE8EDC353D6EBACEB97914C6E63F6DCA65DCD6 ====

Содержание индексной карты (.CUE)

CD1

REM GENRE Opera
REM DATE 1971
REM DISCID 740EF008
REM COMMENT "ExactAudioCopy v1.0b3"
PERFORMER "Ponchielli"
TITLE "La Gioconda, De Fabritiis, CD1"
FILE "Ponchielli - La Gioconda, De Fabritiis, CD1.ape" WAVE
TRACK 01 AUDIO
TITLE "1.0 Coro d'introduzione"
PERFORMER "Ponchielli"
ISRC 000000000000
FLAGS DCP
INDEX 01 00:00:00
TRACK 02 AUDIO
TITLE "1.1 Scena e terzettino"
PERFORMER "Ponchielli"
ISRC 000000000000
FLAGS DCP
INDEX 01 02:54:71
TRACK 03 AUDIO
TITLE "1.2 Recitativo, coro e romanza"
PERFORMER "Ponchielli"
ISRC 000000000000
FLAGS DCP
INDEX 01 08:23:61
TRACK 04 AUDIO
TITLE "1.3 Enzo e Barnaba"
PERFORMER "Ponchielli"
ISRC 000000000000
FLAGS DCP
INDEX 01 27:46:10
TRACK 05 AUDIO
TITLE "1.4 Scena, recitativo e monologo"
PERFORMER "Ponchielli"
ISRC 000000000000
FLAGS DCP
INDEX 01 34:00:17
TRACK 06 AUDIO
TITLE "1.5 Finale I"
PERFORMER "Ponchielli"
ISRC 000000000000
FLAGS DCP
INDEX 01 39:27:71
TRACK 07 AUDIO
TITLE "2.0 Rosario, marinaresca, recitativo, monologo"
PERFORMER "Ponchielli"
ISRC 000000000000
FLAGS DCP
INDEX 01 48:11:41
TRACK 08 AUDIO
TITLE "2.1 Recitativo, barcarola, romanza"
PERFORMER "Ponchielli"
ISRC 000000000000
FLAGS DCP
INDEX 01 55:56:06

CD2

REM GENRE Opera
REM DATE 1971
REM DISCID 6E0C8809
REM COMMENT "ExactAudioCopy v1.0b3"
PERFORMER "Ponchielli"
TITLE "La Gioconda, De Fabritiis, CD2"
FILE "Ponchielli - La Gioconda, De Fabritiis, CD2.ape" WAVE
TRACK 01 AUDIO
TITLE "2.3 Scena e duetto"
PERFORMER "Ponchielli"
INDEX 01 00:00:00
TRACK 02 AUDIO
TITLE "2.4 Scene e Romanza"
PERFORMER "Ponchielli"
INDEX 00 07:40:43
INDEX 01 07:42:43
TRACK 03 AUDIO
TITLE "2.5 Duetto"
PERFORMER "Ponchielli"
INDEX 00 10:49:20
INDEX 01 10:51:20
TRACK 04 AUDIO
TITLE "2.6 Scena e Duetta Finale II"
PERFORMER "Ponchielli"
INDEX 00 14:39:72
INDEX 01 14:41:72
TRACK 05 AUDIO
TITLE "3.0 Scena ed Aria"
PERFORMER "Ponchielli"
INDEX 00 21:37:70
INDEX 01 21:40:07
TRACK 06 AUDIO
TITLE "3.1 Scena e Duetto"
PERFORMER "Ponchielli"
INDEX 00 26:52:02
INDEX 01 26:54:02
TRACK 07 AUDIO
TITLE "3.2 Scena e Serenata"
PERFORMER "Ponchielli"
INDEX 00 32:17:29
INDEX 01 32:19:29
TRACK 08 AUDIO
TITLE "3.3 Scena, Ingresso dei Cavalieri"
PERFORMER "Ponchielli"
INDEX 00 37:48:14
INDEX 01 37:50:14
TRACK 09 AUDIO
TITLE "3.4 Recitativo e Danza"
PERFORMER "Ponchielli"
INDEX 00 41:42:41
INDEX 01 41:44:42

CD3

REM GENRE Opera
REM DATE 1971
REM DISCID 2A09E304
REM COMMENT "ExactAudioCopy v1.0b3"
PERFORMER "Ponchielli"
TITLE "La Gioconda, De Fabritiis, CD3"
FILE "Ponchielli - La Gioconda, De Fabritiis, CD3.ape" WAVE
TRACK 01 AUDIO
TITLE "3.5 Scena e finale III"
PERFORMER "Ponchielli"
ISRC 000000000000
FLAGS DCP
INDEX 01 00:00:00
TRACK 02 AUDIO
TITLE "4.0 Preludio, scena e aria"
PERFORMER "Ponchielli"
ISRC 000000000000
FLAGS DCP
INDEX 01 08:32:37
TRACK 03 AUDIO
TITLE "4.1 Duettino, scena e terzetto"
PERFORMER "Ponchielli"
ISRC 000000000000
FLAGS DCP
INDEX 00 18:13:61
INDEX 01 18:13:63
TRACK 04 AUDIO
TITLE "4.2 Scena e duetto finale"
PERFORMER "Ponchielli"
ISRC 000000000000
FLAGS DCP
INDEX 00 34:43:43
INDEX 01 34:43:44



Показать сообщения:    

Текущее время: 11-Дек 09:10

Часовой пояс: UTC + 3


Вы не можете начинать темы
Вы не можете отвечать на сообщения
Вы не можете редактировать свои сообщения
Вы не можете удалять свои сообщения
Вы не можете голосовать в опросах
Вы не можете прикреплять файлы к сообщениям
Вы не можете скачивать файлы