(opera) Giacomo Puccini - Tosca (Magda Olivero, Flaviano Labo, Tito Gobbi - Fabritiis 1962) - 2013, FLAC (tracks+.cue) lossless


 

[Цитировать]

Giacomo Puccini - Tosca (Magda Olivero, Flaviano Labo, Tito Gobbi - Fabritiis 1962)
Жанр: opera
Страна-производитель диска: Italy
Год издания диска: 2013
Издатель (лейбл): Bongiovanni
Дата записи: 26,07,1962
Аудиокодек: FLAC
Тип рипа: tracks+.cue
Битрейт аудио: lossless
Продолжительность: CD1 - 72'40" CD2 - 57'11"
Источник: собственный рип
Наличие сканов в содержимом раздачи: нет
Исполнители:
Tosca by Giacomo Puccini performed in Italian
Conductor Oliviero De Fabritiis - 1962(LE)
Orchestra - Arena di Verona
Chorus - Arena di Verona
Floria Tosca - Magda Olivero
Mario Cavaradossi - Flaviano Labo
Il barone Scarpia - Tito Gobbi
Spoletta - Piero De Palma
Sciarrone - Virgilio Carbonari

Треклист

CD1
01. Ah! Finalmente!
02. E sempre lava!
03. Recondita armonia!
04. Eccelenza, vado
05. Mario! Mario!..Son qui!
06. Non la sospiri la nostra casetta
07. Qual occhio al mondo
08. E buona la mia Tosca
09. Tutta qui la cantoria
10. Un tal baccano in chiesa
11. Or tutto e chiaro
12. Ed io venivo a lui tutta dogliosa
13. Tre sbirri, una carrozza
14. Tosca e un buon falko
15. Ha piu forte sapor
16. Dov'e Angelotti
17. Ed or fra noi parliam
18. Ed or la verita
19. Floria!..Amore!
20. Vittoria! Vittoria!
21. Gia mi di con venal
CD2
01. Vissi d'arte
02. Vissi d'arte (bis)
03. Vedi, le man giunte
04. Tosca, finalmente mia
05. Io de sospiri
06. Mario Cavaradossi
07. E lucevan le stelle
08. E lucevan le stelle (bis)
09. Ah! Franchigia a Floria Tosca
10. O dolci mani
11. Amaro sol per te
12. Son pronto
Bonus: Il Trovatore act 3 scene 2
Flaviano Labo, Anna De Cavalieri
13. Quale d'armi fragor
14. Ah si, ben mio
15. Di quella pira

Лог создания рипа

Tosca Fabritiis 1962 CD1.log

Exact Audio Copy V1.0 beta 3 from 29. August 2011
EAC extraction logfile from 27. July 2014, 18:17
Magda Olivero, Flaviano Labo, Tito Gobbi / Tosca Fabritiis 1962 CD1
Used drive : hp DVDRAM GT50N Adapter: 0 ID: 0
Read mode : Secure
Utilize accurate stream : Yes
Defeat audio cache : Yes
Make use of C2 pointers : No
Read offset correction : 103
Overread into Lead-In and Lead-Out : No
Fill up missing offset samples with silence : Yes
Delete leading and trailing silent blocks : No
Null samples used in CRC calculations : Yes
Used interface : Native Win32 interface for Win NT & 2000
Gap handling : Appended to previous track
Used output format : User Defined Encoder
Selected bitrate : 128 kBit/s
Quality : High
Add ID3 tag : No
Command line compressor : C:\Program Files\Exact Audio Copy\Flac\flac.exe
Additional command line options : -V -8 -T "Genre=%genre%" -T "Artist=%artist%" -T "Title=%title%" -T "Album=%albumtitle%" -T "Date=%year%" -T "Tracknumber=%tracknr%" -T "Comment=%comment%" %source%
TOC of the extracted CD
Track | Start | Length | Start sector | End sector
---------------------------------------------------------
1 | 0:00.00 | 2:11.51 | 0 | 9875
2 | 2:11.51 | 3:31.46 | 9876 | 25746
3 | 5:43.22 | 4:08.34 | 25747 | 44380
4 | 9:51.56 | 1:50.42 | 44381 | 52672
5 | 11:42.23 | 2:52.37 | 52673 | 65609
6 | 14:34.60 | 4:09.12 | 65610 | 84296
7 | 18:43.72 | 5:13.71 | 84297 | 107842
8 | 23:57.68 | 3:57.46 | 107843 | 125663
9 | 27:55.39 | 1:27.65 | 125664 | 132253
10 | 29:23.29 | 3:52.21 | 132254 | 149674
11 | 33:15.50 | 3:11.73 | 149675 | 164072
12 | 36:27.48 | 4:24.62 | 164073 | 183934
13 | 40:52.35 | 4:02.37 | 183935 | 202121
14 | 44:54.72 | 3:13.37 | 202122 | 216633
15 | 48:08.34 | 4:59.15 | 216634 | 239073
16 | 53:07.49 | 2:55.35 | 239074 | 252233
17 | 56:03.09 | 3:03.40 | 252234 | 265998
18 | 59:06.49 | 4:47.55 | 265999 | 287578
19 | 63:54.29 | 1:44.43 | 287579 | 295421
20 | 65:38.72 | 2:35.25 | 295422 | 307071
21 | 68:14.22 | 4:26.15 | 307072 | 327036
Track 1
Filename D:\Temp\Пуччини - Tosca - Magda Olivero, Flaviano Labo, Tito Gobbi - Fabritiis 1962\Tosca Fabritiis 1962 CD1\01. Ah! Finalmente!.wav
Pre-gap length 0:00:02.00
Peak level 69.6 %
Extraction speed 2.2 X
Track quality 100.0 %
Test CRC 03B94095
Copy CRC 03B94095
Track not present in AccurateRip database
Copy OK
Track 2
Filename D:\Temp\Пуччини - Tosca - Magda Olivero, Flaviano Labo, Tito Gobbi - Fabritiis 1962\Tosca Fabritiis 1962 CD1\02. E sempre lava!.wav
Peak level 59.2 %
Extraction speed 2.6 X
Track quality 100.0 %
Test CRC 19EB7F4B
Copy CRC 19EB7F4B
Track not present in AccurateRip database
Copy OK
Track 3
Filename D:\Temp\Пуччини - Tosca - Magda Olivero, Flaviano Labo, Tito Gobbi - Fabritiis 1962\Tosca Fabritiis 1962 CD1\03. Recondita armonia!.wav
Peak level 73.2 %
Extraction speed 2.9 X
Track quality 100.0 %
Test CRC 5D3E18E8
Copy CRC 5D3E18E8
Track not present in AccurateRip database
Copy OK
Track 4
Filename D:\Temp\Пуччини - Tosca - Magda Olivero, Flaviano Labo, Tito Gobbi - Fabritiis 1962\Tosca Fabritiis 1962 CD1\04. Eccelenza, vado.wav
Peak level 60.7 %
Extraction speed 2.0 X
Track quality 99.9 %
Test CRC 066CFA22
Copy CRC 066CFA22
Track not present in AccurateRip database
Copy OK
Track 5
Filename D:\Temp\Пуччини - Tosca - Magda Olivero, Flaviano Labo, Tito Gobbi - Fabritiis 1962\Tosca Fabritiis 1962 CD1\05. Mario! Mario!..Son qui!.wav
Peak level 61.9 %
Extraction speed 2.9 X
Track quality 100.0 %
Test CRC F36CE1EB
Copy CRC F36CE1EB
Track not present in AccurateRip database
Copy OK
Track 6
Filename D:\Temp\Пуччини - Tosca - Magda Olivero, Flaviano Labo, Tito Gobbi - Fabritiis 1962\Tosca Fabritiis 1962 CD1\06. Non la sospiri la nostra casetta.wav
Peak level 63.6 %
Extraction speed 3.3 X
Track quality 100.0 %
Test CRC CBF2E3D1
Copy CRC CBF2E3D1
Track not present in AccurateRip database
Copy OK
Track 7
Filename D:\Temp\Пуччини - Tosca - Magda Olivero, Flaviano Labo, Tito Gobbi - Fabritiis 1962\Tosca Fabritiis 1962 CD1\07. Qual occhio al mondo.wav
Peak level 57.4 %
Extraction speed 3.6 X
Track quality 100.0 %
Test CRC DE2EFF3E
Copy CRC DE2EFF3E
Track not present in AccurateRip database
Copy OK
Track 8
Filename D:\Temp\Пуччини - Tosca - Magda Olivero, Flaviano Labo, Tito Gobbi - Fabritiis 1962\Tosca Fabritiis 1962 CD1\08. E buona la mia Tosca.wav
Peak level 68.3 %
Extraction speed 3.7 X
Track quality 100.0 %
Test CRC 88C05D5E
Copy CRC 88C05D5E
Track not present in AccurateRip database
Copy OK
Track 9
Filename D:\Temp\Пуччини - Tosca - Magda Olivero, Flaviano Labo, Tito Gobbi - Fabritiis 1962\Tosca Fabritiis 1962 CD1\09. Tutta qui la cantoria.wav
Peak level 66.6 %
Extraction speed 3.0 X
Track quality 100.0 %
Test CRC 73E43DDD
Copy CRC 73E43DDD
Track not present in AccurateRip database
Copy OK
Track 10
Filename D:\Temp\Пуччини - Tosca - Magda Olivero, Flaviano Labo, Tito Gobbi - Fabritiis 1962\Tosca Fabritiis 1962 CD1\10. Un tal baccano in chiesa.wav
Peak level 60.4 %
Extraction speed 3.9 X
Track quality 100.0 %
Test CRC 67DB782C
Copy CRC 67DB782C
Track not present in AccurateRip database
Copy OK
Track 11
Filename D:\Temp\Пуччини - Tosca - Magda Olivero, Flaviano Labo, Tito Gobbi - Fabritiis 1962\Tosca Fabritiis 1962 CD1\11. Or tutto e chiaro.wav
Peak level 64.2 %
Extraction speed 3.9 X
Track quality 100.0 %
Test CRC 35C0C86F
Copy CRC 35C0C86F
Track not present in AccurateRip database
Copy OK
Track 12
Filename D:\Temp\Пуччини - Tosca - Magda Olivero, Flaviano Labo, Tito Gobbi - Fabritiis 1962\Tosca Fabritiis 1962 CD1\12. Ed io venivo a lui tutta dogliosa.wav
Peak level 61.4 %
Extraction speed 4.2 X
Track quality 100.0 %
Test CRC 9DAA9A2A
Copy CRC 9DAA9A2A
Track not present in AccurateRip database
Copy OK
Track 13
Filename D:\Temp\Пуччини - Tosca - Magda Olivero, Flaviano Labo, Tito Gobbi - Fabritiis 1962\Tosca Fabritiis 1962 CD1\13. Tre sbirri, una carrozza.wav
Peak level 70.6 %
Extraction speed 4.3 X
Track quality 100.0 %
Test CRC A2ECB34D
Copy CRC A2ECB34D
Track not present in AccurateRip database
Copy OK
Track 14
Filename D:\Temp\Пуччини - Tosca - Magda Olivero, Flaviano Labo, Tito Gobbi - Fabritiis 1962\Tosca Fabritiis 1962 CD1\14. Tosca e un buon falko.wav
Pre-gap length 0:00:05.30
Peak level 88.0 %
Extraction speed 4.2 X
Track quality 100.0 %
Test CRC EC95E0FF
Copy CRC EC95E0FF
Track not present in AccurateRip database
Copy OK
Track 15
Filename D:\Temp\Пуччини - Tosca - Magda Olivero, Flaviano Labo, Tito Gobbi - Fabritiis 1962\Tosca Fabritiis 1962 CD1\15. Ha piu forte sapor.wav
Peak level 80.9 %
Extraction speed 4.7 X
Track quality 100.0 %
Test CRC 86183A49
Copy CRC 86183A49
Track not present in AccurateRip database
Copy OK
Track 16
Filename D:\Temp\Пуччини - Tosca - Magda Olivero, Flaviano Labo, Tito Gobbi - Fabritiis 1962\Tosca Fabritiis 1962 CD1\16. Dov'e Angelotti.wav
Peak level 86.2 %
Extraction speed 3.6 X
Track quality 100.0 %
Test CRC FC9463B5
Copy CRC FC9463B5
Track not present in AccurateRip database
Copy OK
Track 17
Filename D:\Temp\Пуччини - Tosca - Magda Olivero, Flaviano Labo, Tito Gobbi - Fabritiis 1962\Tosca Fabritiis 1962 CD1\17. Ed or fra noi parliam.wav
Peak level 85.0 %
Extraction speed 3.7 X
Track quality 100.0 %
Test CRC 3383C92C
Copy CRC 3383C92C
Track not present in AccurateRip database
Copy OK
Track 18
Filename D:\Temp\Пуччини - Tosca - Magda Olivero, Flaviano Labo, Tito Gobbi - Fabritiis 1962\Tosca Fabritiis 1962 CD1\18. Ed or la verita.wav
Peak level 88.7 %
Extraction speed 4.0 X
Track quality 100.0 %
Test CRC 2D25DB21
Copy CRC 2D25DB21
Track not present in AccurateRip database
Copy OK
Track 19
Filename D:\Temp\Пуччини - Tosca - Magda Olivero, Flaviano Labo, Tito Gobbi - Fabritiis 1962\Tosca Fabritiis 1962 CD1\19. Floria!..Amore!.wav
Peak level 79.9 %
Extraction speed 1.7 X
Track quality 99.8 %
Test CRC 790110A3
Copy CRC 790110A3
Track not present in AccurateRip database
Copy OK
Track 20
Filename D:\Temp\Пуччини - Tosca - Magda Olivero, Flaviano Labo, Tito Gobbi - Fabritiis 1962\Tosca Fabritiis 1962 CD1\20. Vittoria! Vittoria!.wav
Peak level 81.2 %
Extraction speed 2.0 X
Track quality 99.9 %
Test CRC 4730D930
Copy CRC 4730D930
Track not present in AccurateRip database
Copy OK
Track 21
Filename D:\Temp\Пуччини - Tosca - Magda Olivero, Flaviano Labo, Tito Gobbi - Fabritiis 1962\Tosca Fabritiis 1962 CD1\21. Gia mi di con venal.wav
Peak level 77.0 %
Extraction speed 2.7 X
Track quality 100.0 %
Test CRC 00686CAE
Copy CRC 00686CAE
Track not present in AccurateRip database
Copy OK
None of the tracks are present in the AccurateRip database
No errors occurred
End of status report
==== Log checksum 5007E5E01F3FFB9F08694E3C242C7604D597F204A63A9EC774BD4E38648D6185 ====

Tosca Fabritiis 1962 CD2.log

Exact Audio Copy V1.0 beta 3 from 29. August 2011
EAC extraction logfile from 27. July 2014, 19:13
Magda Olivero, Flaviano Labo, Tito Gobbi / Tosca Fabritiis 1962 CD2
Used drive : hp DVDRAM GT50N Adapter: 0 ID: 0
Read mode : Secure
Utilize accurate stream : Yes
Defeat audio cache : Yes
Make use of C2 pointers : No
Read offset correction : 103
Overread into Lead-In and Lead-Out : No
Fill up missing offset samples with silence : Yes
Delete leading and trailing silent blocks : No
Null samples used in CRC calculations : Yes
Used interface : Native Win32 interface for Win NT & 2000
Gap handling : Appended to previous track
Used output format : User Defined Encoder
Selected bitrate : 128 kBit/s
Quality : High
Add ID3 tag : No
Command line compressor : C:\Program Files\Exact Audio Copy\Flac\flac.exe
Additional command line options : -V -8 -T "Genre=%genre%" -T "Artist=%artist%" -T "Title=%title%" -T "Album=%albumtitle%" -T "Date=%year%" -T "Tracknumber=%tracknr%" -T "Comment=%comment%" %source%
TOC of the extracted CD
Track | Start | Length | Start sector | End sector
---------------------------------------------------------
1 | 0:00.00 | 4:49.68 | 0 | 21742
2 | 4:49.68 | 3:53.05 | 21743 | 39222
3 | 8:42.73 | 5:17.69 | 39223 | 63066
4 | 14:00.67 | 4:44.50 | 63067 | 84416
5 | 18:45.42 | 6:06.10 | 84417 | 111876
6 | 24:51.52 | 2:52.38 | 111877 | 124814
7 | 27:44.15 | 4:32.30 | 124815 | 145244
8 | 32:16.45 | 2:56.04 | 145245 | 158448
9 | 35:12.49 | 2:26.49 | 158449 | 169447
10 | 37:39.23 | 2:58.03 | 169448 | 182800
11 | 40:37.26 | 4:21.68 | 182801 | 202443
12 | 44:59.19 | 4:06.08 | 202444 | 220901
13 | 49:05.27 | 1:58.16 | 220902 | 229767
14 | 51:03.43 | 4:06.23 | 229768 | 248240
15 | 55:09.66 | 2:13.03 | 248241 | 258218
Track 1
Filename D:\Temp\Пуччини - Tosca - Magda Olivero, Flaviano Labo, Tito Gobbi - Fabritiis 1962\Tosca Fabritiis 1962 CD2\01. Vissi d'arte.wav
Pre-gap length 0:00:02.00
Peak level 82.4 %
Extraction speed 2.6 X
Track quality 100.0 %
Test CRC FA36086C
Copy CRC FA36086C
Track not present in AccurateRip database
Copy OK
Track 2
Filename D:\Temp\Пуччини - Tosca - Magda Olivero, Flaviano Labo, Tito Gobbi - Fabritiis 1962\Tosca Fabritiis 1962 CD2\02. Vissi d'arte (bis).wav
Peak level 94.6 %
Extraction speed 2.4 X
Track quality 99.9 %
Test CRC 40DF0B3D
Copy CRC 40DF0B3D
Track not present in AccurateRip database
Copy OK
Track 3
Filename D:\Temp\Пуччини - Tosca - Magda Olivero, Flaviano Labo, Tito Gobbi - Fabritiis 1962\Tosca Fabritiis 1962 CD2\03. Vedi, le man giunte.wav
Peak level 96.0 %
Extraction speed 3.2 X
Track quality 100.0 %
Test CRC EA366328
Copy CRC EA366328
Track not present in AccurateRip database
Copy OK
Track 4
Filename D:\Temp\Пуччини - Tosca - Magda Olivero, Flaviano Labo, Tito Gobbi - Fabritiis 1962\Tosca Fabritiis 1962 CD2\04. Tosca, finalmente mia.wav
Peak level 96.2 %
Extraction speed 3.4 X
Track quality 100.0 %
Test CRC 13AAA6BF
Copy CRC 13AAA6BF
Track not present in AccurateRip database
Copy OK
Track 5
Filename D:\Temp\Пуччини - Tosca - Magda Olivero, Flaviano Labo, Tito Gobbi - Fabritiis 1962\Tosca Fabritiis 1962 CD2\05. Io de sospiri.wav
Pre-gap length 0:00:06.05
Peak level 55.5 %
Extraction speed 3.7 X
Track quality 100.0 %
Test CRC 607865ED
Copy CRC 607865ED
Track not present in AccurateRip database
Copy OK
Track 6
Filename D:\Temp\Пуччини - Tosca - Magda Olivero, Flaviano Labo, Tito Gobbi - Fabritiis 1962\Tosca Fabritiis 1962 CD2\06. Mario Cavaradossi.wav
Peak level 96.6 %
Extraction speed 3.5 X
Track quality 100.0 %
Test CRC 32E86A6B
Copy CRC 32E86A6B
Track not present in AccurateRip database
Copy OK
Track 7
Filename D:\Temp\Пуччини - Tosca - Magda Olivero, Flaviano Labo, Tito Gobbi - Fabritiis 1962\Tosca Fabritiis 1962 CD2\07. E lucevan le stelle.wav
Peak level 80.3 %
Extraction speed 4.0 X
Track quality 100.0 %
Test CRC 5FB70D0B
Copy CRC 5FB70D0B
Track not present in AccurateRip database
Copy OK
Track 8
Filename D:\Temp\Пуччини - Tosca - Magda Olivero, Flaviano Labo, Tito Gobbi - Fabritiis 1962\Tosca Fabritiis 1962 CD2\08. E lucevan le stelle (bis).wav
Peak level 97.2 %
Extraction speed 3.9 X
Track quality 100.0 %
Test CRC FDAD827E
Copy CRC FDAD827E
Track not present in AccurateRip database
Copy OK
Track 9
Filename D:\Temp\Пуччини - Tosca - Magda Olivero, Flaviano Labo, Tito Gobbi - Fabritiis 1962\Tosca Fabritiis 1962 CD2\09. Ah! Franchigia a Floria Tosca.wav
Peak level 97.2 %
Extraction speed 3.8 X
Track quality 100.0 %
Test CRC C3901D90
Copy CRC C3901D90
Track not present in AccurateRip database
Copy OK
Track 10
Filename D:\Temp\Пуччини - Tosca - Magda Olivero, Flaviano Labo, Tito Gobbi - Fabritiis 1962\Tosca Fabritiis 1962 CD2\10. O dolci mani.wav
Peak level 53.3 %
Extraction speed 4.1 X
Track quality 100.0 %
Test CRC 69235B38
Copy CRC 69235B38
Track not present in AccurateRip database
Copy OK
Track 11
Filename D:\Temp\Пуччини - Tosca - Magda Olivero, Flaviano Labo, Tito Gobbi - Fabritiis 1962\Tosca Fabritiis 1962 CD2\11. Amaro sol per te.wav
Peak level 96.0 %
Extraction speed 4.0 X
Track quality 99.9 %
Test CRC CA01C1F8
Copy CRC CA01C1F8
Track not present in AccurateRip database
Copy OK
Track 12
Filename D:\Temp\Пуччини - Tosca - Magda Olivero, Flaviano Labo, Tito Gobbi - Fabritiis 1962\Tosca Fabritiis 1962 CD2\12. Son pronto.wav
Peak level 95.6 %
Extraction speed 4.6 X
Track quality 100.0 %
Test CRC 3D76FAAB
Copy CRC 3D76FAAB
Track not present in AccurateRip database
Copy OK
Track 13
Filename D:\Temp\Пуччини - Tosca - Magda Olivero, Flaviano Labo, Tito Gobbi - Fabritiis 1962\Tosca Fabritiis 1962 CD2\13. Quale d'armi fragor.wav
Pre-gap length 0:00:05.31
Peak level 51.6 %
Extraction speed 3.3 X
Track quality 99.9 %
Test CRC 0E000A25
Copy CRC 0E000A25
Track not present in AccurateRip database
Copy OK
Track 14
Filename D:\Temp\Пуччини - Tosca - Magda Olivero, Flaviano Labo, Tito Gobbi - Fabritiis 1962\Tosca Fabritiis 1962 CD2\14. Ah si, ben mio.wav
Peak level 96.1 %
Extraction speed 4.2 X
Track quality 99.9 %
Test CRC 3115FE1C
Copy CRC 3115FE1C
Track not present in AccurateRip database
Copy OK
Track 15
Filename D:\Temp\Пуччини - Tosca - Magda Olivero, Flaviano Labo, Tito Gobbi - Fabritiis 1962\Tosca Fabritiis 1962 CD2\15. Di quella pira.wav
Peak level 97.5 %
Extraction speed 4.5 X
Track quality 100.0 %
Test CRC 7706C1A9
Copy CRC 7706C1A9
Track not present in AccurateRip database
Copy OK
None of the tracks are present in the AccurateRip database
No errors occurred
End of status report
==== Log checksum 00EDFF41188B8F0A6AF47F259F22D9BEAA8FBE1DCD2E6E804ED89DC4EF45C046 ====

Содержание индексной карты (.CUE)

Tosca Fabritiis 1962 CD1.cue

REM DISCID 61110815
REM COMMENT "ExactAudioCopy v1.0b3"
PERFORMER "Magda Olivero, Flaviano Labo, Tito Gobbi"
TITLE "Tosca Fabritiis 1962 CD1"
FILE "01. Ah! Finalmente!.wav" WAVE
TRACK 01 AUDIO
TITLE "Ah! Finalmente!"
PERFORMER "Magda Olivero, Flaviano Labo, Tito Gobbi"
INDEX 01 00:00:00
FILE "02. E sempre lava!.wav" WAVE
TRACK 02 AUDIO
TITLE "E sempre lava!"
PERFORMER "Magda Olivero, Flaviano Labo, Tito Gobbi"
INDEX 01 00:00:00
FILE "03. Recondita armonia!.wav" WAVE
TRACK 03 AUDIO
TITLE "Recondita armonia!"
PERFORMER "Magda Olivero, Flaviano Labo, Tito Gobbi"
INDEX 01 00:00:00
FILE "04. Eccelenza, vado.wav" WAVE
TRACK 04 AUDIO
TITLE "Eccelenza, vado"
PERFORMER "Magda Olivero, Flaviano Labo, Tito Gobbi"
INDEX 01 00:00:00
FILE "05. Mario! Mario!..Son qui!.wav" WAVE
TRACK 05 AUDIO
TITLE "Mario! Mario!..Son qui!"
PERFORMER "Magda Olivero, Flaviano Labo, Tito Gobbi"
INDEX 01 00:00:00
FILE "06. Non la sospiri la nostra casetta.wav" WAVE
TRACK 06 AUDIO
TITLE "Non la sospiri la nostra casetta"
PERFORMER "Magda Olivero, Flaviano Labo, Tito Gobbi"
INDEX 01 00:00:00
FILE "07. Qual occhio al mondo.wav" WAVE
TRACK 07 AUDIO
TITLE "Qual occhio al mondo"
PERFORMER "Magda Olivero, Flaviano Labo, Tito Gobbi"
INDEX 01 00:00:00
FILE "08. E buona la mia Tosca.wav" WAVE
TRACK 08 AUDIO
TITLE "E buona la mia Tosca"
PERFORMER "Magda Olivero, Flaviano Labo, Tito Gobbi"
INDEX 01 00:00:00
FILE "09. Tutta qui la cantoria.wav" WAVE
TRACK 09 AUDIO
TITLE "Tutta qui la cantoria"
PERFORMER "Magda Olivero, Flaviano Labo, Tito Gobbi"
INDEX 01 00:00:00
FILE "10. Un tal baccano in chiesa.wav" WAVE
TRACK 10 AUDIO
TITLE "Un tal baccano in chiesa"
PERFORMER "Magda Olivero, Flaviano Labo, Tito Gobbi"
INDEX 01 00:00:00
FILE "11. Or tutto e chiaro.wav" WAVE
TRACK 11 AUDIO
TITLE "Or tutto e chiaro"
PERFORMER "Magda Olivero, Flaviano Labo, Tito Gobbi"
INDEX 01 00:00:00
FILE "12. Ed io venivo a lui tutta dogliosa.wav" WAVE
TRACK 12 AUDIO
TITLE "Ed io venivo a lui tutta dogliosa"
PERFORMER "Magda Olivero, Flaviano Labo, Tito Gobbi"
INDEX 01 00:00:00
FILE "13. Tre sbirri, una carrozza.wav" WAVE
TRACK 13 AUDIO
TITLE "Tre sbirri, una carrozza"
PERFORMER "Magda Olivero, Flaviano Labo, Tito Gobbi"
INDEX 01 00:00:00
TRACK 14 AUDIO
TITLE "Tosca e un buon falko"
PERFORMER "Magda Olivero, Flaviano Labo, Tito Gobbi"
INDEX 00 03:57:07
FILE "14. Tosca e un buon falko.wav" WAVE
INDEX 01 00:00:00
FILE "15. Ha piu forte sapor.wav" WAVE
TRACK 15 AUDIO
TITLE "Ha piu forte sapor"
PERFORMER "Magda Olivero, Flaviano Labo, Tito Gobbi"
INDEX 01 00:00:00
FILE "16. Dov'e Angelotti.wav" WAVE
TRACK 16 AUDIO
TITLE "Dov'e Angelotti"
PERFORMER "Magda Olivero, Flaviano Labo, Tito Gobbi"
INDEX 01 00:00:00
FILE "17. Ed or fra noi parliam.wav" WAVE
TRACK 17 AUDIO
TITLE "Ed or fra noi parliam"
PERFORMER "Magda Olivero, Flaviano Labo, Tito Gobbi"
INDEX 01 00:00:00
FILE "18. Ed or la verita.wav" WAVE
TRACK 18 AUDIO
TITLE "Ed or la verita"
PERFORMER "Magda Olivero, Flaviano Labo, Tito Gobbi"
INDEX 01 00:00:00
FILE "19. Floria!..Amore!.wav" WAVE
TRACK 19 AUDIO
TITLE "Floria!..Amore!"
PERFORMER "Magda Olivero, Flaviano Labo, Tito Gobbi"
INDEX 01 00:00:00
FILE "20. Vittoria! Vittoria!.wav" WAVE
TRACK 20 AUDIO
TITLE "Vittoria! Vittoria!"
PERFORMER "Magda Olivero, Flaviano Labo, Tito Gobbi"
INDEX 01 00:00:00
FILE "21. Gia mi di con venal.wav" WAVE
TRACK 21 AUDIO
TITLE "Gia mi di con venal"
PERFORMER "Magda Olivero, Flaviano Labo, Tito Gobbi"
INDEX 01 00:00:00

Tosca Fabritiis 1962 CD2.cue

REM DISCID C60D720F
REM COMMENT "ExactAudioCopy v1.0b3"
PERFORMER "Magda Olivero, Flaviano Labo, Tito Gobbi"
TITLE "Tosca Fabritiis 1962 CD2"
FILE "01. Vissi d'arte.wav" WAVE
TRACK 01 AUDIO
TITLE "Vissi d'arte"
PERFORMER "Magda Olivero, Flaviano Labo, Tito Gobbi"
INDEX 01 00:00:00
FILE "02. Vissi d'arte (bis).wav" WAVE
TRACK 02 AUDIO
TITLE "Vissi d'arte (bis)"
PERFORMER "Magda Olivero, Flaviano Labo, Tito Gobbi"
INDEX 01 00:00:00
FILE "03. Vedi, le man giunte.wav" WAVE
TRACK 03 AUDIO
TITLE "Vedi, le man giunte"
PERFORMER "Magda Olivero, Flaviano Labo, Tito Gobbi"
INDEX 01 00:00:00
FILE "04. Tosca, finalmente mia.wav" WAVE
TRACK 04 AUDIO
TITLE "Tosca, finalmente mia"
PERFORMER "Magda Olivero, Flaviano Labo, Tito Gobbi"
INDEX 01 00:00:00
TRACK 05 AUDIO
TITLE "Io de sospiri"
PERFORMER "Magda Olivero, Flaviano Labo, Tito Gobbi"
INDEX 00 04:38:45
FILE "05. Io de sospiri.wav" WAVE
INDEX 01 00:00:00
FILE "06. Mario Cavaradossi.wav" WAVE
TRACK 06 AUDIO
TITLE "Mario Cavaradossi?"
PERFORMER "Magda Olivero, Flaviano Labo, Tito Gobbi"
INDEX 01 00:00:00
FILE "07. E lucevan le stelle.wav" WAVE
TRACK 07 AUDIO
TITLE "E lucevan le stelle"
PERFORMER "Magda Olivero, Flaviano Labo, Tito Gobbi"
INDEX 01 00:00:00
FILE "08. E lucevan le stelle (bis).wav" WAVE
TRACK 08 AUDIO
TITLE "E lucevan le stelle (bis)"
PERFORMER "Magda Olivero, Flaviano Labo, Tito Gobbi"
INDEX 01 00:00:00
FILE "09. Ah! Franchigia a Floria Tosca.wav" WAVE
TRACK 09 AUDIO
TITLE "Ah! Franchigia a Floria Tosca"
PERFORMER "Magda Olivero, Flaviano Labo, Tito Gobbi"
INDEX 01 00:00:00
FILE "10. O dolci mani.wav" WAVE
TRACK 10 AUDIO
TITLE "O dolci mani"
PERFORMER "Magda Olivero, Flaviano Labo, Tito Gobbi"
INDEX 01 00:00:00
FILE "11. Amaro sol per te.wav" WAVE
TRACK 11 AUDIO
TITLE "Amaro sol per te"
PERFORMER "Magda Olivero, Flaviano Labo, Tito Gobbi"
INDEX 01 00:00:00
FILE "12. Son pronto.wav" WAVE
TRACK 12 AUDIO
TITLE "Son pronto"
PERFORMER "Magda Olivero, Flaviano Labo, Tito Gobbi"
INDEX 01 00:00:00
TRACK 13 AUDIO
TITLE "Quale d'armi fragor"
PERFORMER "Magda Olivero, Flaviano Labo, Tito Gobbi"
INDEX 00 04:00:52
FILE "13. Quale d'armi fragor.wav" WAVE
INDEX 01 00:00:00
FILE "14. Ah si, ben mio.wav" WAVE
TRACK 14 AUDIO
TITLE "Ah si, ben mio"
PERFORMER "Magda Olivero, Flaviano Labo, Tito Gobbi"
INDEX 01 00:00:00
FILE "15. Di quella pira.wav" WAVE
TRACK 15 AUDIO
TITLE "Di quella pira"
PERFORMER "Magda Olivero, Flaviano Labo, Tito Gobbi"
INDEX 01 00:00:00



Показать сообщения:    

Текущее время: 08-Дек 07:09

Часовой пояс: UTC + 3


Вы не можете начинать темы
Вы не можете отвечать на сообщения
Вы не можете редактировать свои сообщения
Вы не можете удалять свои сообщения
Вы не можете голосовать в опросах
Вы не можете прикреплять файлы к сообщениям
Вы не можете скачивать файлы