(Classical) R. Strauss - Elektra (Ingrid Steger; Martha Modl; Marion Lippert; Wolfgang Windgassen; Carlos Kleiber; Stuttgart State Opera; 1971) - 2013, FLAC (image+.cue) lossless


 

[Цитировать]

R. Strauss - Elektra (Ingrid Steger; Martha Modl; Marion Lippert; Wolfgang Windgassen; Carlos Kleiber; Stuttgart State Opera; 1971)
Жанр: Classical
Страна-производитель диска: Италия
Год издания диска: 2013
Издатель (лейбл): Memories
Номер по каталогу: ME1095/96
Дата записи: 1971
Аудиокодек: FLAC
Тип рипа: image+.cue
Битрейт аудио: lossless
Продолжительность: 01:30:45
Источник: собственный рип
Наличие сканов в содержимом раздачи: нет

Треклист

CD1
1. Wo bleibt Elektra [05:38]
2. Allein! Weh, ganz allein [08:48]
3. Elektra! [02:01]
4. Ich kann nicht sitzen und ins Dunkel starren [05:17]
5. Es geht ein Laerm los [01:51]
6. Was willst du? Seht doch, dort! [02:30]
7. Die Goetter! bist doch selber eine Goettin [02:22]
8. Ich will nichts hoeren! [04:07]
9. Ich habe keine guten Naechte [05:58]
10. Wenn das rechte Blutopfer [04:29]
11. Was bluten muss? [02:04]
12. Was sagen sie ihr denn? [01:42]
CD2
1. Orest! Orest ist tot! [02:51]
2. Platz da! Wer lungert so vor einer Tuer [00:51]
3. Nun muss es hier von uns geschehn [01:45]
4. Du! Du! denn du bist stark! [04:10]
5. Nun denn, allein! [01:18]
6. Was willst du, fremder Mensch [05:48]
7. Elektra! Elektra [01:21]
8. Orest! [07:16]
9. Du wirst es tun Allein [01:25]
10. Seid ihr von Sinnen [01:32]
11. Ich habe ihm das Beil nicht geben koennen! [01:26]
12. Es muss etwas geschehen sein [00:56]
13. He! Lichter! Lichter! [04:38]
14. Elektra! Schwester [01:34]
15. Ob ich nich hoere [01:11]
16. Hoerst du denn nicht, sie tragen ihn [02:09]
17. Schweig, und tanze [03:22]
Исполнители:
Klytamnestra - Martha Modl
Elektra - Ingrid Steger
Chrysothemis - Marion Lippert
Aegisth - Wolfgang Windgassen
Orest - William Wildermann
Stuttgart State Opera Orchestra & Chorus
6 July 1971 (Live Recording)
Conductor - Carlos Kleiber

Лог создания рипа

CD 1
Exact Audio Copy V1.0 beta 3 from 29. August 2011
Отчёт EAC об извлечении, выполненном 27. августа 2014, 12:19
Carlos Kleiber / R. Strauss - Elektra (CD 1)
Дисковод: PIONEER BD-RW BDR-208D Adapter: 3 ID: 0
Режим чтения : Достоверность
Использование точного потока : Да
Отключение кэша аудио : Да
Использование указателей C2 : Нет
Коррекция смещения при чтении : 667
Способность читать области Lead-in и Lead-out : Нет
Заполнение пропущенных сэмплов тишиной : Да
Удаление блоков с тишиной в начале и конце : Нет
При вычислениях CRC использовались нулевые сэмплы : Да
Интерфейс : Встроенный Win32-интерфейс для Win NT/2000
Выходной формат : Пользовательский кодировщик
Выбранный битрейт : 768 kBit/s
Качество : Высокий
Добавление ID3-тега : Нет
Утилита сжатия : C:\Program Files (x86)\Exact Audio Copy\FLAC\FLAC.EXE
Дополнительные параметры : -6 -V -T "ARTIST=%artist%" -T "TITLE=%title%" -T "ALBUM=%albumtitle%" -T "DATE=%year%" -T "TRACKNUMBER=%tracknr%" -T "GENRE=%genre%" -T "COMMENT=%comment%" -T "BAND=%albuminterpret%" -T "ALBUMARTIST=%albuminterpret%" -T "COMPOSER=%composer%" %haslyrics%--tag-from-file=LYRICS="%lyricsfile%"%haslyrics% -T "DISCNUMBER=%cdnumber%" -T "TOTALDISCS=%totalcds%" -T "TOTALTRACKS=%numtracks%" %hascover%--picture="%coverfile%"%hascover% %source% -o %dest%
TOC извлечённого CD
Трек | Старт | Длительность | Начальный сектор | Конечный сектор
---------------------------------------------------------------------
1 | 0:00.00 | 5:39.05 | 0 | 25429
2 | 5:39.05 | 8:48.62 | 25430 | 65091
3 | 14:27.67 | 2:01.27 | 65092 | 74193
4 | 16:29.19 | 5:17.20 | 74194 | 97988
5 | 21:46.39 | 1:51.21 | 97989 | 106334
6 | 23:37.60 | 2:30.03 | 106335 | 117587
7 | 26:07.63 | 2:22.17 | 117588 | 128254
8 | 28:30.05 | 4:07.71 | 128255 | 146850
9 | 32:38.01 | 5:58.17 | 146851 | 173717
10 | 38:36.18 | 4:29.14 | 173718 | 193906
11 | 43:05.32 | 2:04.18 | 193907 | 203224
12 | 45:09.50 | 1:42.50 | 203225 | 210924
Характеристики диапазона извлечения и сообщения об ошибках
Выбранный диапазон
Имя файла C:\Users\user\Desktop\Carlos Kleiber - R. Strauss - Elektra (CD 1).wav
Пиковый уровень 59.4 %
Скорость извлечения 7.3 X
Качество диапазона 100.0 %
CRC теста D4CE7A33
CRC копии D4CE7A33
Копирование... OK
Ошибок не произошло
AccurateRip: сводка
Трек 1 отсутствует в базе данных
Трек 2 отсутствует в базе данных
Трек 3 отсутствует в базе данных
Трек 4 отсутствует в базе данных
Трек 5 отсутствует в базе данных
Трек 6 отсутствует в базе данных
Трек 7 отсутствует в базе данных
Трек 8 отсутствует в базе данных
Трек 9 отсутствует в базе данных
Трек 10 отсутствует в базе данных
Трек 11 отсутствует в базе данных
Трек 12 отсутствует в базе данных
Ни одного трека нет в базе AccurateRip
Конец отчёта
==== Контрольная сумма отчёта CF2B4DA9BA74181F3885BAF412BDE1763025EF856075A7F4A1D9E026D1D0C4F7 ====
CD 2
Exact Audio Copy V1.0 beta 3 from 29. August 2011
Отчёт EAC об извлечении, выполненном 27. августа 2014, 12:41
Carlos Kleiber / R. Strauss - Elektra (CD 2)
Дисковод: PIONEER BD-RW BDR-208D Adapter: 3 ID: 0
Режим чтения : Достоверность
Использование точного потока : Да
Отключение кэша аудио : Да
Использование указателей C2 : Нет
Коррекция смещения при чтении : 667
Способность читать области Lead-in и Lead-out : Нет
Заполнение пропущенных сэмплов тишиной : Да
Удаление блоков с тишиной в начале и конце : Нет
При вычислениях CRC использовались нулевые сэмплы : Да
Интерфейс : Встроенный Win32-интерфейс для Win NT/2000
Выходной формат : Пользовательский кодировщик
Выбранный битрейт : 768 kBit/s
Качество : Высокий
Добавление ID3-тега : Нет
Утилита сжатия : C:\Program Files (x86)\Exact Audio Copy\FLAC\FLAC.EXE
Дополнительные параметры : -6 -V -T "ARTIST=%artist%" -T "TITLE=%title%" -T "ALBUM=%albumtitle%" -T "DATE=%year%" -T "TRACKNUMBER=%tracknr%" -T "GENRE=%genre%" -T "COMMENT=%comment%" -T "BAND=%albuminterpret%" -T "ALBUMARTIST=%albuminterpret%" -T "COMPOSER=%composer%" %haslyrics%--tag-from-file=LYRICS="%lyricsfile%"%haslyrics% -T "DISCNUMBER=%cdnumber%" -T "TOTALDISCS=%totalcds%" -T "TOTALTRACKS=%numtracks%" %hascover%--picture="%coverfile%"%hascover% %source% -o %dest%
TOC извлечённого CD
Трек | Старт | Длительность | Начальный сектор | Конечный сектор
---------------------------------------------------------------------
1 | 0:00.00 | 2:45.56 | 0 | 12430
2 | 2:45.56 | 0:51.46 | 12431 | 16301
3 | 3:37.27 | 1:45.53 | 16302 | 24229
4 | 5:23.05 | 4:09.58 | 24230 | 42962
5 | 9:32.63 | 1:19.71 | 42963 | 48958
6 | 10:52.59 | 5:49.10 | 48959 | 75143
7 | 16:41.69 | 1:22.32 | 75144 | 81325
8 | 18:04.26 | 7:16.32 | 81326 | 114057
9 | 25:20.58 | 1:26.46 | 114058 | 120553
10 | 26:47.29 | 1:32.26 | 120554 | 127479
11 | 28:19.55 | 1:26.52 | 127480 | 133981
12 | 29:46.32 | 0:56.26 | 133982 | 138207
13 | 30:42.58 | 4:37.29 | 138208 | 159011
14 | 35:20.12 | 1:35.13 | 159012 | 166149
15 | 36:55.25 | 1:12.34 | 166150 | 171583
16 | 38:07.59 | 2:09.42 | 171584 | 181300
17 | 40:17.26 | 3:35.67 | 181301 | 197492
Характеристики диапазона извлечения и сообщения об ошибках
Выбранный диапазон
Имя файла C:\Users\user\Desktop\Carlos Kleiber - R. Strauss - Elektra (CD 2).wav
Пиковый уровень 51.4 %
Скорость извлечения 7.2 X
Качество диапазона 100.0 %
CRC теста F6BFBE6F
CRC копии F6BFBE6F
Копирование... OK
Ошибок не произошло
AccurateRip: сводка
Трек 1 отсутствует в базе данных
Трек 2 отсутствует в базе данных
Трек 3 отсутствует в базе данных
Трек 4 отсутствует в базе данных
Трек 5 отсутствует в базе данных
Трек 6 отсутствует в базе данных
Трек 7 отсутствует в базе данных
Трек 8 отсутствует в базе данных
Трек 9 отсутствует в базе данных
Трек 10 отсутствует в базе данных
Трек 11 отсутствует в базе данных
Трек 12 отсутствует в базе данных
Трек 13 отсутствует в базе данных
Трек 14 отсутствует в базе данных
Трек 15 отсутствует в базе данных
Трек 16 отсутствует в базе данных
Трек 17 отсутствует в базе данных
Ни одного трека нет в базе AccurateRip
Конец отчёта
==== Контрольная сумма отчёта A2EE52B231C31835CCEA487297FD31BCB03D284CB59A03725E28A161D171C85D ====
Доп. информация: Внимание! Качество звука в данной записи отражает плохие условия, при которых она была сделана. Поэтому данная раздача будет интересна в первую очередь тем, кто сможет по достоинству оценить документальную значимость этой записи.



Показать сообщения:    

Текущее время: 11-Дек 01:28

Часовой пояс: UTC + 3


Вы не можете начинать темы
Вы не можете отвечать на сообщения
Вы не можете редактировать свои сообщения
Вы не можете удалять свои сообщения
Вы не можете голосовать в опросах
Вы не можете прикреплять файлы к сообщениям
Вы не можете скачивать файлы