(Opera) Donizetti - Anna Bolena (Callas, Simionato, Rossi Lemeni, Raimondi, Clabassi - Orchestra del Teatro alla Scala, Gavazzeni) - 2006, APE (image+.cue) lossless


 

[Цитировать]

Gaetano Donizetti - Anna Bolena
Жанр: Opera
Страна-производитель диска: Italy
Год издания диска: 2006
Издатель (лейбл): Myto
Номер по каталогу: 064.H121
Дата записи: 1957
Аудиокодек: APE
Тип рипа: image+.cue
Битрейт аудио: lossless
Продолжительность: 77'27 + 73'02
Источник: собственный рип
Наличие сканов в содержимом раздачи: да
Треклист:

CD1

1. Ne venne il Re?
2. Ella di me sollecita
3. Si taciturna e mesta
4. Deh! non voler costringere
5. Come, innocente giovine
6. Ma poche omai rimangono
7. Non vha sguardo
8. Oh! qual parlar fu il suo!
9. Tremate voi?
10. Fama!
11. Anna pur amor moffria
12. Tu mi lasci?
13. Chi veggo?
14. Da quel di che
15. Ah! cosi nedi ridenti
16. Desta si tosto
17. Io senti sulla mia mano
18. Or che reso ai patri lidi
19. Questo di per noi spuntato
20. Tutto e deserto
21. Cessa
22. Eccolo!
23. Meco oblia di sposo ingrato
24. Arresta!
25. Tace ognuno
26. In quegli sguardi impresso
27. Giudici

CD2

1. Oh! dove mai ne andarona
2. Regina!
3. Dio che mi vedi in core
4. Sul suo capo aggravi un Dio
5. Dal mio cor punita io sono
6. Va, infelice, e teco reca
7. Ebben?
8. Scostatevi
9. Saro fra poco innanzi a tribunal
10. Fin dalleta piu tenera
11. Salira dInghilterra sul trono
12. Sposa a Percy pria che ad Enrico
13. Per questa fiamma indomita
14. I pari unanimi sciolsero i regi nodi
15. Ah! pensate che rivolti
16. Chi puo vederla a ciglio asciutto
17. Piangete voi?
18. Al dolce guidami
19. Qual mesto suon?
20. Cielo, am miei lunghi spasimi
21. Coppia iniqua, lestrema vendetta
Исполнители:
Gaetano Donizetti - Anna Bolena
Anna Bolena - Maria Callas
Giovanna Seymour - Giulietta Simionato
Enrico VIII - Nicola Rossi Lemeni
Lord Riccardo Persy - Gianni Raimondi
Smeton - Gabriella Carturan
Sir Hervey - Luigi Rumbo
Lord Rochefort - Plinio Clabassi
Orchestra e Coro del Teatro alla Scala
Maestro del Coro - Norberto Mola
Gianandrea Gavazzeni

Лог создания рипа

CD1

Exact Audio Copy V1.0 beta 3 from 29. August 2011
EAC extraction logfile from 25. August 2014, 18:19
Donizetti / Anna Bolena, Gavazzeni (Callas) CD1
Used drive : TS8XDVDSTRANSCEND Adapter: 1 ID: 1
Read mode : Secure
Utilize accurate stream : Yes
Defeat audio cache : Yes
Make use of C2 pointers : No
Read offset correction : 6
Overread into Lead-In and Lead-Out : No
Fill up missing offset samples with silence : Yes
Delete leading and trailing silent blocks : No
Null samples used in CRC calculations : Yes
Used interface : Native Win32 interface for Win NT & 2000
Used output format : Monkey's Audio Lossless Encoder
Selected bitrate : High Lossless Compression
Quality : High
Add ID3 tag : No
Command line compressor : C:\Program Files (x86)\Exact Audio Copy\MAC\MAC.exe
TOC of the extracted CD
Track | Start | Length | Start sector | End sector
---------------------------------------------------------
1 | 0:00.00 | 3:10.63 | 0 | 14312
2 | 3:10.63 | 2:02.01 | 14313 | 23463
3 | 5:12.64 | 1:41.04 | 23464 | 31042
4 | 6:53.68 | 1:44.25 | 31043 | 38867
5 | 8:38.18 | 1:46.23 | 38868 | 46840
6 | 10:24.41 | 0:40.31 | 46841 | 49871
7 | 11:04.72 | 2:08.54 | 49872 | 59525
8 | 13:13.51 | 2:25.55 | 59526 | 70455
9 | 15:39.31 | 1:44.18 | 70456 | 78273
10 | 17:23.49 | 2:46.28 | 78274 | 90751
11 | 20:10.02 | 2:08.44 | 90752 | 100395
12 | 22:18.46 | 3:28.50 | 100396 | 116045
13 | 25:47.21 | 3:01.43 | 116046 | 129663
14 | 28:48.64 | 2:00.57 | 129664 | 138720
15 | 30:49.46 | 1:36.71 | 138721 | 145991
16 | 32:26.42 | 3:38.07 | 145992 | 162348
17 | 36:04.49 | 2:46.21 | 162349 | 174819
18 | 38:50.70 | 1:26.36 | 174820 | 181305
19 | 40:17.31 | 2:23.48 | 181306 | 192078
20 | 42:41.04 | 3:33.17 | 192079 | 208070
21 | 46:14.21 | 2:14.53 | 208071 | 218173
22 | 48:28.74 | 3:15.41 | 218174 | 232839
23 | 51:44.40 | 4:23.04 | 232840 | 252568
24 | 56:07.44 | 1:02.11 | 252569 | 257229
25 | 57:09.55 | 2:12.02 | 257230 | 267131
26 | 59:21.57 | 4:55.41 | 267132 | 289297
27 | 64:17.23 | 3:09.20 | 289298 | 303492
Range status and errors
Selected range
Filename D:\EAC\Donizetti - Anna Bolena, Gavazzeni (Callas) CD1.wav
Peak level 100.0 %
Extraction speed 3.1 X
Range quality 100.0 %
Test CRC D76F4B77
Copy CRC D76F4B77
Copy OK
No errors occurred
AccurateRip summary
Track 1 cannot be verified as accurate (confidence 2) [983E1EAF], AccurateRip returned [2DD94FFD] (AR v2)
Track 2 cannot be verified as accurate (confidence 2) [BB40A0C1], AccurateRip returned [ECDC5744] (AR v2)
Track 3 accurately ripped (confidence 1) [77C8EF88] (AR v1)
Track 4 accurately ripped (confidence 1) [1E9BA103] (AR v1)
Track 5 accurately ripped (confidence 1) [C3E338D9] (AR v1)
Track 6 accurately ripped (confidence 1) [24193343] (AR v1)
Track 7 accurately ripped (confidence 1) [A91A659E] (AR v1)
Track 8 accurately ripped (confidence 1) [CD6C2CF9] (AR v1)
Track 9 accurately ripped (confidence 1) [8B3F33A4] (AR v1)
Track 10 accurately ripped (confidence 1) [F0ACA8C5] (AR v1)
Track 11 accurately ripped (confidence 1) [9187103A] (AR v1)
Track 12 accurately ripped (confidence 1) [99CACF39] (AR v1)
Track 13 accurately ripped (confidence 1) [5BC256B4] (AR v1)
Track 14 accurately ripped (confidence 1) [0A07CD45] (AR v1)
Track 15 accurately ripped (confidence 1) [76C6EFB8] (AR v1)
Track 16 accurately ripped (confidence 1) [1B5050AA] (AR v1)
Track 17 accurately ripped (confidence 1) [1D2AB9B2] (AR v1)
Track 18 accurately ripped (confidence 1) [317EAB11] (AR v1)
Track 19 accurately ripped (confidence 1) [3B17192E] (AR v1)
Track 20 accurately ripped (confidence 1) [F57E27DC] (AR v1)
Track 21 accurately ripped (confidence 1) [D6633043] (AR v1)
Track 22 accurately ripped (confidence 1) [D1E3CA7F] (AR v1)
Track 23 accurately ripped (confidence 1) [71BCEFF0] (AR v1)
Track 24 accurately ripped (confidence 1) [C1B819BA] (AR v1)
Track 25 accurately ripped (confidence 1) [EDEB9EE8] (AR v1)
Track 26 accurately ripped (confidence 1) [C6E52CEE] (AR v1)
Track 27 accurately ripped (confidence 1) [85A064DF] (AR v1)
25 track(s) accurately ripped
2 track(s) could not be verified as accurate
Some tracks could not be verified as accurate
End of status report
---- CUETools DB Plugin V2.1.3
[CTDB TOCID: l3eR3pkPJ0TVxnfzE4MbdLAUxHE-] found, Submit result: unrecognized or virtual drive
[d4c2a8db] (1/1) Accurately ripped
==== Log checksum 71AB8B130E0C5BE2E1C834D1FF2C17CEF96D16B5D6748C2E0DC0810BC298933C ====

CD2

Exact Audio Copy V1.0 beta 3 from 29. August 2011
EAC extraction logfile from 25. August 2014, 18:03
Donizetti / Anna Bolena, Gavazzeni (Callas) CD2
Used drive : TSSTcorpCDDVDW SE-208AB Adapter: 1 ID: 0
Read mode : Secure
Utilize accurate stream : Yes
Defeat audio cache : Yes
Make use of C2 pointers : No
Read offset correction : 6
Overread into Lead-In and Lead-Out : No
Fill up missing offset samples with silence : Yes
Delete leading and trailing silent blocks : No
Null samples used in CRC calculations : Yes
Used interface : Native Win32 interface for Win NT & 2000
Used output format : Monkey's Audio Lossless Encoder
Selected bitrate : High Lossless Compression
Quality : High
Add ID3 tag : No
Command line compressor : C:\Program Files (x86)\Exact Audio Copy\MAC\MAC.exe
TOC of the extracted CD
Track | Start | Length | Start sector | End sector
---------------------------------------------------------
1 | 0:00.00 | 4:25.67 | 0 | 19941
2 | 4:25.67 | 1:29.08 | 19942 | 26624
3 | 5:55.00 | 5:36.68 | 26625 | 51892
4 | 11:31.68 | 2:44.14 | 51893 | 64206
5 | 14:16.07 | 2:12.24 | 64207 | 74130
6 | 16:28.31 | 3:42.01 | 74131 | 90781
7 | 20:10.32 | 5:10.14 | 90782 | 114045
8 | 25:20.46 | 2:25.70 | 114046 | 124990
9 | 27:46.41 | 2:31.20 | 124991 | 136335
10 | 30:17.61 | 2:28.47 | 136336 | 147482
11 | 32:46.33 | 1:17.52 | 147483 | 153309
12 | 34:04.10 | 3:50.53 | 153310 | 170612
13 | 37:54.63 | 2:36.66 | 170613 | 182378
14 | 40:31.54 | 0:50.24 | 182379 | 186152
15 | 41:22.03 | 2:47.43 | 186153 | 198720
16 | 44:09.46 | 7:24.26 | 198721 | 232046
17 | 51:33.72 | 4:50.67 | 232047 | 253863
18 | 56:24.64 | 4:56.04 | 253864 | 276067
19 | 61:20.68 | 4:11.21 | 276068 | 294913
20 | 65:32.14 | 3:16.55 | 294914 | 309668
21 | 68:48.69 | 4:13.50 | 309669 | 328693
Range status and errors
Selected range
Filename D:\EAC\Donizetti - Anna Bolena, Gavazzeni (Callas) CD2.wav
Peak level 61.0 %
Extraction speed 5.0 X
Range quality 100.0 %
Test CRC 01B4DEC8
Copy CRC 01B4DEC8
Copy OK
No errors occurred
AccurateRip summary
Track 1 accurately ripped (confidence 1) [6CB3A64F] (AR v1)
Track 2 accurately ripped (confidence 1) [6FE9B5E8] (AR v1)
Track 3 accurately ripped (confidence 1) [6F0D6933] (AR v1)
Track 4 accurately ripped (confidence 1) [B364F80C] (AR v1)
Track 5 accurately ripped (confidence 1) [CCC8E832] (AR v1)
Track 6 accurately ripped (confidence 1) [335D10ED] (AR v1)
Track 7 accurately ripped (confidence 1) [004D6618] (AR v1)
Track 8 accurately ripped (confidence 1) [4A38085B] (AR v1)
Track 9 accurately ripped (confidence 1) [2F318DA6] (AR v1)
Track 10 accurately ripped (confidence 1) [74E5BE6E] (AR v1)
Track 11 accurately ripped (confidence 1) [3C104A3E] (AR v1)
Track 12 accurately ripped (confidence 1) [CC152505] (AR v1)
Track 13 accurately ripped (confidence 1) [7DFEDAC3] (AR v1)
Track 14 accurately ripped (confidence 1) [03A028F5] (AR v1)
Track 15 accurately ripped (confidence 1) [6CE25640] (AR v1)
Track 16 accurately ripped (confidence 1) [2E5AE2DE] (AR v1)
Track 17 accurately ripped (confidence 1) [999169F8] (AR v1)
Track 18 accurately ripped (confidence 1) [95613984] (AR v1)
Track 19 accurately ripped (confidence 1) [362F73E5] (AR v1)
Track 20 accurately ripped (confidence 1) [B0AA9377] (AR v1)
Track 21 accurately ripped (confidence 1) [4225E951] (AR v1)
All tracks accurately ripped
End of status report
---- CUETools DB Plugin V2.1.3
[CTDB TOCID: FV1QEXOJfPY8spWP9fLi_ud.qcs-] found, Submit result: FV1QEXOJfPY8spWP9fLi_ud.qcs- has been uploaded
[9ae1c1f3] (1/1) No match
==== Log checksum FA59B8005D3B81EFFBE2A81C278FD60A7F2BFBC903747DDD7E2210536FAE0667 ====

Содержание индексной карты (.CUE)

CD1

REM GENRE Opera
REM DATE 1957
REM DISCID 750FCE1B
REM COMMENT "ExactAudioCopy v1.0b3"
PERFORMER "Donizetti"
TITLE "Anna Bolena, Gavazzeni (Callas) CD1"
FILE "Donizetti - Anna Bolena, Gavazzeni (Callas) CD1.ape" WAVE
TRACK 01 AUDIO
TITLE "Ne vene il Re?"
PERFORMER "Donizetti"
INDEX 01 00:00:00
TRACK 02 AUDIO
TITLE "Ella di me sollecita"
PERFORMER "Donizetti"
INDEX 01 03:10:63
TRACK 03 AUDIO
TITLE "Si tacituna e mesta"
PERFORMER "Donizetti"
INDEX 01 05:12:64
TRACK 04 AUDIO
TITLE "Deh! non voler costringere"
PERFORMER "Donizetti"
INDEX 01 06:53:68
TRACK 05 AUDIO
TITLE "Come, innocente giovine"
PERFORMER "Donizetti"
INDEX 01 08:38:18
TRACK 06 AUDIO
TITLE "Ma poche omai rimangono"
PERFORMER "Donizetti"
INDEX 01 10:24:41
TRACK 07 AUDIO
TITLE "Non v'ha sguardo"
PERFORMER "Donizetti"
INDEX 01 11:04:72
TRACK 08 AUDIO
TITLE "Oh! qual parlar fu il suo!"
PERFORMER "Donizetti"
INDEX 01 13:13:51
TRACK 09 AUDIO
TITLE "Tremate voi?..."
PERFORMER "Donizetti"
INDEX 01 15:39:31
TRACK 10 AUDIO
TITLE "Fama! Si: l'avrete"
PERFORMER "Donizetti"
INDEX 01 17:23:49
TRACK 11 AUDIO
TITLE "Anna pur amor m'offria"
PERFORMER "Donizetti"
INDEX 01 20:10:02
TRACK 12 AUDIO
TITLE "Tu mi lasci?"
PERFORMER "Donizetti"
INDEX 01 22:18:46
TRACK 13 AUDIO
TITLE "Chi veggo?... In Inghilterra"
PERFORMER "Donizetti"
INDEX 01 25:47:21
TRACK 14 AUDIO
TITLE "Da quel di che, lei perduta"
PERFORMER "Donizetti"
INDEX 01 28:48:64
TRACK 15 AUDIO
TITLE "Ah! cosi ne' di ridenti"
PERFORMER "Donizetti"
INDEX 01 30:49:46
TRACK 16 AUDIO
TITLE "Desta si tosto"
PERFORMER "Donizetti"
INDEX 01 32:26:42
TRACK 17 AUDIO
TITLE "Io sentii sulla mia mano"
PERFORMER "Donizetti"
INDEX 01 36:04:49
TRACK 18 AUDIO
TITLE "Or che reso ai patrii lidi"
PERFORMER "Donizetti"
INDEX 01 38:50:70
TRACK 19 AUDIO
TITLE "Questo di per noi spuntato"
PERFORMER "Donizetti"
INDEX 01 40:17:31
TRACK 20 AUDIO
TITLE "Tutto e deserto..."
PERFORMER "Donizetti"
INDEX 01 42:41:04
TRACK 21 AUDIO
TITLE "Cessa... tropp'oltre vai..."
PERFORMER "Donizetti"
INDEX 01 46:14:21
TRACK 22 AUDIO
TITLE "Eccolo!... io tremo!... io gelo!..."
PERFORMER "Donizetti"
INDEX 01 48:28:74
TRACK 23 AUDIO
TITLE "Meco oblia di sposo ingrato"
PERFORMER "Donizetti"
INDEX 01 51:44:40
TRACK 24 AUDIO
TITLE "Arresta!"
PERFORMER "Donizetti"
INDEX 01 56:07:44
TRACK 25 AUDIO
TITLE "Tace ognuno, e ognun tremante!"
PERFORMER "Donizetti"
INDEX 01 57:09:55
TRACK 26 AUDIO
TITLE "In quegli sguardi impresso"
PERFORMER "Donizetti"
INDEX 01 59:21:57
TRACK 27 AUDIO
TITLE "Giudici... ad Anna!!... Ah! segnata"
PERFORMER "Donizetti"
INDEX 01 64:17:23

CD2

REM GENRE Opera
REM DATE 1957
REM DISCID 46111E15
REM COMMENT "ExactAudioCopy v1.0b3"
PERFORMER "Donizetti"
TITLE "Anna Bolena, Gavazzeni (Callas) CD2"
FILE "Donizetti - Anna Bolena, Gavazzeni (Callas) CD2.ape" WAVE
TRACK 01 AUDIO
TITLE "Oh! dove mai ne andarona"
PERFORMER "Donizetti"
INDEX 01 00:00:00
TRACK 02 AUDIO
TITLE "Regina! - Duolmi l'amaro incarco"
PERFORMER "Donizetti"
INDEX 01 04:25:67
TRACK 03 AUDIO
TITLE "Dio che mi vedi in core"
PERFORMER "Donizetti"
INDEX 01 05:55:00
TRACK 04 AUDIO
TITLE "Sul suo capo aggravi un Dio"
PERFORMER "Donizetti"
INDEX 01 11:31:68
TRACK 05 AUDIO
TITLE "Dal mio cor punita io sono"
PERFORMER "Donizetti"
INDEX 01 14:16:07
TRACK 06 AUDIO
TITLE "Va', infelice, e teco reca"
PERFORMER "Donizetti"
INDEX 01 16:28:31
TRACK 07 AUDIO
TITLE "Ebben? dinanzi ai giudici"
PERFORMER "Donizetti"
INDEX 01 20:10:32
TRACK 08 AUDIO
TITLE "Scostavevi - il Re giunge"
PERFORMER "Donizetti"
INDEX 01 25:20:46
TRACK 09 AUDIO
TITLE "Saro fra poco innanzi a tribunal"
PERFORMER "Donizetti"
INDEX 01 27:46:41
TRACK 10 AUDIO
TITLE "Fin dall'eta piu tenera"
PERFORMER "Donizetti"
INDEX 01 30:17:61
TRACK 11 AUDIO
TITLE "Salira d'Inghilterra sul trono"
PERFORMER "Donizetti"
INDEX 01 32:46:33
TRACK 12 AUDIO
TITLE "Sposa a Percy pria che ad Enrico"
PERFORMER "Donizetti"
INDEX 01 34:04:10
TRACK 13 AUDIO
TITLE "Per questa fiamma indomita"
PERFORMER "Donizetti"
INDEX 01 37:54:63
TRACK 14 AUDIO
TITLE "I Pari unanimi sciolsero i regi nadi"
PERFORMER "Donizetti"
INDEX 01 40:31:54
TRACK 15 AUDIO
TITLE "Ah! pensate chi rivolti"
PERFORMER "Donizetti"
INDEX 01 41:22:03
TRACK 16 AUDIO
TITLE "Chi puo vederla a ciglio asciutto"
PERFORMER "Donizetti"
INDEX 01 44:09:46
TRACK 17 AUDIO
TITLE "Piangete voi? dende tal pianto?"
PERFORMER "Donizetti"
INDEX 01 51:33:72
TRACK 18 AUDIO
TITLE "Al dolce guidami"
PERFORMER "Donizetti"
INDEX 01 56:24:64
TRACK 19 AUDIO
TITLE "Qual mesto suon?"
PERFORMER "Donizetti"
INDEX 01 61:20:68
TRACK 20 AUDIO
TITLE "Cielo: a' miei lunghi spasimi"
PERFORMER "Donizetti"
INDEX 01 65:32:14
TRACK 21 AUDIO
TITLE "Coppia iniqua, l'estrema vendetta"
PERFORMER "Donizetti"
INDEX 01 68:48:69



Показать сообщения:    

Текущее время: 03-Дек 14:33

Часовой пояс: UTC + 3


Вы не можете начинать темы
Вы не можете отвечать на сообщения
Вы не можете редактировать свои сообщения
Вы не можете удалять свои сообщения
Вы не можете голосовать в опросах
Вы не можете прикреплять файлы к сообщениям
Вы не можете скачивать файлы