(Opera) Donizetti - Anna Bolena (Gencer, Simionato, Clabassi, Bertocci - RAI Orchestra Sinfonica, Gavazzeni) - 1998, APE (image+.cue) lossless


 

[Цитировать]

Gaetano Donizetti - Anna Bolena
Жанр: Opera
Страна-производитель диска: EU
Год издания диска: 1998
Издатель (лейбл): Opera D'Oro
Номер по каталогу: OPD 1148
Дата записи: 1958
Аудиокодек: APE
Тип рипа: image+.cue
Битрейт аудио: lossless
Продолжительность: 64'57 + 77'29
Источник: собственный рип
Наличие сканов в содержимом раздачи: да
Треклист:

CD1

1. Act 1 - Ne venne il Re?
2. Act 1 - Elle di me sollecita
3. Act 1 - Si taciturna e mesta
4. Act 1 - Deh! Non voler costringere
5. Act 1 - Come innocente giovane
6. Act 1 - Non v'ha sguardo cui sia dato
7. Act 1 - Oh, qual parlar fu il suo!
8. Act 1 - La mia fama e a pie dell'ara
9. Act 1 - Ah! Qual sia cercar non oso
10. Act 1 - Chi veggo?
11. Act 1 - Da quel di che, lei perduta
12. Act 1 - Ah! Cosi nei di ridenti
13. Act 1 - Desta, si tosto
14. Act 1 - Lo sentii sulla mia mano
15. Act 1 - Or che reso ai patrii lidi
16. Act 1 - Questo di per noi spintato
17. Act 1 - Tutto e deserto
18. Act 1 - Bada, bada... Tropp'oltre vai
19. Act 1 - S'ei t'abborre, io t'amo ancora
20. Act 1 - Per pieta del mio spavento
21. Act 1 - Parti! Alcun potria ascoltarti!
22. Act 1 - Tace ognuno : In separato carcere

CD2

1. Act 2. Oh! Dove mai ne andarono
2. Act 2. Dio, che mi vedi in core
3. Act 2. Al par del mio
4. Act 2. Va, infelice
5. Act 2. Ebben? Dinanzi ai giudici
6. Act 2. Scostatevi... il Re giunge...
7. Act 2. Al consiglio sien tratti
8. Act 2. Sposa a Percy
9. Act 2. Per questa fiamma indomita
10. Act 2. Stolta! Non sai...
11. Act 2. Ah! pensate che rivolti
12. Act 2. Chi puo vederla a ciglio asciutto
13. Act 2. Piangete voi?
14. Act 2. Al dolce guidami
15. Act 2. Qual mesto suon?
16. Act 2. Cielo, a'miei lunghi spasimi
Исполнители:
Gaetano Donizetti - Anna Bolena
Anna Bolena - Leyla Gencer
Giovanna - Giulietta Simionato
Enrico - Plinio Clabassi
Percy - Aldo Bertocci
Rochefort - Silvio Maionica
Smeton - Anna Maria Rota
Hervey - Mario Carlin
Conductor - Gianandrea Gavazzeni
Orchestra - RAI Milano
Chorus - RAI Milano

Лог создания рипа

CD1

Exact Audio Copy V1.0 beta 3 from 29. August 2011
EAC extraction logfile from 25. August 2014, 17:26
Donizetti / Anna Bolena, Gavazzeni CD1
Used drive : TS8XDVDSTRANSCEND Adapter: 1 ID: 1
Read mode : Secure
Utilize accurate stream : Yes
Defeat audio cache : Yes
Make use of C2 pointers : No
Read offset correction : 6
Overread into Lead-In and Lead-Out : No
Fill up missing offset samples with silence : Yes
Delete leading and trailing silent blocks : No
Null samples used in CRC calculations : Yes
Used interface : Native Win32 interface for Win NT & 2000
Used output format : Monkey's Audio Lossless Encoder
Selected bitrate : High Lossless Compression
Quality : High
Add ID3 tag : No
Command line compressor : C:\Program Files (x86)\Exact Audio Copy\MAC\MAC.exe
TOC of the extracted CD
Track | Start | Length | Start sector | End sector
---------------------------------------------------------
1 | 0:00.00 | 3:30.30 | 0 | 15779
2 | 3:30.30 | 1:34.00 | 15780 | 22829
3 | 5:04.30 | 2:10.42 | 22830 | 32621
4 | 7:14.72 | 1:48.23 | 32622 | 40744
5 | 9:03.20 | 2:26.35 | 40745 | 51729
6 | 11:29.55 | 2:02.07 | 51730 | 60886
7 | 13:31.62 | 4:28.03 | 60887 | 80989
8 | 17:59.65 | 5:01.00 | 80990 | 103564
9 | 23:00.65 | 2:14.40 | 103565 | 113654
10 | 25:15.30 | 3:08.22 | 113655 | 127776
11 | 28:23.52 | 1:59.38 | 127777 | 136739
12 | 30:23.15 | 1:26.22 | 136740 | 143211
13 | 31:49.37 | 3:17.48 | 143212 | 158034
14 | 35:07.10 | 2:31.27 | 158035 | 169386
15 | 37:38.37 | 3:32.13 | 169387 | 185299
16 | 41:10.50 | 3:47.17 | 185300 | 202341
17 | 44:57.67 | 4:42.63 | 202342 | 223554
18 | 49:40.55 | 2:46.25 | 223555 | 236029
19 | 52:27.05 | 1:07.02 | 236030 | 241056
20 | 53:34.07 | 1:44.23 | 241057 | 248879
21 | 55:18.30 | 5:52.60 | 248880 | 275339
22 | 61:11.15 | 3:45.35 | 275340 | 292249
Range status and errors
Selected range
Filename D:\EAC\Donizetti - Anna Bolena, Gavazzeni CD1.wav
Peak level 71.8 %
Extraction speed 3.2 X
Range quality 99.9 %
Test CRC 0837D5F5
Copy CRC 0837D5F5
Copy OK
No errors occurred
AccurateRip summary
Track 1 accurately ripped (confidence 1) [215FA219] (AR v1)
Track 2 accurately ripped (confidence 1) [18FF371D] (AR v1)
Track 3 accurately ripped (confidence 1) [E9EE9A5A] (AR v1)
Track 4 accurately ripped (confidence 1) [265716A0] (AR v1)
Track 5 accurately ripped (confidence 1) [14F6FF05] (AR v1)
Track 6 accurately ripped (confidence 1) [E8F7409C] (AR v1)
Track 7 accurately ripped (confidence 1) [4F79137E] (AR v1)
Track 8 accurately ripped (confidence 1) [18D97336] (AR v1)
Track 9 accurately ripped (confidence 1) [62C41D02] (AR v1)
Track 10 accurately ripped (confidence 1) [93B3C0AB] (AR v1)
Track 11 accurately ripped (confidence 1) [97B71435] (AR v1)
Track 12 accurately ripped (confidence 1) [A77F2B27] (AR v1)
Track 13 accurately ripped (confidence 1) [D21EB088] (AR v1)
Track 14 accurately ripped (confidence 1) [EC7D4BCD] (AR v1)
Track 15 accurately ripped (confidence 1) [6C79EAFF] (AR v1)
Track 16 accurately ripped (confidence 1) [8CF2543E] (AR v1)
Track 17 accurately ripped (confidence 1) [39D1F771] (AR v1)
Track 18 accurately ripped (confidence 1) [D9714AE7] (AR v1)
Track 19 accurately ripped (confidence 1) [43A1C286] (AR v1)
Track 20 accurately ripped (confidence 1) [7BBFE033] (AR v1)
Track 21 accurately ripped (confidence 1) [29F3563F] (AR v1)
Track 22 accurately ripped (confidence 1) [86F3E7BC] (AR v1)
All tracks accurately ripped
End of status report
---- CUETools DB Plugin V2.1.3
[CTDB TOCID: sNc3NQLL5Eb49pRjDHA7tgni.rw-] disk not present in database, Submit result: unrecognized or virtual drive
==== Log checksum 9EE507BBEA7FDBEC1AEBAF101EB664F2D6F5A402384C1FD0AA98B3F253781D0A ====

CD2

Exact Audio Copy V1.0 beta 3 from 29. August 2011
EAC extraction logfile from 25. August 2014, 17:10
Donizetti / Anna Bolena, Gavazzeni CD2
Used drive : TSSTcorpCDDVDW SE-208AB Adapter: 1 ID: 0
Read mode : Secure
Utilize accurate stream : Yes
Defeat audio cache : Yes
Make use of C2 pointers : No
Read offset correction : 6
Overread into Lead-In and Lead-Out : No
Fill up missing offset samples with silence : Yes
Delete leading and trailing silent blocks : No
Null samples used in CRC calculations : Yes
Used interface : Native Win32 interface for Win NT & 2000
Used output format : Monkey's Audio Lossless Encoder
Selected bitrate : High Lossless Compression
Quality : High
Add ID3 tag : No
Command line compressor : C:\Program Files (x86)\Exact Audio Copy\MAC\MAC.exe
TOC of the extracted CD
Track | Start | Length | Start sector | End sector
---------------------------------------------------------
1 | 0:00.00 | 6:29.07 | 0 | 29181
2 | 6:29.07 | 5:28.43 | 29182 | 53824
3 | 11:57.50 | 4:38.05 | 53825 | 74679
4 | 16:35.55 | 2:43.40 | 74680 | 86944
5 | 19:19.20 | 5:26.12 | 86945 | 111406
6 | 24:45.32 | 6:52.18 | 111407 | 142324
7 | 31:37.50 | 1:34.62 | 142325 | 149436
8 | 33:12.37 | 3:27.68 | 149437 | 165029
9 | 36:40.30 | 2:09.22 | 165030 | 174726
10 | 38:49.52 | 1:15.40 | 174727 | 180391
11 | 40:05.17 | 1:44.33 | 180392 | 188224
12 | 41:49.50 | 6:50.40 | 188225 | 219014
13 | 48:40.15 | 4:22.05 | 219015 | 238669
14 | 53:02.20 | 4:19.07 | 238670 | 258101
15 | 57:21.27 | 4:09.00 | 258102 | 276776
16 | 61:30.27 | 5:58.73 | 276777 | 303699
Range status and errors
Selected range
Filename D:\EAC\Donizetti - Anna Bolena, Gavazzeni CD2.wav
Peak level 56.9 %
Extraction speed 5.1 X
Range quality 100.0 %
Test CRC 939E45FA
Copy CRC 939E45FA
Copy OK
No errors occurred
AccurateRip summary
Track 1 accurately ripped (confidence 1) [7AC0D3DF] (AR v1)
Track 2 accurately ripped (confidence 1) [B71C6E70] (AR v1)
Track 3 accurately ripped (confidence 1) [B3271CDB] (AR v1)
Track 4 accurately ripped (confidence 1) [D36E7BB0] (AR v1)
Track 5 accurately ripped (confidence 1) [8BA57AD8] (AR v1)
Track 6 accurately ripped (confidence 1) [D710483A] (AR v1)
Track 7 accurately ripped (confidence 1) [C8294BD1] (AR v1)
Track 8 accurately ripped (confidence 1) [424FFC82] (AR v1)
Track 9 accurately ripped (confidence 1) [ACA5A444] (AR v1)
Track 10 accurately ripped (confidence 1) [A0256573] (AR v1)
Track 11 accurately ripped (confidence 1) [C58A9BB1] (AR v1)
Track 12 accurately ripped (confidence 1) [E2CC6A92] (AR v1)
Track 13 accurately ripped (confidence 1) [319E269F] (AR v1)
Track 14 accurately ripped (confidence 1) [2C7EE827] (AR v1)
Track 15 accurately ripped (confidence 1) [DE3A7CCA] (AR v1)
Track 16 accurately ripped (confidence 1) [D2DD12BB] (AR v1)
All tracks accurately ripped
End of status report
---- CUETools DB Plugin V2.1.3
[CTDB TOCID: Gkl6MiiuWAZ.PFqJAGFGQVKHA1Q-] found, Submit result: Gkl6MiiuWAZ.PFqJAGFGQVKHA1Q- has been uploaded
[4afb2a20] (1/1) No match
==== Log checksum 24B7E7E2BD8491A51100CBDB1488F8D56677AA224C6733ED0B1F26E3BF63B88A ====

Содержание индексной карты (.CUE)

CD1

REM GENRE Opera
REM DATE 1958
REM DISCID 230F3816
REM COMMENT "ExactAudioCopy v1.0b3"
PERFORMER "Donizetti"
TITLE "Anna Bolena, Gavazzeni CD1"
FILE "Donizetti - Anna Bolena, Gavazzeni CD1.ape" WAVE
TRACK 01 AUDIO
TITLE "Act 1 - Ne venne il Re?"
PERFORMER "Donizetti"
INDEX 01 00:00:00
TRACK 02 AUDIO
TITLE "Act 1 - Elle di me sollecita"
PERFORMER "Donizetti"
INDEX 01 03:30:30
TRACK 03 AUDIO
TITLE "Act 1 - Si taciturna e mesta"
PERFORMER "Donizetti"
INDEX 01 05:04:30
TRACK 04 AUDIO
TITLE "Act 1 - Deh! Non voler costringere"
PERFORMER "Donizetti"
INDEX 01 07:14:72
TRACK 05 AUDIO
TITLE "Act 1 - Come innocente giovane"
PERFORMER "Donizetti"
INDEX 01 09:03:20
TRACK 06 AUDIO
TITLE "Act 1 - Non v'ha sguardo cui sia dato"
PERFORMER "Donizetti"
INDEX 01 11:29:55
TRACK 07 AUDIO
TITLE "Act 1 - Oh, qual parlar fu il suo!"
PERFORMER "Donizetti"
INDEX 01 13:31:62
TRACK 08 AUDIO
TITLE "Act 1 - La mia fama e a pie dell'ara"
PERFORMER "Donizetti"
INDEX 01 17:59:65
TRACK 09 AUDIO
TITLE "Act 1 - Ah! Qual sia cercar non oso"
PERFORMER "Donizetti"
INDEX 01 23:00:65
TRACK 10 AUDIO
TITLE "Act 1 - Chi veggo?"
PERFORMER "Donizetti"
INDEX 01 25:15:30
TRACK 11 AUDIO
TITLE "Act 1 - Da quel di che, lei perduta"
PERFORMER "Donizetti"
INDEX 01 28:23:52
TRACK 12 AUDIO
TITLE "Act 1 - Ah! Cosi nei di ridenti"
PERFORMER "Donizetti"
INDEX 01 30:23:15
TRACK 13 AUDIO
TITLE "Act 1 - Desta, si tosto"
PERFORMER "Donizetti"
INDEX 01 31:49:37
TRACK 14 AUDIO
TITLE "Act 1 - Lo sentii sulla mia mano"
PERFORMER "Donizetti"
INDEX 01 35:07:10
TRACK 15 AUDIO
TITLE "Act 1 - Or che reso ai patrii lidi"
PERFORMER "Donizetti"
INDEX 01 37:38:37
TRACK 16 AUDIO
TITLE "Act 1 - Questo di per noi spintato"
PERFORMER "Donizetti"
INDEX 01 41:10:50
TRACK 17 AUDIO
TITLE "Act 1 - Tutto e deserto"
PERFORMER "Donizetti"
INDEX 01 44:57:67
TRACK 18 AUDIO
TITLE "Act 1 - Bada, bada... Tropp'oltre vai"
PERFORMER "Donizetti"
INDEX 01 49:40:55
TRACK 19 AUDIO
TITLE "Act 1 - S'ei t'abborre, io t'amo ancora"
PERFORMER "Donizetti"
INDEX 01 52:27:05
TRACK 20 AUDIO
TITLE "Act 1 - Per pieta del mio spavento"
PERFORMER "Donizetti"
INDEX 01 53:34:07
TRACK 21 AUDIO
TITLE "Act 1 - Parti! Alcun potria ascoltarti!"
PERFORMER "Donizetti"
INDEX 01 55:18:30
TRACK 22 AUDIO
TITLE "Act 1 - Tace ognuno : In separato carcere"
PERFORMER "Donizetti"
INDEX 01 61:11:15

CD2

REM GENRE Opera
REM DATE 1958
REM DISCID EE0FD110
REM COMMENT "ExactAudioCopy v1.0b3"
PERFORMER "Donizetti"
TITLE "Anna Bolena, Gavazzeni CD2"
FILE "Donizetti - Anna Bolena, Gavazzeni CD2.ape" WAVE
TRACK 01 AUDIO
TITLE "Act 2. Oh! Dove mai ne andarono"
PERFORMER "Donizetti"
INDEX 01 00:00:00
TRACK 02 AUDIO
TITLE "Act 2. Dio, che mi vedi in core"
PERFORMER "Donizetti"
INDEX 01 06:29:07
TRACK 03 AUDIO
TITLE "Act 2. Al par del mio"
PERFORMER "Donizetti"
INDEX 01 11:57:50
TRACK 04 AUDIO
TITLE "Act 2. Va, infelice"
PERFORMER "Donizetti"
INDEX 01 16:35:55
TRACK 05 AUDIO
TITLE "Act 2. Ebben? Dinanzi ai giudici"
PERFORMER "Donizetti"
INDEX 01 19:19:20
TRACK 06 AUDIO
TITLE "Act 2. Scostatevi... il Re giunge..."
PERFORMER "Donizetti"
INDEX 01 24:45:32
TRACK 07 AUDIO
TITLE "Act 2. Al consiglio sien tratti"
PERFORMER "Donizetti"
INDEX 01 31:37:50
TRACK 08 AUDIO
TITLE "Act 2. Sposa a Percy"
PERFORMER "Donizetti"
INDEX 01 33:12:37
TRACK 09 AUDIO
TITLE "Act 2. Per questa fiamma indomita"
PERFORMER "Donizetti"
INDEX 01 36:40:30
TRACK 10 AUDIO
TITLE "Act 2. Stolta! Non sai..."
PERFORMER "Donizetti"
INDEX 01 38:49:52
TRACK 11 AUDIO
TITLE "Act 2. Ah! pensate che rivolti"
PERFORMER "Donizetti"
INDEX 01 40:05:17
TRACK 12 AUDIO
TITLE "Act 2. Chi puo vederla a ciglio asciutto"
PERFORMER "Donizetti"
INDEX 01 41:49:50
TRACK 13 AUDIO
TITLE "Act 2. Piangete voi?"
PERFORMER "Donizetti"
INDEX 01 48:40:15
TRACK 14 AUDIO
TITLE "Act 2. Al dolce guidami"
PERFORMER "Donizetti"
INDEX 01 53:02:20
TRACK 15 AUDIO
TITLE "Act 2. Qual mesto suon?"
PERFORMER "Donizetti"
INDEX 01 57:21:27
TRACK 16 AUDIO
TITLE "Act 2. Cielo, a'miei lunghi spasimi"
PERFORMER "Donizetti"
INDEX 01 61:30:27



Показать сообщения:    

Текущее время: 19-Янв 16:03

Часовой пояс: UTC + 3


Вы не можете начинать темы
Вы не можете отвечать на сообщения
Вы не можете редактировать свои сообщения
Вы не можете удалять свои сообщения
Вы не можете голосовать в опросах
Вы не можете прикреплять файлы к сообщениям
Вы не можете скачивать файлы