(Classical) Berg - Wozzeck (Theo Adam; Wendy Fine; Fritz Uhl; Georg Paskuda; Carlos Kleiber; Bavarian State Opera; 1970) - 2007, FLAC (image+.cue) lossless


 

[Цитировать]

Berg - Wozzeck (Theo Adam; Wendy Fine; Fritz Uhl; Georg Paskuda; Carlos Kleiber; Bavarian State Opera; 1970)
Жанр: Classical
Страна-производитель диска: США
Год издания диска: 2007
Издатель (лейбл): Opera Depot
Номер по каталогу: OD 10250-2
Дата записи: 1970
Аудиокодек: FLAC
Тип рипа: image+.cue
Битрейт аудио: lossless
Продолжительность: 01:29:28
Источник: собственный рип
Наличие сканов в содержимом раздачи: нет

Треклист

CD 1
1. Langsam, Wozzeck! Langsam! [07:22]
2. Du, der Platz ist verflucht! [06:15]
3. Tschin bum, tschin bum, bum, bum [08:50]
4. Was erleb ich, Wozzeck [07:31]
5. Geh einmal vor dich hin! [03:21]
6. Was die Steine glanzen [04:49]
7. Wohin so eilig? [09:13]
8. Guten Tag Franz [14:48]
9. Oh- Oh- Andres [04:38]
CD 2
1. Und ist kein betrug [04:12]
2. Dort links geht in die Stadt [05:15]
3. Tanzt Alle; tanzt nur zu [03:36]
4. Das Messer. Wo ist das Messer [04:36]
5. Ringel, Ringel, Rozenkranz [04:56]
Исполнители:
Marie - Wendy Fine
Wozzeck - Theo Adam
The Drum Major - Fritz Uhl
The Captain - Georg Paskuda
The Doctor - Kieth Engen
Margret - Gudrun Wewezow
Andres - Friedrich Lenz
The Fool - Walter Carnuth
First Artisan - Max Proebstl
Second Artison - Carl Hoppe
Marie's Child - Maria Krauth
The Soldier - Fritz Strauch
Bavarian State Opera Orchestra & Chorus
27 November 1970 (Live Recording)
Conductor - Carlos Kleiber

Лог создания рипа

CD 1
Exact Audio Copy V1.0 beta 3 from 29. August 2011
Отчёт EAC об извлечении, выполненном 24. августа 2014, 14:39
Carlos Kleiber / Alban Berg - Wozzeck (CD 1)
Дисковод: PIONEER BD-RW BDR-208D Adapter: 3 ID: 0
Режим чтения : Достоверность
Использование точного потока : Да
Отключение кэша аудио : Да
Использование указателей C2 : Нет
Коррекция смещения при чтении : 667
Способность читать области Lead-in и Lead-out : Нет
Заполнение пропущенных сэмплов тишиной : Да
Удаление блоков с тишиной в начале и конце : Нет
При вычислениях CRC использовались нулевые сэмплы : Да
Интерфейс : Встроенный Win32-интерфейс для Win NT/2000
Выходной формат : Пользовательский кодировщик
Выбранный битрейт : 768 kBit/s
Качество : Высокий
Добавление ID3-тега : Нет
Утилита сжатия : C:\Program Files (x86)\Exact Audio Copy\FLAC\FLAC.EXE
Дополнительные параметры : -6 -V -T "ARTIST=%artist%" -T "TITLE=%title%" -T "ALBUM=%albumtitle%" -T "DATE=%year%" -T "TRACKNUMBER=%tracknr%" -T "GENRE=%genre%" -T "COMMENT=%comment%" -T "BAND=%albuminterpret%" -T "ALBUMARTIST=%albuminterpret%" -T "COMPOSER=%composer%" %haslyrics%--tag-from-file=LYRICS="%lyricsfile%"%haslyrics% -T "DISCNUMBER=%cdnumber%" -T "TOTALDISCS=%totalcds%" -T "TOTALTRACKS=%numtracks%" %hascover%--picture="%coverfile%"%hascover% %source% -o %dest%
TOC извлечённого CD
Трек | Старт | Длительность | Начальный сектор | Конечный сектор
---------------------------------------------------------------------
1 | 0:00.00 | 7:22.15 | 0 | 33164
2 | 7:22.15 | 6:15.24 | 33165 | 61313
3 | 13:37.39 | 8:50.67 | 61314 | 101130
4 | 22:28.31 | 7:31.10 | 101131 | 134965
5 | 29:59.41 | 3:21.10 | 134966 | 150050
6 | 33:20.51 | 4:49.69 | 150051 | 171794
7 | 38:10.45 | 9:13.56 | 171795 | 213325
8 | 47:24.26 | 14:48.51 | 213326 | 279976
9 | 62:13.02 | 4:38.11 | 279977 | 300837
Характеристики диапазона извлечения и сообщения об ошибках
Выбранный диапазон
Имя файла C:\Users\user\Desktop\Carlos Kleiber - Alban Berg - Wozzeck (CD 1).wav
Пиковый уровень 98.4 %
Скорость извлечения 7.7 X
Качество диапазона 100.0 %
CRC теста A8C0BAD2
CRC копии A8C0BAD2
Копирование... OK
Ошибок не произошло
AccurateRip: сводка
Трек 1 отсутствует в базе данных
Трек 2 отсутствует в базе данных
Трек 3 отсутствует в базе данных
Трек 4 отсутствует в базе данных
Трек 5 отсутствует в базе данных
Трек 6 отсутствует в базе данных
Трек 7 отсутствует в базе данных
Трек 8 отсутствует в базе данных
Трек 9 отсутствует в базе данных
Ни одного трека нет в базе AccurateRip
Конец отчёта
CD 2
Exact Audio Copy V1.0 beta 3 from 29. August 2011
Отчёт EAC об извлечении, выполненном 24. августа 2014, 14:52
Carlos Kleiber / Alban Berg - Wozzeck (CD 2)
Дисковод: PIONEER BD-RW BDR-208D Adapter: 3 ID: 0
Режим чтения : Достоверность
Использование точного потока : Да
Отключение кэша аудио : Да
Использование указателей C2 : Нет
Коррекция смещения при чтении : 667
Способность читать области Lead-in и Lead-out : Нет
Заполнение пропущенных сэмплов тишиной : Да
Удаление блоков с тишиной в начале и конце : Нет
При вычислениях CRC использовались нулевые сэмплы : Да
Интерфейс : Встроенный Win32-интерфейс для Win NT/2000
Выходной формат : Пользовательский кодировщик
Выбранный битрейт : 768 kBit/s
Качество : Высокий
Добавление ID3-тега : Нет
Утилита сжатия : C:\Program Files (x86)\Exact Audio Copy\FLAC\FLAC.EXE
Дополнительные параметры : -6 -V -T "ARTIST=%artist%" -T "TITLE=%title%" -T "ALBUM=%albumtitle%" -T "DATE=%year%" -T "TRACKNUMBER=%tracknr%" -T "GENRE=%genre%" -T "COMMENT=%comment%" -T "BAND=%albuminterpret%" -T "ALBUMARTIST=%albuminterpret%" -T "COMPOSER=%composer%" %haslyrics%--tag-from-file=LYRICS="%lyricsfile%"%haslyrics% -T "DISCNUMBER=%cdnumber%" -T "TOTALDISCS=%totalcds%" -T "TOTALTRACKS=%numtracks%" %hascover%--picture="%coverfile%"%hascover% %source% -o %dest%
TOC извлечённого CD
Трек | Старт | Длительность | Начальный сектор | Конечный сектор
---------------------------------------------------------------------
1 | 0:00.00 | 4:12.28 | 0 | 18927
2 | 4:12.28 | 5:15.06 | 18928 | 42558
3 | 9:27.34 | 3:36.25 | 42559 | 58783
4 | 13:03.59 | 4:36.21 | 58784 | 79504
5 | 17:40.05 | 4:56.37 | 79505 | 101741
Характеристики диапазона извлечения и сообщения об ошибках
Выбранный диапазон
Имя файла C:\Users\user\Desktop\Carlos Kleiber - Alban Berg - Wozzeck (CD 2).wav
Пиковый уровень 80.1 %
Скорость извлечения 5.9 X
Качество диапазона 99.9 %
CRC теста 3C57C187
CRC копии 3C57C187
Копирование... OK
Ошибок не произошло
AccurateRip: сводка
Трек 1 точность не определена (достоверность 1) [2F536EC3], AccurateRip вернул [F701CB10] (AR v2)
Трек 2 точность не определена (достоверность 1) [B36AC580], AccurateRip вернул [B90C8B88] (AR v2)
Трек 3 точность не определена (достоверность 1) [29228E61], AccurateRip вернул [19C8C95B] (AR v2)
Трек 4 точность не определена (достоверность 1) [19065DB3], AccurateRip вернул [06B45288] (AR v2)
Трек 5 точность не определена (достоверность 1) [B2CCB8FB], AccurateRip вернул [3CDD63CA] (AR v2)
Ни один трек не прошёл проверки на точность
В вашей базе может быть иной вариант штамповки диска
Конец отчёта
==== Контрольная сумма отчёта B656F67F96293345169A010BAD24EBD47CFC7E33276EDAE1BE89D1CD8F5A58E5 ====



Показать сообщения:    

Текущее время: 10-Дек 21:36

Часовой пояс: UTC + 3


Вы не можете начинать темы
Вы не можете отвечать на сообщения
Вы не можете редактировать свои сообщения
Вы не можете удалять свои сообщения
Вы не можете голосовать в опросах
Вы не можете прикреплять файлы к сообщениям
Вы не можете скачивать файлы