(opera) Юрий Буцко - "Белые ночи" Сентиментальная опера в одном действии (Писаренко, Мищевский, Рождественский) - 2014, FLAC (tracks) lossless


 

[Цитировать]

Юрий Буцко - "Белые ночи" Сентиментальная опера в одном действии
Жанр: opera
Страна-производитель диска: Россия
Год издания диска: 2014
Издатель (лейбл): Мелодия
Номер по каталогу: MEL CD 10 02126
Дата записи: 1973
Аудиокодек: FLAC
Тип рипа: tracks
Битрейт аудио: lossless
Продолжительность: 61.00
Источник: собственный рип
Наличие сканов в содержимом раздачи: да
Треклист:
Юрий Буцко - "Белые ночи" Сентиментальная опера в одном действии, четырёх картинах
Либретто Ю.Буцко по одноименной повести Ф.Достоевского
1. Ночь первая 16.05
2. Ночь вторая 19.07
3. Ночь третья 13.18
4. Утро 12.28
Исполнители:
Г. Писаренко (Настенька)
А.Мищевский (Мечтатель)
Большой симфонический оркестр Всесоюзного радио и Центрального телевидения
п/у Г. Рождественского

Лог создания рипа

Exact Audio Copy V1.0 beta 3 from 29. August 2011
EAC extraction logfile from 16. August 2014, 20:20
Galina Pisarenko, Anatoly Mishshevsky, Gennady Rozhdestvensky / Yuri Butsko - White Night
Used drive : PIONEER DVD-RW DVR-219L Adapter: 2 ID: 0
Read mode : SecureUtilize accurate stream : YesDefeat audio cache : YesMake use of C2 pointers : No
Read offset correction : 6Overread into Lead-In and Lead-Out : NoFill up missing offset samples with silence : YesDelete leading and trailing silent blocks : NoNull samples used in CRC calculations : YesUsed interface : Native Win32 interface for Win NT & 2000Gap handling : Appended to previous track
Used output format : User Defined EncoderSelected bitrate : 768 kBit/sQuality : HighAdd ID3 tag : NoCommand line compressor : C:\Program Files (x86)\Exact Audio Copy\FLAC\FLAC.EXEAdditional command line options : -6 -V -T "ARTIST=%artist%" -T "TITLE=%title%" -T "ALBUM=%albumtitle%" -T "DATE=%year%" -T "TRACKNUMBER=%tracknr%" -T "GENRE=%genre%" -T "COMMENT=%comment%" %hascover%--picture="%coverfile%"%hascover% %source% -o %dest%
TOC of the extracted CD
Track | Start | Length | Start sector | End sector --------------------------------------------------------- 1 | 0:00.00 | 16:05.27 | 0 | 72401 2 | 16:05.27 | 19:06.61 | 72402 | 158412 3 | 35:12.13 | 13:18.27 | 158413 | 218289 4 | 48:30.40 | 12:28.00 | 218290 | 274389
Track 1
Filename F:\My torrent\Yuri Butsko - ''White Night'' A sentimental opera in one act (G.Rozhdestvensky)\01 Night One.wav
Pre-gap length 0:00:02.00
Peak level 96.6 % Extraction speed 5.7 X Track quality 100.0 % Test CRC 2960ACBA Copy CRC 2960ACBA Track not present in AccurateRip database Copy OK
Track 2
Filename F:\My torrent\Yuri Butsko - ''White Night'' A sentimental opera in one act (G.Rozhdestvensky)\02 Night Two.wav
Peak level 96.6 % Extraction speed 7.6 X Track quality 100.0 % Test CRC 1EBCE708 Copy CRC 1EBCE708 Track not present in AccurateRip database Copy OK
Track 3
Filename F:\My torrent\Yuri Butsko - ''White Night'' A sentimental opera in one act (G.Rozhdestvensky)\03 Night Three.wav
Peak level 96.6 % Extraction speed 8.8 X Track quality 100.0 % Test CRC 61FA4325 Copy CRC 61FA4325 Track not present in AccurateRip database Copy OK
Track 4
Filename F:\My torrent\Yuri Butsko - ''White Night'' A sentimental opera in one act (G.Rozhdestvensky)\04 Morning.wav
Peak level 96.6 % Extraction speed 9.2 X Track quality 99.9 % Test CRC DB53FD16 Copy CRC DB53FD16 Track not present in AccurateRip database Copy OK
None of the tracks are present in the AccurateRip database
No errors occurred
End of status report
---- CUETools DB Plugin V2.1.3
[CTDB TOCID: uDh.BZsXOi2tyWWgNa4Ml719Yqw-] found, Submit result: already submitted[a9c705e9] (1/1) Accurately ripped
==== Log checksum 213BDF59B6ABB50BFE46A97E0F9405FE23D31C0A048BDA573D35AE2AF47C816A ====



Показать сообщения:    

Текущее время: 02-Дек 21:09

Часовой пояс: UTC + 3


Вы не можете начинать темы
Вы не можете отвечать на сообщения
Вы не можете редактировать свои сообщения
Вы не можете удалять свои сообщения
Вы не можете голосовать в опросах
Вы не можете прикреплять файлы к сообщениям
Вы не можете скачивать файлы