(Opera / Classical) Джованни Пачини - Александр в Индии / Giovanni Pacini - Alessandro nell'Indie (Ford, Larmore, Claycomb, Robinson, Wilde; Parry) - 2007, FLAC (tracks+.cue) lossless


 

[Цитировать]

Giovanni Pacini - Alessandro nell'Indie (Ford, Larmore, Claycomb, Robinson, Wilde; Parry)
Жанр: Opera / Classical
Год издания диска: 2007
Издатель (лейбл): Opera Rara
Номер по каталогу: ORC35
Аудиокодек: FLAC
Тип рипа: tracks+.cue
Битрейт аудио: lossless
Продолжительность: 2:37:05
Источник: скачано с
сайт-источник/ник/другое: what.cd
Наличие сканов в содержимом раздачи: да

Треклист

CD1:
01. [Alessandro Nell'Indie] Act I - Sinfonia (1:36) [532 Kb/s]
02. Act I. Scene I. Introduzione - Nume propizio (Chorus) (4:02) [577 Kb/s]
03. Act I. Scene II. Introduzione - Al suon di mesti accenti (Cleofide) (1:23) [480 Kb/s]
04. Act I. Scene II. Introduzione - Se d'amor fra le ritorte (Chorus, Cleofide) (3:07) [525 Kb/s]
05. Act I. Scene II. Introduzione - Se fosse a me vicino (Cleofide, Chorus) (4:09) [574 Kb/s]
06. Act I. Scene III. Introduzione - E' perduta dell'India la speme (2nd Chorus, Cleofide, 1st Chorus, All) (1:52) [626 Kb/s]
07. Act I. Scene III. Coro e Recitativo - Giorno terribile (Cleofide & Chorus) (4:16) [529 Kb/s]
08. Act I. Scene III-V. Coro e Recitativo - Deh, ritornate in campo (Cleofide, Gandarte, Poro) (4:39) [494 Kb/s]
09. Act I. Scene V. Duetto - Piu tollerar non posso (Cleofide, Poro) (3:48) [559 Kb/s]
10. Act I. Scene V. Duetto - Se cangiar potessi in seno (Cleofide & Poro) (4:13) [453 Kb/s]
11. Act I. Scene V. Duetto - Ancor non m'assicuro (Cleofide & Poro) (2:40) [582 Kb/s]
12. Act I. Scene VI. Doppo il Duetto - Regina, a te ritorna (Gandarte, Poro & Cleofide, Chorus) (3:57) [535 Kb/s]
13. Act I. Scene VII. Recitativo e Coro - Seguirla io vo (Poro, Gandarte) (1:47) [533 Kb/s]
14. Act I. Scene VII. Aria di Poro - Se possono tanto (Poro) (5:59) [540 Kb/s]
CD2:
01. Act I. Scene VIII. Coro e Cavatina di Alessandro - Su le palme, su gli allori (Chorus) (3:38) [559 Kb/s]
02. Act I. Scene VIII. Coro e Cavatina di Alessandro - Omai sia tregua all'armi (Alessandro, Chorus) (3:26) [530 Kb/s]
03. Act I. Scene VIII. Coro e Cavatina di Alessandro - Perche, fra tanti affetti (Alessandro, Chorus) (3:20) [592 Kb/s]
04. Act I. Scene VIII. Recitativo - Le disperse falangi (Alessandro, Timagene) (2:28) [483 Kb/s]
05. Act I. Scene VIII, IX. Coro - Ella viene (Timagene, Alessandro, Chorus) (3:06) [645 Kb/s]
06. Act I. Scene IX. Recitativo e Duetto - Cio ch'io t'offro (Cleofide, Alessandro) (4:13) [498 Kb/s]
07. Act I. Scene IX. Recitativo e Duetto - Nel duolo in cui mi vedo (Cleofide, Alessandro) (11:19) [570 Kb/s]
08. Act I. Scene X, XI. Finale Primo - Monarca, il duce Asbite (Timagene, Cleofide, Alessandro, Poro, Macedonians, Indians) (3:44) [575 Kb/s]
09. Act I. Scene XI. Finale Primo - A que' detti posso (Alessandro, Timagene, Poro, Cleofide, Chorus) (3:48) [541 Kb/s]
10. Act I. Scene XI. Finale Primo - A te piu dell'Idaspe (Cleofide, Poro, Alessandro, Macedonians, Timagene, Indians) (7:07) [642 Kb/s]
CD3:
01. Act II. Scene I. Coro - Serva ad eroe si grande (Chorus of Indians) (2:15) [664 Kb/s]
02. Act II. Scene I. Coro - Signor, l'India festiva (Cleofide, Alessandro) (1:29) [512 Kb/s]
03. Act II. Scene I. Coro - Serva ad eroe si grande (Chorus of Indians) (1:22) [716 Kb/s]
04. Act II. Scene I. Coro - Strepito d'armi (Alessandro, Cleofide, Timagene) (1:13) [501 Kb/s]
05. Act II. Scene I. Coro - Battaglia (1:36) [580 Kb/s]
06. Act II. Scene II, III. Quartetto - Ma, per pieta (Cleofide, Poro, Alessandro) (5:49) [542 Kb/s]
08. Act II. Scene V-VIII. Scena ed Aria - Invan l'India s'affanna (Timagene, Cleofide, Gandarte, Alessandro) (6:07) [500 Kb/s]
09. Act II. Scene IX. Scena ed Aria - Oggetto si adorabile (Alessandro, Cleofide, Gandarte, Chorus) (2:31) [515 Kb/s]
10. Act II. Scene VIII. Scena ed Aria - S'e ver che t'accendi (Alessandro, Chorus, Cleofide, Gandarte) (2:45) [589 Kb/s]
12. Act II. Scene X. Coro, Scena ed Aria - Che mai fu (Cleofide, Chorus, Gandarte) (3:09) [478 Kb/s]
13. Act II. Scene X. Coro, Scena ed Aria - Che mi giovo sull'are (Gandarte, Cleofide) (1:18) [531 Kb/s]
14. Act II. Scene X. Coro, Scena ed Aria - Del caro mio consorte (Gandarte, Chorus, Cleofide) (5:36) [512 Kb/s]
15. Act II. Scene X. Coro, Scena ed Aria - A tanto martoro (Gandarte, Chorus) (0:35) [625 Kb/s]
16. Act II. Scene X. Coro, Scena ed Aria - Mio ben, mio tesoro (Cleofide) (2:59) [583 Kb/s]
17. Act II. Scene XI, XII. Coro, Scena ed Aria - Poro infelice (Gandarte, Poro) (1:58) [528 Kb/s]
18. Act II. Scene XIII. Coro, Scena ed Aria - Stupir mi fai (Alessandro, Timagene) (1:07) [471 Kb/s]
19. Act II. Scene XIV. Coro, Scena ed Aria - Signor, fermati (Gandarte, Poro) (1:32) [535 Kb/s]
20. Act II. Scene the Last. Coro - Dagli astri discendi (Chorus) (2:27) [683 Kb/s]
21. Act II. Scene the Last. Coro - Nell'odorata pira (All) (2:45) [538 Kb/s]
22. Act II. Scene the Last. Finale Secondo - Risolver non oso (All) (4:22) [478 Kb/s]
23. Act II. Scene the Last. Finale Secondo - Ah, si mora una volta (All) (3:30) [522 Kb/s]
24. Act II. Scene the Last. Finale Secondo - Su l'armi e su gli affetti (All) (7:07) [582 Kb/s]
Исполнители:
Bruce Ford (Alessandro)
Jennifer Larmore (Poro)
Laura Claycomb (Cleofide)
Dean Robinson (Timagene)
Mark Wilde (Gandarte)
Geoffrey Mitchell Choir
London Philharmonic Orchestra
David Parry – conductor

Лог создания рипа

CD1

X Lossless Decoder version 20131102 (145.0)
XLD extraction logfile from 2013-11-25 15:34:42 +0100
Ford, Larmore, Claycomb, Robinson, Wilde, Parry / Pacini - Alessandro Nell'Indie [CD1]
Used drive : MATSHITA DVD-R UJ-898 (revision HA07)
Media type : Pressed CD
Ripper mode : XLD Secure Ripper
Disable audio cache : OK for the drive with a cache less than 1375KiB
Make use of C2 pointers : NO
Read offset correction : 102
Max retry count : 20
Gap status : Analyzed, Appended (except HTOA)
TOC of the extracted CD
Track | Start | Length | Start sector | End sector
---------------------------------------------------------
1 | 00:00:00 | 01:36:31 | 0 | 7230
2 | 01:36:31 | 04:01:38 | 7231 | 25343
3 | 05:37:69 | 01:22:57 | 25344 | 31550
4 | 07:00:51 | 03:07:21 | 31551 | 45596
5 | 10:07:72 | 04:08:54 | 45597 | 64250
6 | 14:16:51 | 01:52:24 | 64251 | 72674
7 | 16:09:00 | 04:15:66 | 72675 | 91865
8 | 20:24:66 | 04:39:23 | 91866 | 112813
9 | 25:04:14 | 03:47:61 | 112814 | 129899
10 | 28:52:00 | 04:13:00 | 129900 | 148874
11 | 33:05:00 | 02:39:63 | 148875 | 160862
12 | 35:44:63 | 03:56:51 | 160863 | 178613
13 | 39:41:39 | 01:47:09 | 178614 | 186647
14 | 41:28:48 | 05:59:01 | 186648 | 213573
AccurateRip Summary (DiscID: 00166d6b-00f5965e-ca0b1f0e)
Track 01 : OK (v1+v2, confidence 4/4)
Track 02 : OK (v1+v2, confidence 4/4)
Track 03 : OK (v1+v2, confidence 4/4)
Track 04 : OK (v1+v2, confidence 4/4)
Track 05 : OK (v1+v2, confidence 4/4)
Track 06 : OK (v1+v2, confidence 4/4)
Track 07 : OK (v1+v2, confidence 4/4)
Track 08 : OK (v1+v2, confidence 4/4)
Track 09 : OK (v1+v2, confidence 4/4)
Track 10 : OK (v1+v2, confidence 4/4)
Track 11 : OK (v1+v2, confidence 4/4)
Track 12 : OK (v1+v2, confidence 4/4)
Track 13 : OK (v1+v2, confidence 4/4)
Track 14 : OK (v1+v2, confidence 4/4)
->All tracks accurately ripped.
All Tracks
Album gain : 1.45 dB
Peak : 1.000000
Statistics
Read error : 0
Jitter error (maybe fixed) : 0
Retry sector count : 0
Damaged sector count : 0
Track 01
Filename : /Volumes/MUSIC/T/Giovanni Pacini - Alessandro Nell'Indie (2007) [FLAC]/CD1/01 - [Alessandro Nell'Indie] Act I - Sinfonia.flac
Pre-gap length : 00:02:00
Track gain : 0.70 dB
Peak : 0.716827
CRC32 hash (test run) : A5143B36
CRC32 hash : A5143B36
CRC32 hash (skip zero) : 9CEA9228
AccurateRip v1 signature : 9EBA5503
AccurateRip v2 signature : A3F46985
->Accurately ripped (v1+v2, confidence 2+2/4)
Statistics
Read error : 0
Jitter error (maybe fixed) : 0
Retry sector count : 0
Damaged sector count : 0
Track 02
Filename : /Volumes/MUSIC/T/Giovanni Pacini - Alessandro Nell'Indie (2007) [FLAC]/CD1/02 - Act I. Scene I. Introduzione - Nume propizio (Chorus).flac
Track gain : 0.16 dB
Peak : 0.999969
CRC32 hash (test run) : B57ECD1D
CRC32 hash : B57ECD1D
CRC32 hash (skip zero) : D5C63660
AccurateRip v1 signature : 531A446A
AccurateRip v2 signature : 20039F74
->Accurately ripped (v1+v2, confidence 2+2/4)
Statistics
Read error : 0
Jitter error (maybe fixed) : 0
Retry sector count : 0
Damaged sector count : 0
Track 03
Filename : /Volumes/MUSIC/T/Giovanni Pacini - Alessandro Nell'Indie (2007) [FLAC]/CD1/03 - Act I. Scene II. Introduzione - Al suon di mesti accenti (Cleofide).flac
Track gain : 3.12 dB
Peak : 0.512665
CRC32 hash (test run) : 63ED9C50
CRC32 hash : 63ED9C50
CRC32 hash (skip zero) : 90C5F7C4
AccurateRip v1 signature : 88DAF621
AccurateRip v2 signature : 96FB8EEC
->Accurately ripped (v1+v2, confidence 2+2/4)
Statistics
Read error : 0
Jitter error (maybe fixed) : 0
Retry sector count : 0
Damaged sector count : 0
Track 04
Filename : /Volumes/MUSIC/T/Giovanni Pacini - Alessandro Nell'Indie (2007) [FLAC]/CD1/04 - Act I. Scene II. Introduzione - Se d'amor fra le ritorte (Chorus, Cleofide).flac
Track gain : 2.00 dB
Peak : 0.727234
CRC32 hash (test run) : CE55650D
CRC32 hash : CE55650D
CRC32 hash (skip zero) : 99D4602F
AccurateRip v1 signature : 9582F137
AccurateRip v2 signature : A793D2E2
->Accurately ripped (v1+v2, confidence 2+2/4)
Statistics
Read error : 0
Jitter error (maybe fixed) : 0
Retry sector count : 0
Damaged sector count : 0
Track 05
Filename : /Volumes/MUSIC/T/Giovanni Pacini - Alessandro Nell'Indie (2007) [FLAC]/CD1/05 - Act I. Scene II. Introduzione - Se fosse a me vicino (Cleofide, Chorus).flac
Track gain : -1.10 dB
Peak : 1.000000
CRC32 hash (test run) : D5EB691D
CRC32 hash : D5EB691D
CRC32 hash (skip zero) : E60F49BB
AccurateRip v1 signature : A2243382
AccurateRip v2 signature : 8C64720E
->Accurately ripped (v1+v2, confidence 2+2/4)
Statistics
Read error : 0
Jitter error (maybe fixed) : 0
Retry sector count : 0
Damaged sector count : 0
Track 06
Filename : /Volumes/MUSIC/T/Giovanni Pacini - Alessandro Nell'Indie (2007) [FLAC]/CD1/06 - Act I. Scene III. Introduzione - E' perduta dell'India la speme (2nd Chorus, Cleofide, 1st Chorus, All).flac
Track gain : -3.75 dB
Peak : 1.000000
CRC32 hash (test run) : 89FFB238
CRC32 hash : 89FFB238
CRC32 hash (skip zero) : 1ED1D356
AccurateRip v1 signature : 36541B7E
AccurateRip v2 signature : 14AA95B3
->Accurately ripped (v1+v2, confidence 2+2/4)
Statistics
Read error : 0
Jitter error (maybe fixed) : 0
Retry sector count : 0
Damaged sector count : 0
Track 07
Filename : /Volumes/MUSIC/T/Giovanni Pacini - Alessandro Nell'Indie (2007) [FLAC]/CD1/07 - Act I. Scene III. Coro e Recitativo - Giorno terribile (Cleofide & Chorus).flac
Track gain : -1.93 dB
Peak : 1.000000
CRC32 hash (test run) : 96DF7D6C
CRC32 hash : 96DF7D6C
CRC32 hash (skip zero) : 9A857F37
AccurateRip v1 signature : 00E6FC61
AccurateRip v2 signature : 76DE76E5
->Accurately ripped (v1+v2, confidence 2+2/4)
Statistics
Read error : 0
Jitter error (maybe fixed) : 0
Retry sector count : 0
Damaged sector count : 0
Track 08
Filename : /Volumes/MUSIC/T/Giovanni Pacini - Alessandro Nell'Indie (2007) [FLAC]/CD1/08 - Act I. Scene III-V. Coro e Recitativo - Deh, ritornate in campo (Cleofide, Gandarte, Poro).flac
Track gain : 7.67 dB
Peak : 0.436768
CRC32 hash (test run) : 2FF5A6EB
CRC32 hash : 2FF5A6EB
CRC32 hash (skip zero) : 3AC8B592
AccurateRip v1 signature : E3FFD2B4
AccurateRip v2 signature : ACD1064F
->Accurately ripped (v1+v2, confidence 2+2/4)
Statistics
Read error : 0
Jitter error (maybe fixed) : 0
Retry sector count : 0
Damaged sector count : 0
Track 09
Filename : /Volumes/MUSIC/T/Giovanni Pacini - Alessandro Nell'Indie (2007) [FLAC]/CD1/09 - Act I. Scene V. Duetto - Piu tollerar non posso (Cleofide, Poro).flac
Track gain : 2.69 dB
Peak : 0.639069
CRC32 hash (test run) : A2138A78
CRC32 hash : A2138A78
CRC32 hash (skip zero) : F98C7430
AccurateRip v1 signature : 20928C89
AccurateRip v2 signature : 4CA585F5
->Accurately ripped (v1+v2, confidence 2+2/4)
Statistics
Read error : 0
Jitter error (maybe fixed) : 0
Retry sector count : 0
Damaged sector count : 0
Track 10
Filename : /Volumes/MUSIC/T/Giovanni Pacini - Alessandro Nell'Indie (2007) [FLAC]/CD1/10 - Act I. Scene V. Duetto - Se cangiar potessi in seno (Cleofide & Poro).flac
Track gain : 5.86 dB
Peak : 0.428802
CRC32 hash (test run) : C17F3231
CRC32 hash : C17F3231
CRC32 hash (skip zero) : 95791DA8
AccurateRip v1 signature : EA6538C1
AccurateRip v2 signature : D996DD54
->Accurately ripped (v1+v2, confidence 2+2/4)
Statistics
Read error : 0
Jitter error (maybe fixed) : 0
Retry sector count : 0
Damaged sector count : 0
Track 11
Filename : /Volumes/MUSIC/T/Giovanni Pacini - Alessandro Nell'Indie (2007) [FLAC]/CD1/11 - Act I. Scene V. Duetto - Ancor non m'assicuro (Cleofide & Poro).flac
Track gain : -0.52 dB
Peak : 0.811768
CRC32 hash (test run) : 3440B30D
CRC32 hash : 3440B30D
CRC32 hash (skip zero) : 85FA080B
AccurateRip v1 signature : AD1340E4
AccurateRip v2 signature : AED3E09B
->Accurately ripped (v1+v2, confidence 2+2/4)
Statistics
Read error : 0
Jitter error (maybe fixed) : 0
Retry sector count : 0
Damaged sector count : 0
Track 12
Filename : /Volumes/MUSIC/T/Giovanni Pacini - Alessandro Nell'Indie (2007) [FLAC]/CD1/12 - Act I. Scene VI. Doppo il Duetto - Regina, a te ritorna (Gandarte, Poro & Cleofide, Chorus).flac
Track gain : 3.58 dB
Peak : 0.501404
CRC32 hash (test run) : 8253B43D
CRC32 hash : 8253B43D
CRC32 hash (skip zero) : FAE2FE20
AccurateRip v1 signature : E55BCF47
AccurateRip v2 signature : 486B883D
->Accurately ripped (v1+v2, confidence 2+2/4)
Statistics
Read error : 0
Jitter error (maybe fixed) : 0
Retry sector count : 0
Damaged sector count : 0
Track 13
Filename : /Volumes/MUSIC/T/Giovanni Pacini - Alessandro Nell'Indie (2007) [FLAC]/CD1/13 - Act I. Scene VII. Recitativo e Coro - Seguirla io vo (Poro, Gandarte).flac
Track gain : 4.47 dB
Peak : 0.590851
CRC32 hash (test run) : 6CE168BF
CRC32 hash : 6CE168BF
CRC32 hash (skip zero) : 117B7DD5
AccurateRip v1 signature : 48F92E44
AccurateRip v2 signature : 0038FFD5
->Accurately ripped (v1+v2, confidence 2+2/4)
Statistics
Read error : 0
Jitter error (maybe fixed) : 0
Retry sector count : 0
Damaged sector count : 0
Track 14
Filename : /Volumes/MUSIC/T/Giovanni Pacini - Alessandro Nell'Indie (2007) [FLAC]/CD1/14 - Act I. Scene VII. Aria di Poro - Se possono tanto (Poro).flac
Track gain : 2.52 dB
Peak : 0.681824
CRC32 hash (test run) : 27697A31
CRC32 hash : 27697A31
CRC32 hash (skip zero) : 506887F7
AccurateRip v1 signature : 806C76D0
AccurateRip v2 signature : 425D9B4D
->Accurately ripped (v1+v2, confidence 2+2/4)
Statistics
Read error : 0
Jitter error (maybe fixed) : 0
Retry sector count : 0
Damaged sector count : 0
No errors occurred
End of status report
-----BEGIN XLD SIGNATURE-----
9cKlsDw_KEPCh_hLJkvOsuSNUZq1N3mVP2pKj7h6OEnJ1j7ES.PzTrg6MGQIV9gJo4ggl2c1OSxQyAZes4qd8S8upVqnJ8xBbQteHEG
-----END XLD SIGNATURE-----

CD2

X Lossless Decoder version 20131102 (145.0)
XLD extraction logfile from 2013-11-25 16:41:58 +0100
Ford, Larmore, Claycomb, Robinson, Wilde, Parry / Pacini - Alessandro Nell'Indie [CD2]
Used drive : MATSHITA DVD-R UJ-898 (revision HA07)
Media type : Pressed CD
Ripper mode : XLD Secure Ripper
Disable audio cache : OK for the drive with a cache less than 1375KiB
Make use of C2 pointers : NO
Read offset correction : 102
Max retry count : 20
Gap status : Analyzed, Appended (except HTOA)
TOC of the extracted CD
Track | Start | Length | Start sector | End sector
---------------------------------------------------------
1 | 00:00:00 | 03:38:12 | 0 | 16361
2 | 03:38:12 | 03:25:54 | 16362 | 31790
3 | 07:03:66 | 03:19:65 | 31791 | 46780
4 | 10:23:56 | 02:27:71 | 46781 | 57876
5 | 12:51:52 | 03:06:01 | 57877 | 71827
6 | 15:57:53 | 04:12:57 | 71828 | 90784
7 | 20:10:35 | 11:18:42 | 90785 | 141676
8 | 31:29:02 | 03:43:69 | 141677 | 158470
9 | 35:12:71 | 03:47:47 | 158471 | 175542
10 | 39:00:43 | 07:07:16 | 175543 | 207583
AccurateRip Summary (DiscID: 000f3d2b-007e2f0b-720acf0a)
Track 01 : OK (v1+v2, confidence 4/4)
Track 02 : OK (v1+v2, confidence 4/4)
Track 03 : OK (v1+v2, confidence 4/4)
Track 04 : OK (v1+v2, confidence 4/4)
Track 05 : OK (v1+v2, confidence 4/4)
Track 06 : OK (v1+v2, confidence 4/4)
Track 07 : OK (v1+v2, confidence 4/4)
Track 08 : OK (v1+v2, confidence 4/4)
Track 09 : OK (v1+v2, confidence 4/4)
Track 10 : OK (v1+v2, confidence 4/4)
->All tracks accurately ripped.
All Tracks
Album gain : 0.05 dB
Peak : 1.000000
Statistics
Read error : 0
Jitter error (maybe fixed) : 0
Retry sector count : 0
Damaged sector count : 0
Track 01
Filename : /Volumes/MUSIC/T/Giovanni Pacini - Alessandro Nell'Indie (2007) [FLAC]/CD2/01 - Act I. Scene VIII. Coro e Cavatina di Alessandro - Su le palme, su gli allori (Chorus).flac
Pre-gap length : 00:02:00
Track gain : 0.40 dB
Peak : 0.655975
CRC32 hash (test run) : F19919BA
CRC32 hash : F19919BA
CRC32 hash (skip zero) : ED2A50E2
AccurateRip v1 signature : 361E9711
AccurateRip v2 signature : 82A0D356
->Accurately ripped (v1+v2, confidence 2+2/4)
Statistics
Read error : 0
Jitter error (maybe fixed) : 0
Retry sector count : 0
Damaged sector count : 0
Track 02
Filename : /Volumes/MUSIC/T/Giovanni Pacini - Alessandro Nell'Indie (2007) [FLAC]/CD2/02 - Act I. Scene VIII. Coro e Cavatina di Alessandro - Omai sia tregua all'armi (Alessandro, Chorus).flac
Track gain : 2.96 dB
Peak : 0.563995
CRC32 hash (test run) : 622392D9
CRC32 hash : 622392D9
CRC32 hash (skip zero) : 8C4A9937
AccurateRip v1 signature : 5B6FBE9F
AccurateRip v2 signature : 008F5AF3
->Accurately ripped (v1+v2, confidence 2+2/4)
Statistics
Read error : 0
Jitter error (maybe fixed) : 0
Retry sector count : 0
Damaged sector count : 0
Track 03
Filename : /Volumes/MUSIC/T/Giovanni Pacini - Alessandro Nell'Indie (2007) [FLAC]/CD2/03 - Act I. Scene VIII. Coro e Cavatina di Alessandro - Perche, fra tanti affetti (Alessandro, Chorus).flac
Track gain : 2.74 dB
Peak : 0.520630
CRC32 hash (test run) : 4AAD0567
CRC32 hash : 4AAD0567
CRC32 hash (skip zero) : A46B9E3D
AccurateRip v1 signature : 2E968E60
AccurateRip v2 signature : 9B42892A
->Accurately ripped (v1+v2, confidence 2+2/4)
Statistics
Read error : 0
Jitter error (maybe fixed) : 0
Retry sector count : 0
Damaged sector count : 0
Track 04
Filename : /Volumes/MUSIC/T/Giovanni Pacini - Alessandro Nell'Indie (2007) [FLAC]/CD2/04 - Act I. Scene VIII. Recitativo - Le disperse falangi (Alessandro, Timagene).flac
Track gain : 7.11 dB
Peak : 0.529877
CRC32 hash (test run) : 64ACCCD6
CRC32 hash : 64ACCCD6
CRC32 hash (skip zero) : 33E67E96
AccurateRip v1 signature : 6EE9E13B
AccurateRip v2 signature : D5751140
->Accurately ripped (v1+v2, confidence 2+2/4)
Statistics
Read error : 0
Jitter error (maybe fixed) : 0
Retry sector count : 0
Damaged sector count : 0
Track 05
Filename : /Volumes/MUSIC/T/Giovanni Pacini - Alessandro Nell'Indie (2007) [FLAC]/CD2/05 - Act I. Scene VIII, IX. Coro - Ella viene (Timagene, Alessandro, Chorus).flac
Track gain : -2.00 dB
Peak : 0.872223
CRC32 hash (test run) : C43A6809
CRC32 hash : C43A6809
CRC32 hash (skip zero) : E8FCDC3C
AccurateRip v1 signature : 765FB0BB
AccurateRip v2 signature : 98F2BA6F
->Accurately ripped (v1+v2, confidence 2+2/4)
Statistics
Read error : 0
Jitter error (maybe fixed) : 0
Retry sector count : 0
Damaged sector count : 0
Track 06
Filename : /Volumes/MUSIC/T/Giovanni Pacini - Alessandro Nell'Indie (2007) [FLAC]/CD2/06 - Act I. Scene IX. Recitativo e Duetto - Cio ch'io t'offro (Cleofide, Alessandro).flac
Track gain : 4.71 dB
Peak : 0.761078
CRC32 hash (test run) : ABB58554
CRC32 hash : ABB58554
CRC32 hash (skip zero) : 70402327
AccurateRip v1 signature : BD02A017
AccurateRip v2 signature : 460C2DFB
->Accurately ripped (v1+v2, confidence 2+2/4)
Statistics
Read error : 0
Jitter error (maybe fixed) : 0
Retry sector count : 0
Damaged sector count : 0
Track 07
Filename : /Volumes/MUSIC/T/Giovanni Pacini - Alessandro Nell'Indie (2007) [FLAC]/CD2/07 - Act I. Scene IX. Recitativo e Duetto - Nel duolo in cui mi vedo (Cleofide, Alessandro).flac
Track gain : 0.38 dB
Peak : 0.978027
CRC32 hash (test run) : D013FD47
CRC32 hash : D013FD47
CRC32 hash (skip zero) : 9E96A90B
AccurateRip v1 signature : CF15E8E7
AccurateRip v2 signature : 899268DF
->Accurately ripped (v1+v2, confidence 2+2/4)
Statistics
Read error : 0
Jitter error (maybe fixed) : 0
Retry sector count : 0
Damaged sector count : 0
Track 08
Filename : /Volumes/MUSIC/T/Giovanni Pacini - Alessandro Nell'Indie (2007) [FLAC]/CD2/08 - Act I. Scene X, XI. Finale Primo - Monarca, il duce Asbite (Timagene, Cleofide, Alessandro, Poro, Macedonians, Indians).flac
Track gain : 0.18 dB
Peak : 0.990692
CRC32 hash (test run) : 44CE2F4D
CRC32 hash : 44CE2F4D
CRC32 hash (skip zero) : 8642D40A
AccurateRip v1 signature : AEABCFD8
AccurateRip v2 signature : 6FDC6260
->Accurately ripped (v1+v2, confidence 2+2/4)
Statistics
Read error : 0
Jitter error (maybe fixed) : 0
Retry sector count : 0
Damaged sector count : 0
Track 09
Filename : /Volumes/MUSIC/T/Giovanni Pacini - Alessandro Nell'Indie (2007) [FLAC]/CD2/09 - Act I. Scene XI. Finale Primo - A que' detti posso (Alessandro, Timagene, Poro, Cleofide, Chorus).flac
Track gain : 1.92 dB
Peak : 0.592712
CRC32 hash (test run) : 70949F8D
CRC32 hash : 70949F8D
CRC32 hash (skip zero) : 7CAE19FD
AccurateRip v1 signature : 6DEFD6A6
AccurateRip v2 signature : 4D611F07
->Accurately ripped (v1+v2, confidence 2+2/4)
Statistics
Read error : 0
Jitter error (maybe fixed) : 0
Retry sector count : 0
Damaged sector count : 0
Track 10
Filename : /Volumes/MUSIC/T/Giovanni Pacini - Alessandro Nell'Indie (2007) [FLAC]/CD2/10 - Act I. Scene XI. Finale Primo - A te piu dell'Idaspe (Cleofide, Poro, Alessandro, Macedonians, Timagene, Indians).flac
Track gain : -3.67 dB
Peak : 1.000000
CRC32 hash (test run) : 51C9BB39
CRC32 hash : 51C9BB39
CRC32 hash (skip zero) : 4C60FB39
AccurateRip v1 signature : 3369194F
AccurateRip v2 signature : 4BBCCF72
->Accurately ripped (v1+v2, confidence 2+2/4)
Statistics
Read error : 0
Jitter error (maybe fixed) : 0
Retry sector count : 0
Damaged sector count : 0
No errors occurred
End of status report
-----BEGIN XLD SIGNATURE-----
GH89gVUKge9IUaJWeS8DXARoj5v_YROgc.9sySwBIJiT2oZRqGleYlJLSsi.0l.HdaTVHVfc73IFmVKRPi_IUVFKadR8p1IPFie3g2u
-----END XLD SIGNATURE-----

CD3

X Lossless Decoder version 20131102 (145.0)
XLD extraction logfile from 2013-11-25 18:44:16 +0100
Ford, Larmore, Claycomb, Robinson, Wilde, Parry / Pacini - Alessandro Nell'Indie [CD3]
Used drive : MATSHITA DVD-R UJ-898 (revision HA07)
Media type : Pressed CD
Ripper mode : XLD Secure Ripper
Disable audio cache : OK for the drive with a cache less than 1375KiB
Make use of C2 pointers : NO
Read offset correction : 102
Max retry count : 20
Gap status : Analyzed, Appended (except HTOA)
TOC of the extracted CD
Track | Start | Length | Start sector | End sector
---------------------------------------------------------
1 | 00:00:00 | 02:15:17 | 0 | 10141
2 | 02:15:17 | 01:28:70 | 10142 | 16811
3 | 03:44:12 | 01:21:49 | 16812 | 22935
4 | 05:05:61 | 01:13:01 | 22936 | 28411
5 | 06:18:62 | 01:36:08 | 28412 | 35619
6 | 07:54:70 | 05:48:60 | 35620 | 61779
7 | 13:43:55 | 03:50:30 | 61780 | 79059
8 | 17:34:10 | 06:07:07 | 79060 | 106591
9 | 23:41:17 | 02:30:60 | 106592 | 117901
10 | 26:12:02 | 02:45:08 | 117902 | 130284
11 | 28:57:10 | 00:36:13 | 130285 | 132997
12 | 29:33:23 | 03:08:51 | 132998 | 147148
13 | 32:41:74 | 01:17:42 | 147149 | 152965
14 | 33:59:41 | 05:35:71 | 152966 | 178161
15 | 39:35:37 | 00:34:72 | 178162 | 180783
16 | 40:10:34 | 02:58:66 | 180784 | 194199
17 | 43:09:25 | 01:58:32 | 194200 | 203081
18 | 45:07:57 | 01:06:71 | 203082 | 208102
19 | 46:14:53 | 01:31:43 | 208103 | 214970
20 | 47:46:21 | 02:26:58 | 214971 | 225978
21 | 50:13:04 | 02:45:00 | 225979 | 238353
22 | 52:58:04 | 04:21:46 | 238354 | 257974
23 | 57:19:50 | 03:29:48 | 257975 | 273697
24 | 60:49:23 | 07:06:70 | 273698 | 305717
AccurateRip Summary (DiscID: 0035c460-03adb176-530fec18)
Track 01 : OK (v1+v2, confidence 4/4)
Track 02 : OK (v1+v2, confidence 4/4)
Track 03 : OK (v1+v2, confidence 4/4)
Track 04 : OK (v1+v2, confidence 4/4)
Track 05 : OK (v1+v2, confidence 4/4)
Track 06 : OK (v1+v2, confidence 4/4)
Track 08 : OK (v1+v2, confidence 4/4)
Track 09 : OK (v1+v2, confidence 4/4)
Track 10 : OK (v1+v2, confidence 4/4)
Track 12 : OK (v1+v2, confidence 4/4)
Track 13 : OK (v1+v2, confidence 4/4)
Track 14 : OK (v1+v2, confidence 4/4)
Track 15 : OK (v1+v2, confidence 4/4)
Track 16 : OK (v1+v2, confidence 4/4)
Track 17 : OK (v1+v2, confidence 4/4)
Track 18 : OK (v1+v2, confidence 4/4)
Track 19 : OK (v1+v2, confidence 4/4)
Track 20 : OK (v1+v2, confidence 4/4)
Track 21 : OK (v1+v2, confidence 4/4)
Track 22 : OK (v1+v2, confidence 4/4)
Track 23 : OK (v1+v2, confidence 4/4)
Track 24 : OK (v1+v2, confidence 4/4)
->All tracks accurately ripped.
All Tracks
Statistics
Read error : 0
Jitter error (maybe fixed) : 0
Retry sector count : 0
Damaged sector count : 0
Track 01
Filename : /Volumes/MUSIC/T/Giovanni Pacini - Alessandro Nell'Indie (2007) [FLAC]/CD3/01 - Act II. Scene I. Coro - Serva ad eroe si grande (Chorus of Indians).flac
Pre-gap length : 00:02:00
Track gain : -4.18 dB
Peak : 1.000000
CRC32 hash (test run) : 79499F16
CRC32 hash : 79499F16
CRC32 hash (skip zero) : 1FF86FA0
AccurateRip v1 signature : 3CD861FC
AccurateRip v2 signature : 7A6074D7
->Accurately ripped (v1+v2, confidence 2+2/4)
Statistics
Read error : 0
Jitter error (maybe fixed) : 0
Retry sector count : 0
Damaged sector count : 0
Track 02
Filename : /Volumes/MUSIC/T/Giovanni Pacini - Alessandro Nell'Indie (2007) [FLAC]/CD3/02 - Act II. Scene I. Coro - Signor, l'India festiva (Cleofide, Alessandro).flac
Track gain : 4.76 dB
Peak : 0.622162
CRC32 hash (test run) : E299BF7E
CRC32 hash : E299BF7E
CRC32 hash (skip zero) : D7E8624B
AccurateRip v1 signature : 4C89C7D8
AccurateRip v2 signature : 828B69BB
->Accurately ripped (v1+v2, confidence 2+2/4)
Statistics
Read error : 0
Jitter error (maybe fixed) : 0
Retry sector count : 0
Damaged sector count : 0
Track 03
Filename : /Volumes/MUSIC/T/Giovanni Pacini - Alessandro Nell'Indie (2007) [FLAC]/CD3/03 - Act II. Scene I. Coro - Serva ad eroe si grande (Chorus of Indians).flac
Track gain : -5.15 dB
Peak : 1.000000
CRC32 hash (test run) : AE25A41E
CRC32 hash : AE25A41E
CRC32 hash (skip zero) : 9AF3BF64
AccurateRip v1 signature : E5D1DEF2
AccurateRip v2 signature : 0DABFE7C
->Accurately ripped (v1+v2, confidence 2+2/4)
Statistics
Read error : 0
Jitter error (maybe fixed) : 0
Retry sector count : 0
Damaged sector count : 0
Track 04
Filename : /Volumes/MUSIC/T/Giovanni Pacini - Alessandro Nell'Indie (2007) [FLAC]/CD3/04 - Act II. Scene I. Coro - Strepito d'armi (Alessandro, Cleofide, Timagene).flac
Track gain : 4.22 dB
Peak : 0.605408
CRC32 hash (test run) : FDE9A8F1
CRC32 hash : FDE9A8F1
CRC32 hash (skip zero) : 57B62080
AccurateRip v1 signature : C5FD238B
AccurateRip v2 signature : 7392379B
->Accurately ripped (v1+v2, confidence 2+2/4)
Statistics
Read error : 0
Jitter error (maybe fixed) : 0
Retry sector count : 0
Damaged sector count : 0
Track 05
Filename : /Volumes/MUSIC/T/Giovanni Pacini - Alessandro Nell'Indie (2007) [FLAC]/CD3/05 - Act II. Scene I. Coro - Battaglia.flac
Track gain : 2.41 dB
Peak : 0.741608
CRC32 hash (test run) : 49F59305
CRC32 hash : 49F59305
CRC32 hash (skip zero) : 6CB336AF
AccurateRip v1 signature : F12C41F2
AccurateRip v2 signature : A876A6C2
->Accurately ripped (v1+v2, confidence 2+2/4)
Statistics
Read error : 0
Jitter error (maybe fixed) : 0
Retry sector count : 0
Damaged sector count : 0
Track 06
Filename : /Volumes/MUSIC/T/Giovanni Pacini - Alessandro Nell'Indie (2007) [FLAC]/CD3/06 - Act II. Scene II, III. Quartetto - Ma, per pieta (Cleofide, Poro, Alessandro).flac
Track gain : 2.09 dB
Peak : 0.818085
CRC32 hash (test run) : 4D649B6F
CRC32 hash : 4D649B6F
CRC32 hash (skip zero) : 387168DC
AccurateRip v1 signature : E88AAF08
AccurateRip v2 signature : E139BFAE
->Accurately ripped (v1+v2, confidence 2+2/4)
Statistics
Read error : 0
Jitter error (maybe fixed) : 0
Retry sector count : 0
Damaged sector count : 0
Track 08
Filename : /Volumes/MUSIC/T/Giovanni Pacini - Alessandro Nell'Indie (2007) [FLAC]/CD3/08 - Act II. Scene V-VIII. Scena ed Aria - Invan l'India s'affanna (Timagene, Cleofide, Gandarte, Alessandro).flac
Track gain : 7.24 dB
Peak : 0.698792
CRC32 hash (test run) : 55E6B937
CRC32 hash : 55E6B937
CRC32 hash (skip zero) : 25425063
AccurateRip v1 signature : 5935C8E9
AccurateRip v2 signature : A6B76F15
->Accurately ripped (v1+v2, confidence 2+2/4)
Statistics
Read error : 0
Jitter error (maybe fixed) : 0
Retry sector count : 0
Damaged sector count : 0
Track 09
Filename : /Volumes/MUSIC/T/Giovanni Pacini - Alessandro Nell'Indie (2007) [FLAC]/CD3/09 - Act II. Scene IX. Scena ed Aria - Oggetto si adorabile (Alessandro, Cleofide, Gandarte, Chorus).flac
Track gain : 4.15 dB
Peak : 0.517395
CRC32 hash (test run) : 5498B8E0
CRC32 hash : 5498B8E0
CRC32 hash (skip zero) : AC42864E
AccurateRip v1 signature : F9AD07F8
AccurateRip v2 signature : 9488B357
->Accurately ripped (v1+v2, confidence 2+2/4)
Statistics
Read error : 0
Jitter error (maybe fixed) : 0
Retry sector count : 0
Damaged sector count : 0
Track 10
Filename : /Volumes/MUSIC/T/Giovanni Pacini - Alessandro Nell'Indie (2007) [FLAC]/CD3/10 - Act II. Scene VIII. Scena ed Aria - S'e ver che t'accendi (Alessandro, Chorus, Cleofide, Gandarte).flac
Track gain : 1.64 dB
Peak : 0.664978
CRC32 hash (test run) : AA52C22D
CRC32 hash : AA52C22D
CRC32 hash (skip zero) : 28D21D79
AccurateRip v1 signature : BBE1B398
AccurateRip v2 signature : CFE1F6AD
->Accurately ripped (v1+v2, confidence 2+2/4)
Statistics
Read error : 0
Jitter error (maybe fixed) : 0
Retry sector count : 0
Damaged sector count : 0
Track 12
Filename : /Volumes/MUSIC/T/Giovanni Pacini - Alessandro Nell'Indie (2007) [FLAC]/CD3/12 - Act II. Scene X. Coro, Scena ed Aria - Che mai fu (Cleofide, Chorus, Gandarte).flac
Track gain : -1.27 dB
Peak : 1.000000
CRC32 hash (test run) : FE9357C4
CRC32 hash : FE9357C4
CRC32 hash (skip zero) : 7473D3F3
AccurateRip v1 signature : 53CF1D47
AccurateRip v2 signature : 98CB1DCF
->Accurately ripped (v1+v2, confidence 2+2/4)
Statistics
Read error : 0
Jitter error (maybe fixed) : 0
Retry sector count : 0
Damaged sector count : 0
Track 13
Filename : /Volumes/MUSIC/T/Giovanni Pacini - Alessandro Nell'Indie (2007) [FLAC]/CD3/13 - Act II. Scene X. Coro, Scena ed Aria - Che mi giovo sull'are (Gandarte, Cleofide).flac
Track gain : 2.02 dB
Peak : 0.675934
CRC32 hash (test run) : 72895AAA
CRC32 hash : 72895AAA
CRC32 hash (skip zero) : 343354F7
AccurateRip v1 signature : 26136E83
AccurateRip v2 signature : AD0A0721
->Accurately ripped (v1+v2, confidence 2+2/4)
Statistics
Read error : 0
Jitter error (maybe fixed) : 0
Retry sector count : 0
Damaged sector count : 0
Track 14
Filename : /Volumes/MUSIC/T/Giovanni Pacini - Alessandro Nell'Indie (2007) [FLAC]/CD3/14 - Act II. Scene X. Coro, Scena ed Aria - Del caro mio consorte (Gandarte, Chorus, Cleofide).flac
Track gain : 1.13 dB
Peak : 1.000000
CRC32 hash (test run) : CFBCF174
CRC32 hash : CFBCF174
CRC32 hash (skip zero) : 74661258
AccurateRip v1 signature : 6845BB43
AccurateRip v2 signature : B0D08F0E
->Accurately ripped (v1+v2, confidence 2+2/4)
Statistics
Read error : 0
Jitter error (maybe fixed) : 0
Retry sector count : 0
Damaged sector count : 0
Track 15
Filename : /Volumes/MUSIC/T/Giovanni Pacini - Alessandro Nell'Indie (2007) [FLAC]/CD3/15 - Act II. Scene X. Coro, Scena ed Aria - A tanto martoro (Gandarte, Chorus).flac
Track gain : -0.91 dB
Peak : 0.885559
CRC32 hash (test run) : 3D3081DF
CRC32 hash : 3D3081DF
CRC32 hash (skip zero) : 1CC660A2
AccurateRip v1 signature : AF83225C
AccurateRip v2 signature : 63CBC82F
->Accurately ripped (v1+v2, confidence 2+2/4)
Statistics
Read error : 0
Jitter error (maybe fixed) : 0
Retry sector count : 0
Damaged sector count : 0
Track 16
Filename : /Volumes/MUSIC/T/Giovanni Pacini - Alessandro Nell'Indie (2007) [FLAC]/CD3/16 - Act II. Scene X. Coro, Scena ed Aria - Mio ben, mio tesoro (Cleofide).flac
Track gain : -0.78 dB
Peak : 0.865112
CRC32 hash (test run) : 3EDB2385
CRC32 hash : 3EDB2385
CRC32 hash (skip zero) : 718BCD05
AccurateRip v1 signature : 9D1F7615
AccurateRip v2 signature : FC40D29E
->Accurately ripped (v1+v2, confidence 2+2/4)
Statistics
Read error : 0
Jitter error (maybe fixed) : 0
Retry sector count : 0
Damaged sector count : 0
Track 17
Filename : /Volumes/MUSIC/T/Giovanni Pacini - Alessandro Nell'Indie (2007) [FLAC]/CD3/17 - Act II. Scene XI, XII. Coro, Scena ed Aria - Poro infelice (Gandarte, Poro).flac
Track gain : 8.46 dB
Peak : 0.432159
CRC32 hash (test run) : 951BB158
CRC32 hash : 951BB158
CRC32 hash (skip zero) : B12A400E
AccurateRip v1 signature : 10D44B61
AccurateRip v2 signature : C7A2E7D0
->Accurately ripped (v1+v2, confidence 2+2/4)
Statistics
Read error : 0
Jitter error (maybe fixed) : 0
Retry sector count : 0
Damaged sector count : 0
Track 18
Filename : /Volumes/MUSIC/T/Giovanni Pacini - Alessandro Nell'Indie (2007) [FLAC]/CD3/18 - Act II. Scene XIII. Coro, Scena ed Aria - Stupir mi fai (Alessandro, Timagene).flac
Track gain : 9.02 dB
Peak : 0.237305
CRC32 hash (test run) : DE0E4A9D
CRC32 hash : DE0E4A9D
CRC32 hash (skip zero) : 227F4AD0
AccurateRip v1 signature : 999B5D37
AccurateRip v2 signature : FA77EAEB
->Accurately ripped (v1+v2, confidence 2+2/4)
Statistics
Read error : 0
Jitter error (maybe fixed) : 0
Retry sector count : 0
Damaged sector count : 0
Track 19
Filename : /Volumes/MUSIC/T/Giovanni Pacini - Alessandro Nell'Indie (2007) [FLAC]/CD3/19 - Act II. Scene XIV. Coro, Scena ed Aria - Signor, fermati (Gandarte, Poro).flac
Track gain : 4.98 dB
Peak : 0.510712
CRC32 hash (test run) : 8116810D
CRC32 hash : 8116810D
CRC32 hash (skip zero) : FCE8E7A3
AccurateRip v1 signature : 14E17922
AccurateRip v2 signature : 5009E7F4
->Accurately ripped (v1+v2, confidence 2+2/4)
Statistics
Read error : 0
Jitter error (maybe fixed) : 0
Retry sector count : 0
Damaged sector count : 0
Track 20
Filename : /Volumes/MUSIC/T/Giovanni Pacini - Alessandro Nell'Indie (2007) [FLAC]/CD3/20 - Act II. Scene the Last. Coro - Dagli astri discendi (Chorus).flac
Track gain : -0.23 dB
Peak : 1.000000
CRC32 hash (test run) : 9FFB68AB
CRC32 hash : 9FFB68AB
CRC32 hash (skip zero) : 97D70346
AccurateRip v1 signature : E456DED1
AccurateRip v2 signature : C3055B61
->Accurately ripped (v1+v2, confidence 2+2/4)
Statistics
Read error : 0
Jitter error (maybe fixed) : 0
Retry sector count : 0
Damaged sector count : 0
Track 21
Filename : /Volumes/MUSIC/T/Giovanni Pacini - Alessandro Nell'Indie (2007) [FLAC]/CD3/21 - Act II. Scene the Last. Coro - Nell'odorata pira (All).flac
Track gain : 3.09 dB
Peak : 0.682281
CRC32 hash (test run) : 4875E26A
CRC32 hash : 4875E26A
CRC32 hash (skip zero) : CE66E4E8
AccurateRip v1 signature : 076A19FA
AccurateRip v2 signature : BFF42C6C
->Accurately ripped (v1+v2, confidence 2+2/4)
Statistics
Read error : 0
Jitter error (maybe fixed) : 0
Retry sector count : 0
Damaged sector count : 0
Track 22
Filename : /Volumes/MUSIC/T/Giovanni Pacini - Alessandro Nell'Indie (2007) [FLAC]/CD3/22 - Act II. Scene the Last. Finale Secondo - Risolver non oso (All).flac
Track gain : 6.75 dB
Peak : 0.443939
CRC32 hash (test run) : 87D44B0B
CRC32 hash : 87D44B0B
CRC32 hash (skip zero) : 0D267D7C
AccurateRip v1 signature : 56026942
AccurateRip v2 signature : 81B78281
->Accurately ripped (v1+v2, confidence 2+2/4)
Statistics
Read error : 0
Jitter error (maybe fixed) : 0
Retry sector count : 0
Damaged sector count : 0
Track 23
Filename : /Volumes/MUSIC/T/Giovanni Pacini - Alessandro Nell'Indie (2007) [FLAC]/CD3/23 - Act II. Scene the Last. Finale Secondo - Ah, si mora una volta (All).flac
Track gain : 4.19 dB
Peak : 0.885742
CRC32 hash (test run) : 54912082
CRC32 hash : 54912082
CRC32 hash (skip zero) : F7260811
AccurateRip v1 signature : A93A7A81
AccurateRip v2 signature : 7A92795D
->Accurately ripped (v1+v2, confidence 2+2/4)
Statistics
Read error : 0
Jitter error (maybe fixed) : 0
Retry sector count : 0
Damaged sector count : 0
Track 24
Filename : /Volumes/MUSIC/T/Giovanni Pacini - Alessandro Nell'Indie (2007) [FLAC]/CD3/24 - Act II. Scene the Last. Finale Secondo - Su l'armi e su gli affetti (All).flac
Track gain : -2.05 dB
Peak : 1.000000
CRC32 hash (test run) : B9A084F6
CRC32 hash : B9A084F6
CRC32 hash (skip zero) : 0EDBD67B
AccurateRip v1 signature : C2EBDF95
AccurateRip v2 signature : 1B710196
->Accurately ripped (v1+v2, confidence 2+2/4)
Statistics
Read error : 0
Jitter error (maybe fixed) : 0
Retry sector count : 0
Damaged sector count : 0
No errors occurred
End of status report
-----BEGIN XLD SIGNATURE-----
7.sEEFqH.8Ax2OcmBR5iKWgmtzeI2vZH0FneZff_EImCVG0tPueQ0Pjlw221Ed4v5YjvYqRmnhur00FMsW78U0nKsY04OB1q7JYICf4
-----END XLD SIGNATURE-----

Содержание индексной карты (.CUE)

CD1

TITLE "Pacini - Alessandro Nell'Indie [CD1]"
PERFORMER "Ford, Larmore, Claycomb, Robinson, Wilde, Parry"
REM GENRE "Classical, Opera"
REM DATE "2007"
REM DISCNUMBER 1
REM TOTALDISCS 3
REM DISCID CA0B1F0E
FILE "01 - [Alessandro Nell'Indie] Act I - Sinfonia.wav" WAVE
TRACK 01 AUDIO
TITLE "[Alessandro Nell'Indie] Act I - Sinfonia"
PERFORMER "London Philharmonic Orchestra, David Parry"
SONGWRITER "Giovanni Pacini"
ISRC GBQXY0700113
INDEX 01 00:00:00
FILE "02 - Act I. Scene I. Introduzione - Nume propizio (Chorus).wav" WAVE
TRACK 02 AUDIO
TITLE "Act I. Scene I. Introduzione - Nume propizio (Chorus)"
PERFORMER "Geoffrey Mitchell Choir, London Philharmonic Orchestra, David Parry"
SONGWRITER "Giovanni Pacini"
ISRC GBQXY0700114
INDEX 01 00:00:00
FILE "03 - Act I. Scene II. Introduzione - Al suon di mesti accenti (Cleofide).wav" WAVE
TRACK 03 AUDIO
TITLE "Act I. Scene II. Introduzione - Al suon di mesti accenti (Cleofide)"
PERFORMER "Laura Claycomb, London Philharmonic Orchestra, David Parry"
SONGWRITER "Giovanni Pacini"
ISRC GBQXY0700115
INDEX 01 00:00:00
FILE "04 - Act I. Scene II. Introduzione - Se d'amor fra le ritorte (Chorus, Cleofide).wav" WAVE
TRACK 04 AUDIO
TITLE "Act I. Scene II. Introduzione - Se d'amor fra le ritorte (Chorus, Cleofide)"
PERFORMER "Laura Claycomb, Geoffrey Mitchell Choir, London Philharmonic Orchestra, David Parry"
SONGWRITER "Giovanni Pacini"
ISRC GBQXY0700116
INDEX 01 00:00:00
FILE "05 - Act I. Scene II. Introduzione - Se fosse a me vicino (Cleofide, Chorus).wav" WAVE
TRACK 05 AUDIO
TITLE "Act I. Scene II. Introduzione - Se fosse a me vicino (Cleofide, Chorus)"
PERFORMER "Laura Claycomb, Geoffrey Mitchell Choir, London Philharmonic Orchestra, David Parry"
SONGWRITER "Giovanni Pacini"
ISRC GBQXY0700117
INDEX 01 00:00:00
FILE "06 - Act I. Scene III. Introduzione - E' perduta dell'India la speme (2nd Chorus, Cleofide, 1st Chorus, All).wav" WAVE
TRACK 06 AUDIO
TITLE "Act I. Scene III. Introduzione - E' perduta dell'India la speme (2nd Chorus, Cleofide, 1st Chorus, All)"
PERFORMER "Laura Claycomb, Geoffrey Mitchell Choir, London Philharmonic Orchestra, David Parry"
SONGWRITER "Giovanni Pacini"
ISRC GBQXY0700118
INDEX 01 00:00:00
FILE "07 - Act I. Scene III. Coro e Recitativo - Giorno terribile (Cleofide & Chorus).wav" WAVE
TRACK 07 AUDIO
TITLE "Act I. Scene III. Coro e Recitativo - Giorno terribile (Cleofide & Chorus)"
PERFORMER "Laura Claycomb, Geoffrey Mitchell Choir, London Philharmonic Orchestra, David Parry"
SONGWRITER "Giovanni Pacini"
ISRC GBQXY0700119
INDEX 01 00:00:00
FILE "08 - Act I. Scene III-V. Coro e Recitativo - Deh, ritornate in campo (Cleofide, Gandarte, Poro).wav" WAVE
TRACK 08 AUDIO
TITLE "Act I. Scene III-V. Coro e Recitativo - Deh, ritornate in campo (Cleofide, Gandarte, Poro)"
PERFORMER "Laura Claycomb, Mark Wilde, Jennifer Larmore, London Philharmonic Orchestra, David Parry"
SONGWRITER "Giovanni Pacini"
ISRC GBQXY0700120
INDEX 01 00:00:00
FILE "09 - Act I. Scene V. Duetto - Piu tollerar non posso (Cleofide, Poro).wav" WAVE
TRACK 09 AUDIO
TITLE "Act I. Scene V. Duetto - Piu tollerar non posso (Cleofide, Poro)"
PERFORMER "Laura Claycomb, Jennifer Larmore, London Philharmonic Orchestra, David Parry"
SONGWRITER "Giovanni Pacini"
ISRC GBQXY0700121
INDEX 01 00:00:00
FILE "10 - Act I. Scene V. Duetto - Se cangiar potessi in seno (Cleofide & Poro).wav" WAVE
TRACK 10 AUDIO
TITLE "Act I. Scene V. Duetto - Se cangiar potessi in seno (Cleofide & Poro)"
PERFORMER "Laura Claycomb, Jennifer Larmore, London Philharmonic Orchestra, David Parry"
SONGWRITER "Giovanni Pacini"
ISRC GBQXY0700122
INDEX 01 00:00:00
FILE "11 - Act I. Scene V. Duetto - Ancor non m'assicuro (Cleofide & Poro).wav" WAVE
TRACK 11 AUDIO
TITLE "Act I. Scene V. Duetto - Ancor non m'assicuro (Cleofide & Poro)"
PERFORMER "Laura Claycomb, Jennifer Larmore, London Philharmonic Orchestra, David Parry"
SONGWRITER "Giovanni Pacini"
ISRC GBQXY0700123
INDEX 01 00:00:00
FILE "12 - Act I. Scene VI. Doppo il Duetto - Regina, a te ritorna (Gandarte, Poro & Cleofide, Chorus).wav" WAVE
TRACK 12 AUDIO
TITLE "Act I. Scene VI. Doppo il Duetto - Regina, a te ritorna (Gandarte, Poro & Cleofide, Chorus)"
PERFORMER "Mark Wilde, Jennifer Larmore, Laura Claycomb, Geoffrey Mitchell Choir, London Philharmonic Orchestra, David Parry"
SONGWRITER "Giovanni Pacini"
ISRC GBQXY0700124
INDEX 01 00:00:00
FILE "13 - Act I. Scene VII. Recitativo e Coro - Seguirla io vo (Poro, Gandarte).wav" WAVE
TRACK 13 AUDIO
TITLE "Act I. Scene VII. Recitativo e Coro - Seguirla io vo (Poro, Gandarte)"
PERFORMER "Jennifer Larmore, Mark Wilde, London Philharmonic Orchestra, David Parry"
SONGWRITER "Giovanni Pacini"
ISRC GBQXY0700125
INDEX 01 00:00:00
FILE "14 - Act I. Scene VII. Aria di Poro - Se possono tanto (Poro).wav" WAVE
TRACK 14 AUDIO
TITLE "Act I. Scene VII. Aria di Poro - Se possono tanto (Poro)"
PERFORMER "Jennifer Larmore, London Philharmonic Orchestra, David Parry"
SONGWRITER "Giovanni Pacini"
ISRC GBQXY0700126
INDEX 01 00:00:00

CD2

TITLE "Pacini - Alessandro Nell'Indie [CD2]"
PERFORMER "Ford, Larmore, Claycomb, Robinson, Wilde, Parry"
REM GENRE "Classical, Opera"
REM DATE "2007"
REM DISCNUMBER 2
REM TOTALDISCS 3
REM DISCID 720ACF0A
FILE "01 - Act I. Scene VIII. Coro e Cavatina di Alessandro - Su le palme, su gli allori (Chorus).wav" WAVE
TRACK 01 AUDIO
TITLE "Act I. Scene VIII. Coro e Cavatina di Alessandro - Su le palme, su gli allori (Chorus)"
PERFORMER "Geoffrey Mitchell Choir, London Philharmonic Orchestra, David Parry"
SONGWRITER "Giovanni Pacini"
ISRC GBQXY0700127
INDEX 01 00:00:00
FILE "02 - Act I. Scene VIII. Coro e Cavatina di Alessandro - Omai sia tregua all'armi (Alessandro, Chorus).wav" WAVE
TRACK 02 AUDIO
TITLE "Act I. Scene VIII. Coro e Cavatina di Alessandro - Omai sia tregua all'armi (Alessandro, Chorus)"
PERFORMER "Bruce Ford, Geoffrey Mitchell Choir, London Philharmonic Orchestra, David Parry"
SONGWRITER "Giovanni Pacini"
ISRC GBQXY0700128
INDEX 01 00:00:00
FILE "03 - Act I. Scene VIII. Coro e Cavatina di Alessandro - Perche, fra tanti affetti (Alessandro, Chorus).wav" WAVE
TRACK 03 AUDIO
TITLE "Act I. Scene VIII. Coro e Cavatina di Alessandro - Perche, fra tanti affetti (Alessandro, Chorus)"
PERFORMER "Bruce Ford, Geoffrey Mitchell Choir, London Philharmonic Orchestra, David Parry"
SONGWRITER "Giovanni Pacini"
ISRC GBQXY0700129
INDEX 01 00:00:00
FILE "04 - Act I. Scene VIII. Recitativo - Le disperse falangi (Alessandro, Timagene).wav" WAVE
TRACK 04 AUDIO
TITLE "Act I. Scene VIII. Recitativo - Le disperse falangi (Alessandro, Timagene)"
PERFORMER "Bruce Ford, Dean Robinson, London Philharmonic Orchestra, David Parry"
SONGWRITER "Giovanni Pacini"
ISRC GBQXY0700130
INDEX 01 00:00:00
FILE "05 - Act I. Scene VIII, IX. Coro - Ella viene (Timagene, Alessandro, Chorus).wav" WAVE
TRACK 05 AUDIO
TITLE "Act I. Scene VIII, IX. Coro - Ella viene (Timagene, Alessandro, Chorus)"
PERFORMER "Dean Robinson, Bruce Ford, Geoffrey Mitchell Choir, London Philharmonic Orchestra, David Parry"
SONGWRITER "Giovanni Pacini"
ISRC GBQXY0700131
INDEX 01 00:00:00
FILE "06 - Act I. Scene IX. Recitativo e Duetto - Cio ch'io t'offro (Cleofide, Alessandro).wav" WAVE
TRACK 06 AUDIO
TITLE "Act I. Scene IX. Recitativo e Duetto - Cio ch'io t'offro (Cleofide, Alessandro)"
PERFORMER "Laura Claycomb, Bruce Ford, London Philharmonic Orchestra, David Parry"
SONGWRITER "Giovanni Pacini"
ISRC GBQXY0700132
INDEX 01 00:00:00
FILE "07 - Act I. Scene IX. Recitativo e Duetto - Nel duolo in cui mi vedo (Cleofide, Alessandro).wav" WAVE
TRACK 07 AUDIO
TITLE "Act I. Scene IX. Recitativo e Duetto - Nel duolo in cui mi vedo (Cleofide, Alessandro)"
PERFORMER "Laura Claycomb, Bruce Ford, London Philharmonic Orchestra, David Parry"
SONGWRITER "Giovanni Pacini"
ISRC GBQXY0700133
INDEX 01 00:00:00
FILE "08 - Act I. Scene X, XI. Finale Primo - Monarca, il duce Asbite (Timagene, Cleofide, Alessandro, Poro, Macedonians, Indians).wav" WAVE
TRACK 08 AUDIO
TITLE "Act I. Scene X, XI. Finale Primo - Monarca, il duce Asbite (Timagene, Cleofide, Alessandro, Poro, Macedonians, Indians)"
PERFORMER "Dean Robinson, Laura Claycomb, Bruce Ford, Jennifer Larmore, Geoffrey Mitchell Choir, London Philharmonic Orchestra, David Parry"
SONGWRITER "Giovanni Pacini"
ISRC GBQXY0700134
INDEX 01 00:00:00
FILE "09 - Act I. Scene XI. Finale Primo - A que' detti posso (Alessandro, Timagene, Poro, Cleofide, Chorus).wav" WAVE
TRACK 09 AUDIO
TITLE "Act I. Scene XI. Finale Primo - A que' detti posso (Alessandro, Timagene, Poro, Cleofide, Chorus)"
PERFORMER "Bruce Ford, Dean Robinson, Jennifer Larmore, Laura Claycomb, Geoffrey Mitchell Choir, London Philharmonic Orchestra, David Parry"
SONGWRITER "Giovanni Pacini"
ISRC GBQXY0700135
INDEX 01 00:00:00
FILE "10 - Act I. Scene XI. Finale Primo - A te piu dell'Idaspe (Cleofide, Poro, Alessandro, Macedonians, Timagene, Indians).wav" WAVE
TRACK 10 AUDIO
TITLE "Act I. Scene XI. Finale Primo - A te piu dell'Idaspe (Cleofide, Poro, Alessandro, Macedonians, Timagene, Indians)"
PERFORMER "Laura Claycomb, Jennifer Larmore, Bruce Ford, Dean Robinson, Geoffrey Mitchell Choir, London Philharmonic Orchestra, David Parry"
SONGWRITER "Giovanni Pacini"
ISRC GBQXY0700136
INDEX 01 00:00:00

CD3

TITLE "Pacini - Alessandro Nell'Indie [CD3]"
PERFORMER "Ford, Larmore, Claycomb, Robinson, Wilde, Parry"
REM GENRE "Classical, Opera"
REM DATE "2007"
REM DISCNUMBER 3
REM TOTALDISCS 3
REM DISCID 530FEC18
FILE "01 - Act II. Scene I. Coro - Serva ad eroe si grande (Chorus of Indians).wav" WAVE
TRACK 01 AUDIO
TITLE "Act II. Scene I. Coro - Serva ad eroe si grande (Chorus of Indians)"
PERFORMER "Geoffrey Mitchell Choir, London Philharmonic Orchestra, David Parry"
SONGWRITER "Giovanni Pacini"
ISRC GBQXY0700137
INDEX 01 00:00:00
FILE "02 - Act II. Scene I. Coro - Signor, l'India festiva (Cleofide, Alessandro).wav" WAVE
TRACK 02 AUDIO
TITLE "Act II. Scene I. Coro - Signor, l'India festiva (Cleofide, Alessandro)"
PERFORMER "Laura Claycomb, Bruce Ford, London Philharmonic Orchestra, David Parry"
SONGWRITER "Giovanni Pacini"
ISRC GBQXY0700138
INDEX 01 00:00:00
FILE "03 - Act II. Scene I. Coro - Serva ad eroe si grande (Chorus of Indians).wav" WAVE
TRACK 03 AUDIO
TITLE "Act II. Scene I. Coro - Serva ad eroe si grande (Chorus of Indians)"
PERFORMER "Geoffrey Mitchell Choir, London Philharmonic Orchestra, David Parry"
SONGWRITER "Giovanni Pacini"
ISRC GBQXY0700139
INDEX 01 00:00:00
FILE "04 - Act II. Scene I. Coro - Strepito d'armi (Alessandro, Cleofide, Timagene).wav" WAVE
TRACK 04 AUDIO
TITLE "Act II. Scene I. Coro - Strepito d'armi (Alessandro, Cleofide, Timagene)"
PERFORMER "Bruce Ford, Laura Claycomb, Dean Robinson, London Philharmonic Orchestra, David Parry"
SONGWRITER "Giovanni Pacini"
ISRC GBQXY0700140
INDEX 01 00:00:00
FILE "05 - Act II. Scene I. Coro - Battaglia.wav" WAVE
TRACK 05 AUDIO
TITLE "Act II. Scene I. Coro - Battaglia"
PERFORMER "London Philharmonic Orchestra, David Parry"
SONGWRITER "Giovanni Pacini"
ISRC GBQXY0700141
INDEX 01 00:00:00
FILE "06 - Act II. Scene II, III. Quartetto - Ma, per pieta (Cleofide, Poro, Alessandro).wav" WAVE
TRACK 06 AUDIO
TITLE "Act II. Scene II, III. Quartetto - Ma, per pieta (Cleofide, Poro, Alessandro)"
PERFORMER "Laura Claycomb, Jennifer Larmore, Bruce Ford, London Philharmonic Orchestra, David Parry"
SONGWRITER "Giovanni Pacini"
ISRC GBQXY0700142
INDEX 01 00:00:00
FILE "07 - Act II. Scene IV. Quartetto - A sedar le greche schiere (Timagene, Alessandro, Poro, Cleofide).wav" WAVE
TRACK 07 AUDIO
TITLE "Act II. Scene IV. Quartetto - A sedar le greche schiere (Timagene, Alessandro, Poro, Cleofide)"
PERFORMER "Dean Robinson, Bruce Ford, Jennifer Larmore, Laura Claycomb, London Philharmonic Orchestra, David Parry"
SONGWRITER "Giovanni Pacini"
ISRC GBQXY0700143
INDEX 01 00:00:00
FILE "08 - Act II. Scene V-VIII. Scena ed Aria - Invan l'India s'affanna (Timagene, Cleofide, Gandarte, Alessandro).wav" WAVE
TRACK 08 AUDIO
TITLE "Act II. Scene V-VIII. Scena ed Aria - Invan l'India s'affanna (Timagene, Cleofide, Gandarte, Alessandro)"
PERFORMER "Dean Robinson, Laura Claycomb, Mark Wilde, Bruce Ford, London Philharmonic Orchestra, David Parry"
SONGWRITER "Giovanni Pacini"
ISRC GBQXY0700144
INDEX 01 00:00:00
FILE "09 - Act II. Scene IX. Scena ed Aria - Oggetto si adorabile (Alessandro, Cleofide, Gandarte, Chorus).wav" WAVE
TRACK 09 AUDIO
TITLE "Act II. Scene IX. Scena ed Aria - Oggetto si adorabile (Alessandro, Cleofide, Gandarte, Chorus)"
PERFORMER "ruce Ford, Laura Claycomb, Mark Wilde, Geoffrey Mitchell Choir, London Philharmonic Orchestra, David Parry"
SONGWRITER "Giovanni Pacini"
ISRC GBQXY0700145
INDEX 01 00:00:00
FILE "10 - Act II. Scene VIII. Scena ed Aria - S'e ver che t'accendi (Alessandro, Chorus, Cleofide, Gandarte).wav" WAVE
TRACK 10 AUDIO
TITLE "Act II. Scene VIII. Scena ed Aria - S'e ver che t'accendi (Alessandro, Chorus, Cleofide, Gandarte)"
PERFORMER "Bruce Ford, Laura Claycomb, Mark Wilde, Geoffrey Mitchell Choir, London Philharmonic Orchestra, David Parry"
SONGWRITER "Giovanni Pacini"
ISRC GBQXY0700146
INDEX 01 00:00:00
FILE "11 - Act II. Scene IX. Scena ed Aria - Chi sperava, o Gandarte (Cleofide, Gandarte).wav" WAVE
TRACK 11 AUDIO
TITLE "Act II. Scene IX. Scena ed Aria - Chi sperava, o Gandarte (Cleofide, Gandarte)"
PERFORMER "Laura Claycomb, Mark Wilde, London Philharmonic Orchestra, David Parry"
SONGWRITER "Giovanni Pacini"
ISRC GBQXY0700147
INDEX 01 00:00:00
FILE "12 - Act II. Scene X. Coro, Scena ed Aria - Che mai fu (Cleofide, Chorus, Gandarte).wav" WAVE
TRACK 12 AUDIO
TITLE "Act II. Scene X. Coro, Scena ed Aria - Che mai fu (Cleofide, Chorus, Gandarte)"
PERFORMER "Laura Claycomb, Mark Wilde, Geoffrey Mitchell Choir, London Philharmonic Orchestra, David Parry"
SONGWRITER "Giovanni Pacini"
ISRC GBQXY0700148
INDEX 01 00:00:00
FILE "13 - Act II. Scene X. Coro, Scena ed Aria - Che mi giovo sull'are (Gandarte, Cleofide).wav" WAVE
TRACK 13 AUDIO
TITLE "Act II. Scene X. Coro, Scena ed Aria - Che mi giovo sull'are (Gandarte, Cleofide)"
PERFORMER "Mark Wilde, Laura Claycomb, London Philharmonic Orchestra, David Parry"
SONGWRITER "Giovanni Pacini"
ISRC GBQXY0700149
INDEX 01 00:00:00
FILE "14 - Act II. Scene X. Coro, Scena ed Aria - Del caro mio consorte (Gandarte, Chorus, Cleofide).wav" WAVE
TRACK 14 AUDIO
TITLE "Act II. Scene X. Coro, Scena ed Aria - Del caro mio consorte (Gandarte, Chorus, Cleofide)"
PERFORMER "Mark Wilde, Laura Claycomb, Geoffrey Mitchell Choir, London Philharmonic Orchestra, David Parry"
SONGWRITER "Giovanni Pacini"
ISRC GBQXY0700150
INDEX 01 00:00:00
FILE "15 - Act II. Scene X. Coro, Scena ed Aria - A tanto martoro (Gandarte, Chorus).wav" WAVE
TRACK 15 AUDIO
TITLE "Act II. Scene X. Coro, Scena ed Aria - A tanto martoro (Gandarte, Chorus)"
PERFORMER "Mark Wilde, Geoffrey Mitchell Choir, London Philharmonic Orchestra, David Parry"
SONGWRITER "Giovanni Pacini"
ISRC GBQXY0700151
INDEX 01 00:00:00
FILE "16 - Act II. Scene X. Coro, Scena ed Aria - Mio ben, mio tesoro (Cleofide).wav" WAVE
TRACK 16 AUDIO
TITLE "Act II. Scene X. Coro, Scena ed Aria - Mio ben, mio tesoro (Cleofide)"
PERFORMER "Laura Claycomb, London Philharmonic Orchestra, David Parry""
SONGWRITER "Giovanni Pacini"
ISRC GBQXY0700152
INDEX 01 00:00:00
FILE "17 - Act II. Scene XI, XII. Coro, Scena ed Aria - Poro infelice (Gandarte, Poro).wav" WAVE
TRACK 17 AUDIO
TITLE "Act II. Scene XI, XII. Coro, Scena ed Aria - Poro infelice (Gandarte, Poro)"
PERFORMER "Mark Wilde, Jennifer Larmore, London Philharmonic Orchestra, David Parry"
SONGWRITER "Giovanni Pacini"
ISRC GBQXY0700153
INDEX 01 00:00:00
FILE "18 - Act II. Scene XIII. Coro, Scena ed Aria - Stupir mi fai (Alessandro, Timagene).wav" WAVE
TRACK 18 AUDIO
TITLE "Act II. Scene XIII. Coro, Scena ed Aria - Stupir mi fai (Alessandro, Timagene)"
PERFORMER "Bruce Ford, Dean Robinson, London Philharmonic Orchestra, David Parry"
SONGWRITER "Giovanni Pacini"
ISRC GBQXY0700154
INDEX 01 00:00:00
FILE "19 - Act II. Scene XIV. Coro, Scena ed Aria - Signor, fermati (Gandarte, Poro).wav" WAVE
TRACK 19 AUDIO
TITLE "Act II. Scene XIV. Coro, Scena ed Aria - Signor, fermati (Gandarte, Poro)"
PERFORMER "Mark Wilde, Jennifer Larmore, London Philharmonic Orchestra, David Parry"
SONGWRITER "Giovanni Pacini"
ISRC GBQXY0700155
INDEX 01 00:00:00
FILE "20 - Act II. Scene the Last. Coro - Dagli astri discendi (Chorus).wav" WAVE
TRACK 20 AUDIO
TITLE "Act II. Scene the Last. Coro - Dagli astri discendi (Chorus)"
PERFORMER "Geoffrey Mitchell Choir, London Philharmonic Orchestra, David Parry"
SONGWRITER "Giovanni Pacini"
ISRC GBQXY0700156
INDEX 01 00:00:00
FILE "21 - Act II. Scene the Last. Coro - Nell'odorata pira (All).wav" WAVE
TRACK 21 AUDIO
TITLE "Act II. Scene the Last. Coro - Nell'odorata pira (All)"
PERFORMER "Laura Claycomb, Jennifer Larmore, Bruce Ford, Mark Wilde, Dean Robinson, Geoffrey Mitchell Choir, London Philharmonic Orchestra, David Parry"
SONGWRITER "Giovanni Pacini"
ISRC GBQXY0700157
INDEX 01 00:00:00
FILE "22 - Act II. Scene the Last. Finale Secondo - Risolver non oso (All).wav" WAVE
TRACK 22 AUDIO
TITLE "Act II. Scene the Last. Finale Secondo - Risolver non oso (All)"
PERFORMER "Laura Claycomb, Jennifer Larmore, Bruce Ford, Mark Wilde, Dean Robinson, London Philharmonic Orchestra, David Parry"
SONGWRITER "Giovanni Pacini"
ISRC GBQXY0700158
INDEX 01 00:00:00
FILE "23 - Act II. Scene the Last. Finale Secondo - Ah, si mora una volta (All).wav" WAVE
TRACK 23 AUDIO
TITLE "Act II. Scene the Last. Finale Secondo - Ah, si mora una volta (All)"
PERFORMER "Laura Claycomb, Jennifer Larmore, Bruce Ford, Mark Wilde, Dean Robinson, Geoffrey Mitchell Choir, London Philharmonic Orchestra, David Parry"
SONGWRITER "Giovanni Pacini"
ISRC GBQXY0700159
INDEX 01 00:00:00
FILE "24 - Act II. Scene the Last. Finale Secondo - Su l'armi e su gli affetti (All).wav" WAVE
TRACK 24 AUDIO
TITLE "Act II. Scene the Last. Finale Secondo - Su l'armi e su gli affetti (All)"
PERFORMER "Laura Claycomb, Jennifer Larmore, Bruce Ford, Mark Wilde, Dean Robinson, Geoffrey Mitchell Choir, London Philharmonic Orchestra, David Parry"
SONGWRITER "Giovanni Pacini"
ISRC GBQXY0700160
INDEX 01 00:00:00



Показать сообщения:    

Текущее время: 05-Дек 05:31

Часовой пояс: UTC + 3


Вы не можете начинать темы
Вы не можете отвечать на сообщения
Вы не можете редактировать свои сообщения
Вы не можете удалять свои сообщения
Вы не можете голосовать в опросах
Вы не можете прикреплять файлы к сообщениям
Вы не можете скачивать файлы