(Opera) Bizet - Le Docteur Miracle (Eda-Pierre, Massard, Corrazzo, Guitton, Salviar - Orchestra of Radio France, Amaducci) - 2004, APE (image+.cue) lossless


 

[Цитировать]

Bizet - Le Docteur Miracle
Жанр: Opera
Страна-производитель диска: USA
Год издания диска: 2004
Издатель (лейбл): Opera D'Oro
Номер по каталогу: OPD-1408
Дата записи: 1976
Аудиокодек: APE
Тип рипа: image+.cue
Битрейт аудио: lossless
Продолжительность: 52'02
Источник: собственный рип
Наличие сканов в содержимом раздачи: да
Треклист:
1. Overture
2. Scene 1
3. Scene 2
4. Scene 3
5. Scene 4 - Omelette Quartet
6. Scene 5
7. Scene 6
8. Scene 7
9. Finale
Исполнители:
Georges Bizet - Le docteur miracle
Christiane Eda-Pierre
Robert Massard
Remy Corrazzo
Lyliane Guitton
catherine Salviar
Rene Camion
Claire Viret
Alain Pralon
Orchestra of Radio France, Bruno Amaducci
Broadcast performance,
Paris 1976

Лог создания рипа

Exact Audio Copy V1.0 beta 3 from 29. August 2011
EAC extraction logfile from 28. July 2014, 17:34
Bizet / Le Docteur Miracle, Amaducci
Used drive : TSSTcorpCDDVDW SE-208AB Adapter: 1 ID: 0
Read mode : SecureUtilize accurate stream : YesDefeat audio cache : YesMake use of C2 pointers : No
Read offset correction : 6Overread into Lead-In and Lead-Out : NoFill up missing offset samples with silence : YesDelete leading and trailing silent blocks : NoNull samples used in CRC calculations : YesUsed interface : Native Win32 interface for Win NT & 2000
Used output format : Monkey's Audio Lossless EncoderSelected bitrate : High Lossless CompressionQuality : HighAdd ID3 tag : NoCommand line compressor : C:\Program Files (x86)\Exact Audio Copy\MAC\MAC.exe
TOC of the extracted CD
Track | Start | Length | Start sector | End sector --------------------------------------------------------- 1 | 0:00.00 | 2:16.06 | 0 | 10205 2 | 2:16.06 | 7:45.20 | 10206 | 45100 3 | 10:01.26 | 5:43.28 | 45101 | 70853 4 | 15:44.54 | 5:25.33 | 70854 | 95261 5 | 21:10.12 | 6:49.60 | 95262 | 125996 6 | 27:59.72 | 5:43.26 | 125997 | 151747 7 | 33:43.23 | 8:44.38 | 151748 | 191085 8 | 42:27.61 | 7:04.05 | 191086 | 222890 9 | 49:31.66 | 2:30.62 | 222891 | 234202
Range status and errors
Selected range
Filename D:\EAC\Bizet - Le Docteur Miracle, Amaducci.wav
Peak level 100.0 % Extraction speed 1.9 X Range quality 100.0 % Test CRC 53F409EA Copy CRC 53F409EA Copy OK
No errors occurred
AccurateRip summary
Track 1 accurately ripped (confidence 1) [E4D937AE] (AR v1)Track 2 accurately ripped (confidence 1) [89C81A8C] (AR v1)Track 3 accurately ripped (confidence 1) [9D8DE0E1] (AR v1)Track 4 accurately ripped (confidence 1) [1E5E0520] (AR v1)Track 5 accurately ripped (confidence 1) [03F34EA0] (AR v1)Track 6 accurately ripped (confidence 1) [167CAE7A] (AR v1)Track 7 accurately ripped (confidence 1) [5838CD77] (AR v1)Track 8 accurately ripped (confidence 1) [14C398B1] (AR v1)Track 9 accurately ripped (confidence 1) [218F759C] (AR v1)
All tracks accurately ripped
End of status report
---- CUETools DB Plugin V2.1.3
[CTDB TOCID: xFNn7.HSfRn2GLvnD.lnlq5.G5c-] disk not present in database, Submit result: xFNn7.HSfRn2GLvnD.lnlq5.G5c- has been uploaded
==== Log checksum 4E0DFBB50F10D651BBA00BC5816C94F22B3E9715F9067DB7CC2ECD457BD9A8CF ====

Содержание индексной карты (.CUE)

REM GENRE OperaREM DATE 1976REM DISCID 780C3209REM COMMENT "ExactAudioCopy v1.0b3"PERFORMER "Bizet"TITLE "Le Docteur Miracle, Amaducci"FILE "Bizet - Le Docteur Miracle, Amaducci.ape" WAVE TRACK 01 AUDIO TITLE "Overture" PERFORMER "Bizet" FLAGS DCP INDEX 01 00:00:00 TRACK 02 AUDIO TITLE "Scene 1" PERFORMER "Bizet" FLAGS DCP INDEX 01 02:16:06 TRACK 03 AUDIO TITLE "Scene 2" PERFORMER "Bizet" FLAGS DCP INDEX 01 10:01:26 TRACK 04 AUDIO TITLE "Scene 3" PERFORMER "Bizet" FLAGS DCP INDEX 01 15:44:54 TRACK 05 AUDIO TITLE "Scene 4 - Omelette Quartet" PERFORMER "Bizet" FLAGS DCP INDEX 01 21:10:12 TRACK 06 AUDIO TITLE "Scene 5" PERFORMER "Bizet" FLAGS DCP INDEX 01 27:59:72 TRACK 07 AUDIO TITLE "Scene 6" PERFORMER "Bizet" FLAGS DCP INDEX 01 33:43:23 TRACK 08 AUDIO TITLE "Scene 7" PERFORMER "Bizet" FLAGS DCP INDEX 01 42:27:61 TRACK 09 AUDIO TITLE "Finale" PERFORMER "Bizet" FLAGS DCP INDEX 01 49:31:66
Доп. информация:
Bizet's first comic opera, Le Docteur Miracle was written for a competition organized by Offenbach - which Bizet won!
Under the baton of guest conductor Samuel Jean, the Orchestre Lyrique de Region Avignon Provence & soloists present a first-rate recording.
This one act opera portrays the story of an old man and his wife (who intends burying him as she has buried her four previous husbands), a girl in love with an officer who appears successively as a valet, a cook, a quack doctor...
All ends well, though only after a fake poisoning attempt with an omelette!
Наслаждайтесь!!



Показать сообщения:    

Текущее время: 10-Дек 09:56

Часовой пояс: UTC + 3


Вы не можете начинать темы
Вы не можете отвечать на сообщения
Вы не можете редактировать свои сообщения
Вы не можете удалять свои сообщения
Вы не можете голосовать в опросах
Вы не можете прикреплять файлы к сообщениям
Вы не можете скачивать файлы