(Classical) Stefano Landi - La Morte d'Orfeo - Elwes, Koslowsky, Cordier, Chance, van der Kamp; Ensembles "Currende" & "Tragicomedia", Stephen Stubbs - 2CD - 2007, FLAC (image+.cue) lossless


 

[Цитировать]

Stefano Landi - La Morte d'Orfeo - Elwes, Koslowsky, Cordier, Chance, van der Kamp; Ensembles "Currende" & "Tragicomedia", Stephen Stubbs
Жанр: Classical
Страна-производитель диска: Belgium
Год издания диска: 2007
Издатель (лейбл): Accent
Номер по каталогу: ACC 30046
Дата записи: 1987
Аудиокодек: FLAC
Тип рипа: image+.cue
Битрейт аудио: lossless
Продолжительность: 118:38
Источник: собственный рип
Наличие сканов в содержимом раздачи: да
Треклист:
Stefano Landi (ca.1590-1655)
La Morte d'Orfeo
Tragicomedia Pastorale
CD1
[1]-[3] Atto primo
[4]-[7] Atto secondo
[8]-[11] Atto terzo
CD2
[1]-[4] Atto quarto
[5]-[7] Atto quinto
Исполнители:
Orfeo John Elwes tenor
Euridice - Nisa - Euretto Johanna Koslowsky soprano
Teti, regina del mare - Lincastro - Euretto - Pastore - Ecco David Cordier countertenor
Bacco - Fosforo - Euretto - Pastore - Ecco Michael Chance countertenor
Aurora - Calliope, madre d'Orfeo - Pastre Myra Kroese contralto
Mercurio nel cielo - Fileno, pastor nunzio - Pastore Wilfrid Jochens tenor
Apoline del delo - Ireno Nico van der Meel tenor
Ebro fiume - Furore - Caronte Harry van der Kamp bass
Fato nel cielo - Uno delli Dei - Giove nel cielo Lieven Deroo bass
Vocal Ensemble "Currende"
Instrumental Ensemble "Tragicomedia"
directed by Stephen Stubbs

Лог создания рипа: CD1

Exact Audio Copy V1.0 beta 3 from 29. August 2011
EAC extraction logfile from 9. May 2014, 19:06
Soli, Tragicomedia, Currende, Stephen Stubbs / Landi - La Morte d'Orfeo - CD1
Used drive : HL-DT-STDVDRRW GWA-4164B Adapter: 5 ID: 0
Read mode : SecureUtilize accurate stream : YesDefeat audio cache : YesMake use of C2 pointers : No
Read offset correction : 102Overread into Lead-In and Lead-Out : NoFill up missing offset samples with silence : YesDelete leading and trailing silent blocks : NoNull samples used in CRC calculations : YesUsed interface : Native Win32 interface for Win NT & 2000
Used output format : User Defined EncoderSelected bitrate : 896 kBit/sQuality : HighAdd ID3 tag : NoCommand line compressor : C:\Program Files\Exact Audio Copy\FLAC\FLAC.EXEAdditional command line options : -V -8 %source%
TOC of the extracted CD
Track | Start | Length | Start sector | End sector --------------------------------------------------------- 1 | 0:00.00 | 6:54.32 | 0 | 31081 2 | 6:54.32 | 3:06.55 | 31082 | 45086 3 | 10:01.12 | 16:10.05 | 45087 | 117841 4 | 26:11.17 | 4:23.45 | 117842 | 137611 5 | 30:34.62 | 2:47.25 | 137612 | 150161 6 | 33:22.12 | 2:34.25 | 150162 | 161736 7 | 35:56.37 | 6:33.25 | 161737 | 191236 8 | 42:29.62 | 3:13.73 | 191237 | 205784 9 | 45:43.60 | 5:08.62 | 205785 | 228946 10 | 50:52.47 | 1:39.15 | 228947 | 236386 11 | 52:31.62 | 7:38.55 | 236387 | 270791
Range status and errors
Selected range
Filename D:\temp\Music\ACC 30046 Landi - La Morte d'Orfeo (Soli, Tragicomedia, Currende, Stephen Stubbs)\Landi - La Morte d'Orfeo - CD1.wav
Peak level 99.8 % Extraction speed 2.7 X Range quality 99.9 % Test CRC 340BCCAC Copy CRC 340BCCAC Copy OK
No errors occurred
AccurateRip summary
Track 1 cannot be verified as accurate (confidence 4) [70F4362C], AccurateRip returned [06EFBF87] (AR v2)Track 2 cannot be verified as accurate (confidence 4) [4791FF4D], AccurateRip returned [36E76605] (AR v2)Track 3 cannot be verified as accurate (confidence 4) [FB93245A], AccurateRip returned [8BE7A960] (AR v2)Track 4 cannot be verified as accurate (confidence 4) [65B5407E], AccurateRip returned [6E241789] (AR v2)Track 5 cannot be verified as accurate (confidence 3) [B93FAB64], AccurateRip returned [1EFCE2EF] (AR v2)Track 6 cannot be verified as accurate (confidence 4) [A0AFB07F], AccurateRip returned [A8BD19ED] (AR v2)Track 7 cannot be verified as accurate (confidence 4) [8A40CBBB], AccurateRip returned [9B610C1B] (AR v2)Track 8 cannot be verified as accurate (confidence 4) [D4C32D63], AccurateRip returned [28058920] (AR v2)Track 9 cannot be verified as accurate (confidence 4) [47AD4D78], AccurateRip returned [77DB45C9] (AR v2)Track 10 cannot be verified as accurate (confidence 4) [9AC3397C], AccurateRip returned [7E411146] (AR v2)Track 11 cannot be verified as accurate (confidence 3) [BA93A073], AccurateRip returned [9F9267F8] (AR v2)
No tracks could be verified as accurateYou may have a different pressing from the one(s) in the database
End of status report
==== Log checksum BD21278160AFBDCFFC12BF44D67317190932AAF4D0B3CBF80EDE75A020ACBE42 ====

Лог создания рипа: CD2

Exact Audio Copy V1.0 beta 3 from 29. August 2011
EAC extraction logfile from 13. May 2014, 17:17
Soli, Tragicomedia, Currende, Stephen Stubbs / Landi - La Morte d'Orfeo - CD2
Used drive : HL-DT-STDVDRRW GWA-4164B Adapter: 5 ID: 0
Read mode : SecureUtilize accurate stream : YesDefeat audio cache : YesMake use of C2 pointers : No
Read offset correction : 102Overread into Lead-In and Lead-Out : NoFill up missing offset samples with silence : YesDelete leading and trailing silent blocks : NoNull samples used in CRC calculations : YesUsed interface : Native Win32 interface for Win NT & 2000
Used output format : User Defined EncoderSelected bitrate : 896 kBit/sQuality : HighAdd ID3 tag : NoCommand line compressor : C:\Program Files\Exact Audio Copy\FLAC\FLAC.EXEAdditional command line options : -V -8 %source%
TOC of the extracted CD
Track | Start | Length | Start sector | End sector --------------------------------------------------------- 1 | 0:00.00 | 4:08.27 | 0 | 18626 2 | 4:08.27 | 1:31.40 | 18627 | 25491 3 | 5:39.67 | 2:17.08 | 25492 | 35774 4 | 7:57.00 | 19:04.27 | 35775 | 121601 5 | 27:01.27 | 5:04.25 | 121602 | 144426 6 | 32:05.52 | 13:02.08 | 144427 | 203084 7 | 45:07.60 | 13:21.15 | 203085 | 263174
Range status and errors
Selected range
Filename D:\temp\Music\ACC 30046 Landi - La Morte d'Orfeo (Soli, Tragicomedia, Currende, Stephen Stubbs)\Landi - La Morte d'Orfeo - CD2.wav
Peak level 97.5 % Extraction speed 2.7 X Range quality 100.0 % Test CRC 4BDD388C Copy CRC 4BDD388C Copy OK
No errors occurred
AccurateRip summary
Track 1 cannot be verified as accurate (confidence 6) [4CAD39BA], AccurateRip returned [D8438295] (AR v2)Track 2 cannot be verified as accurate (confidence 6) [7B2F70B6], AccurateRip returned [14CBB7F1] (AR v2)Track 3 cannot be verified as accurate (confidence 4) [5DCE22C8], AccurateRip returned [E02D1BC4] (AR v2)Track 4 cannot be verified as accurate (confidence 5) [1A6A0709], AccurateRip returned [E3D97FE5] (AR v2)Track 5 cannot be verified as accurate (confidence 5) [41EEF146], AccurateRip returned [48C0F5EC] (AR v2)Track 6 cannot be verified as accurate (confidence 5) [9AEF74C3], AccurateRip returned [070A64AE] (AR v2)Track 7 cannot be verified as accurate (confidence 5) [DD0D10A0], AccurateRip returned [BFBCBB42] (AR v2)
No tracks could be verified as accurateYou may have a different pressing from the one(s) in the database
End of status report
==== Log checksum 60FCF431A540C1508327CB25F621BE8CDED6CF4AE9B5F8F1E4F6764720F6C3E9 ====



Показать сообщения:    

Текущее время: 10-Дек 15:42

Часовой пояс: UTC + 3


Вы не можете начинать темы
Вы не можете отвечать на сообщения
Вы не можете редактировать свои сообщения
Вы не можете удалять свои сообщения
Вы не можете голосовать в опросах
Вы не можете прикреплять файлы к сообщениям
Вы не можете скачивать файлы