(Opera / Classical) Верди - Трубадур / Giuseppe Verdi - Il Trovatore (Callas, di Stefano, Panerai, Barbieri, Zaccaria; Karajan) - 1997, FLAC (tracks+.cue) lossless


 

[Цитировать]

Giuseppe Verdi - Il Trovatore (Callas, di Stefano, Panerai, Barbieri, Zaccaria; Karajan)
Жанр: Opera / Classical
Год издания диска: 1997
Издатель (лейбл): EMI
Номер по каталогу: 56333
Дата записи: 1956
Аудиокодек: FLAC
Тип рипа: tracks+.cue
Битрейт аудио: lossless
Продолжительность: 1:51:09
Источник: скачано с
сайт-источник/ник/другое: what.cd
Наличие сканов в содержимом раздачи: нет

Треклист

CD1:
01. Act 1 - Scene 1 - All'erta! All'erta! (3:00) [407 Kb/s]
02. Act 1 - Scene 1 - Di due figli vivea padre beato (0:45) [395 Kb/s]
03. Act 1 - Scene 1 - Abbietta zingara, fosca vegliarda! (3:35) [431 Kb/s]
04. Act 1 - Scene 1 - Brevi e tristi giorni visse (1:57) [404 Kb/s]
05. Act 1 - Scene 1 - Sull'orlo dei tetti (1:22) [426 Kb/s]
07. Act 1 - Scene 2 - Tacea la notte placida (3:24) [433 Kb/s]
08. Act 1 - Scene 2 - Quanto narrasti di turbamento m'ha piena l'alma! (0:50) [454 Kb/s]
09. Act 1 - Scene 2 - Di tale amor (1:40) [426 Kb/s]
10. Act 1 - Scene 2 - Tace la notte! (1:52) [401 Kb/s]
11. Act 1 - Scene 2 - Il trovator! Io fremo!...Deserto sulla terra (1:45) [400 Kb/s]
13. Act 1 - Scene 2 - Di geloso amor sprezzato (2:38) [467 Kb/s]
14. Act 2 - Scene 1 - Vedi! le fosche notturne (2:58) [500 Kb/s]
15. Act 2 - Scene 1 - Stride la vampa! (2:41) [414 Kb/s]
17. Act 2 - Scene 1 - Soli or siamo (1:00) [434 Kb/s]
18. Act 2 - Scene 1 - Condotta ell'era in ceppi (4:51) [442 Kb/s]
19. Act 2 - Scene 1 - Non son tuo figlio! (2:28) [435 Kb/s]
20. Act 2 - Scene 1 - Mal reggendo all'aspro assalto (3:08) [457 Kb/s]
21. Act 2 - Scene 1 - L'usato messo Ruiz invia!...Mi vendica! (1:26) [422 Kb/s]
22. Act 2 - Scene 1 - Perigliarti ancor languente (2:29) [454 Kb/s]
24. Act 2 - Scene 2 - Il balen del suo sorriso (3:15) [424 Kb/s]
25. Act 2 - Scene 2 - Qual suono! Oh ciel! (0:50) [386 Kb/s]
26. Act 2 - Scene 2 - Per me ora fatale (2:51) [437 Kb/s]
27. Act 2 - Scene 2 - Ah! se l'error t'ingombra (2:01) [355 Kb/s]
29. Act 2 - Scene 2 - E deggio e posso crederlo? (4:42) [455 Kb/s]
CD2:
01. Act 3 - Scene 1 - Or co' dadi, ma fra poco (4:27) [463 Kb/s]
02. Act 3 - Scene 1 - In braccio al mio rival! (2:12) [417 Kb/s]
03. Act 3 - Scene 1 - Giorni poveri vivea (3:08) [446 Kb/s]
04. Act 3 - Scene 1 - Deh! rallentate, o barbari (2:07) [462 Kb/s]
05. Act 3 - Scene 2 - Quale d'armi fragor (2:02) [410 Kb/s]
07. Act 3 - Scene 2 - L'onda de' suoni mistici pura discenda al cor! (1:29) [424 Kb/s]
08. Act 3 - Scene 2 - Di quella pira, l'orrendo foco (3:18) [469 Kb/s]
09. Act 4 - Scene 1 - Siam giunti; ecco la torre (3:06) [371 Kb/s]
10. Act 4 - Scene 1 - D'amor sull'ali rosee (4:02) [405 Kb/s]
11. Act 4 - Scene 1 - Misere...Quel suon, quelle preci (4:53) [384 Kb/s]
12. Act 4 - Scene 1 - Di te, di te scordarmi di te (2:33) [459 Kb/s]
13. Act 4 - Scene 1 - Udiste? (1:47) [436 Kb/s]
14. Act 4 - Scene 1 - Mira, d'acerbe lagrime (2:19) [447 Kb/s]
17. Act 4 - Scene 2 - Madre, non dormi? (5:28) [410 Kb/s]
19. Act 4 - Scene 2 - Ai nostri monti ritorneremo (2:03) [407 Kb/s]
20. Act 4 - Scene 2 - Che! Non m'inganna (1:08) [444 Kb/s]
21. Act 4 - Scene 2 - Parlar non vuoi?...Ha quest'infame l'amor venduto (3:00) [458 Kb/s]
22. Act 4 - Scene 2 - Ti scosta! (1:06) [450 Kb/s]
23. Act 4 - Scene 2 - Prima che d'altri vivere (3:32) [469 Kb/s]
Исполнители:
Leonora - Maria Callas
Manrico - Giuseppe di Stefano
Il Conte di Luna - Rolando Panerai
Azucena - Fedora Barbieri
Ferrando - Nicola Zaccaria
Ines - Luisa Villa
Orchestra e Coro del Teatro alla Scala di Milano
Conductor - Herbert von Karajan

Лог создания рипа

CD1

Exact Audio Copy V0.99 prebeta 5 from 4. May 2009
EAC extraction logfile from 13. August 2009, 5:08
Giuseppe Verdi / Il Trovatore (Maria Callas, Orchestra e Coro del Teatro alla Scala, Milano; Karajan)
Used drive : HL-DT-STDVDRAM GSA-H10N Adapter: 0 ID: 0
Read mode : Secure
Utilize accurate stream : Yes
Defeat audio cache : Yes
Make use of C2 pointers : No
Read offset correction : 667
Overread into Lead-In and Lead-Out : No
Fill up missing offset samples with silence : Yes
Delete leading and trailing silent blocks : No
Null samples used in CRC calculations : Yes
Used interface : Installed external ASPI interface
Gap handling : Appended to previous track
Used output format : User Defined Encoder
Selected bitrate : 128 kBit/s
Quality : High
Add ID3 tag : No
Command line compressor : C:\Program Files\Exact Audio Copy\Flac\flac.exe
Additional command line options : -V -8 -T "artist=%a" -T "title=%t" -T "album=%g" -T "date=%y" -T "tracknumber=%n" -T "genre=%m" %s
TOC of the extracted CD
Track | Start | Length | Start sector | End sector
---------------------------------------------------------
1 | 0:00.00 | 2:59.65 | 0 | 13489
2 | 2:59.65 | 0:45.15 | 13490 | 16879
3 | 3:45.05 | 3:34.57 | 16880 | 32986
4 | 7:19.62 | 1:57.08 | 32987 | 41769
5 | 9:16.70 | 1:22.27 | 41770 | 47946
6 | 10:39.22 | 2:26.30 | 47947 | 58926
7 | 13:05.52 | 3:23.70 | 58927 | 74221
8 | 16:29.47 | 0:49.40 | 74222 | 77936
9 | 17:19.12 | 1:40.20 | 77937 | 85456
10 | 18:59.32 | 1:52.00 | 85457 | 93856
11 | 20:51.32 | 1:44.55 | 93857 | 101711
12 | 22:36.12 | 1:55.73 | 101712 | 110409
13 | 24:32.10 | 2:37.45 | 110410 | 122229
14 | 27:09.55 | 2:58.30 | 122230 | 135609
15 | 30:08.10 | 2:40.72 | 135610 | 147681
16 | 32:49.07 | 2:01.28 | 147682 | 156784
17 | 34:50.35 | 1:00.35 | 156785 | 161319
18 | 35:50.70 | 4:50.50 | 161320 | 183119
19 | 40:41.45 | 2:27.45 | 183120 | 194189
20 | 43:09.15 | 3:08.12 | 194190 | 208301
21 | 46:17.27 | 1:26.10 | 208302 | 214761
22 | 47:43.37 | 2:29.18 | 214762 | 225954
23 | 50:12.55 | 1:34.40 | 225955 | 233044
24 | 51:47.20 | 3:15.17 | 233045 | 247686
25 | 55:02.37 | 0:49.70 | 247687 | 251431
26 | 55:52.32 | 2:51.15 | 251432 | 264271
27 | 58:43.47 | 2:00.38 | 264272 | 273309
28 | 60:44.10 | 2:16.70 | 273310 | 283579
29 | 63:01.05 | 4:42.12 | 283580 | 304741
Track 1
Filename C:\Il Trovatore (Maria Callas, Orchestra e Coro del Teatro alla Scala, Milano; Karajan)\CD1\01 - Giuseppe Verdi - Act 1 - Scene 1 - All'erta! All'erta!.wav
Pre-gap length 0:00:02.00
Peak level 74.9 %
Track quality 100.0 %
Test CRC CB055172
Copy CRC CB055172
Cannot be verified as accurate (confidence 13) [940E8E0D], AccurateRip returned [849DBECB]
Copy OK
Track 2
Filename C:\Il Trovatore (Maria Callas, Orchestra e Coro del Teatro alla Scala, Milano; Karajan)\CD1\02 - Giuseppe Verdi - Act 1 - Scene 1 - Di due figli vivea padre beato.wav
Peak level 25.5 %
Track quality 100.0 %
Test CRC 73ED5FF4
Copy CRC 73ED5FF4
Cannot be verified as accurate (confidence 13) [3004C9C8], AccurateRip returned [42B3AFF8]
Copy OK
Track 3
Filename C:\Il Trovatore (Maria Callas, Orchestra e Coro del Teatro alla Scala, Milano; Karajan)\CD1\03 - Giuseppe Verdi - Act 1 - Scene 1 - Abbietta zingara, fosca vegliarda!.wav
Peak level 78.2 %
Track quality 100.0 %
Test CRC AE443170
Copy CRC AE443170
Cannot be verified as accurate (confidence 13) [D58B4DC1], AccurateRip returned [8389D2B6]
Copy OK
Track 4
Filename C:\Il Trovatore (Maria Callas, Orchestra e Coro del Teatro alla Scala, Milano; Karajan)\CD1\04 - Giuseppe Verdi - Act 1 - Scene 1 - Brevi e tristi giorni visse.wav
Peak level 49.1 %
Track quality 100.0 %
Test CRC 4E060DAD
Copy CRC 4E060DAD
Cannot be verified as accurate (confidence 13) [25CFAC7B], AccurateRip returned [8C144DC9]
Copy OK
Track 5
Filename C:\Il Trovatore (Maria Callas, Orchestra e Coro del Teatro alla Scala, Milano; Karajan)\CD1\05 - Giuseppe Verdi - Act 1 - Scene 1 - Sull'orlo dei tetti.wav
Peak level 80.3 %
Track quality 99.8 %
Test CRC FBF20FAD
Copy CRC FBF20FAD
Cannot be verified as accurate (confidence 13) [9AC8F247], AccurateRip returned [6D132AD6]
Copy OK
Track 6
Filename C:\Il Trovatore (Maria Callas, Orchestra e Coro del Teatro alla Scala, Milano; Karajan)\CD1\06 - Giuseppe Verdi - Act 1 - Scene 2 - Che piщ t'arresti .wav
Peak level 42.8 %
Track quality 100.0 %
Test CRC E173A5B4
Copy CRC E173A5B4
Cannot be verified as accurate (confidence 13) [5F8EF7CE], AccurateRip returned [A44CC12B]
Copy OK
Track 7
Filename C:\Il Trovatore (Maria Callas, Orchestra e Coro del Teatro alla Scala, Milano; Karajan)\CD1\07 - Giuseppe Verdi - Act 1 - Scene 2 - Tacea la notte placida.wav
Peak level 43.7 %
Track quality 100.0 %
Test CRC AC5E8B09
Copy CRC AC5E8B09
Cannot be verified as accurate (confidence 13) [7C737567], AccurateRip returned [CC2AF355]
Copy OK
Track 8
Filename C:\Il Trovatore (Maria Callas, Orchestra e Coro del Teatro alla Scala, Milano; Karajan)\CD1\08 - Giuseppe Verdi - Act 1 - Scene 2 - Quanto narrasti di turbamento m'ha piena l'alma!.wav
Peak level 44.8 %
Track quality 100.0 %
Test CRC FBD26CC1
Copy CRC FBD26CC1
Cannot be verified as accurate (confidence 13) [0ACE04D8], AccurateRip returned [5896FB6D]
Copy OK
Track 9
Filename C:\Il Trovatore (Maria Callas, Orchestra e Coro del Teatro alla Scala, Milano; Karajan)\CD1\09 - Giuseppe Verdi - Act 1 - Scene 2 - Di tale amor.wav
Peak level 43.0 %
Track quality 99.8 %
Test CRC D94EEBC7
Copy CRC D94EEBC7
Cannot be verified as accurate (confidence 13) [B79E4F46], AccurateRip returned [282AB87B]
Copy OK
Track 10
Filename C:\Il Trovatore (Maria Callas, Orchestra e Coro del Teatro alla Scala, Milano; Karajan)\CD1\10 - Giuseppe Verdi - Act 1 - Scene 2 - Tace la notte!.wav
Peak level 63.5 %
Track quality 100.0 %
Test CRC 5C738366
Copy CRC 5C738366
Cannot be verified as accurate (confidence 13) [6036B139], AccurateRip returned [90BF42A5]
Copy OK
Track 11
Filename C:\Il Trovatore (Maria Callas, Orchestra e Coro del Teatro alla Scala, Milano; Karajan)\CD1\11 - Giuseppe Verdi - Act 1 - Scene 2 - Il trovator! Io fremo!...Deserto sulla terra.wav
Peak level 31.4 %
Track quality 100.0 %
Test CRC 43DAC0C2
Copy CRC 43DAC0C2
Cannot be verified as accurate (confidence 13) [805F08EE], AccurateRip returned [B3DE1BD0]
Copy OK
Track 12
Filename C:\Il Trovatore (Maria Callas, Orchestra e Coro del Teatro alla Scala, Milano; Karajan)\CD1\12 - Giuseppe Verdi - Act 1 - Scene 2 - Anima mia!...Piщ dell'usato.wav
Peak level 59.7 %
Track quality 100.0 %
Test CRC 7644A0DB
Copy CRC 7644A0DB
Cannot be verified as accurate (confidence 13) [6F47A1D5], AccurateRip returned [3BA4A3A1]
Copy OK
Track 13
Filename C:\Il Trovatore (Maria Callas, Orchestra e Coro del Teatro alla Scala, Milano; Karajan)\CD1\13 - Giuseppe Verdi - Act 1 - Scene 2 - Di geloso amor sprezzato.wav
Peak level 76.2 %
Track quality 100.0 %
Test CRC E0C32760
Copy CRC E0C32760
Cannot be verified as accurate (confidence 13) [9F1B6C09], AccurateRip returned [8A36BE02]
Copy OK
Track 14
Filename C:\Il Trovatore (Maria Callas, Orchestra e Coro del Teatro alla Scala, Milano; Karajan)\CD1\14 - Giuseppe Verdi - Act 2 - Scene 1 - Vedi! le fosche notturne.wav
Pre-gap length 0:00:05.58
Peak level 71.4 %
Track quality 100.0 %
Test CRC EF028479
Copy CRC EF028479
Cannot be verified as accurate (confidence 13) [043C1CF8], AccurateRip returned [0ABEB42F]
Copy OK
Track 15
Filename C:\Il Trovatore (Maria Callas, Orchestra e Coro del Teatro alla Scala, Milano; Karajan)\CD1\15 - Giuseppe Verdi - Act 2 - Scene 1 - Stride la vampa!.wav
Peak level 45.6 %
Track quality 100.0 %
Test CRC 50ABF824
Copy CRC 50ABF824
Cannot be verified as accurate (confidence 13) [D2441857], AccurateRip returned [E27A2312]
Copy OK
Track 16
Filename C:\Il Trovatore (Maria Callas, Orchestra e Coro del Teatro alla Scala, Milano; Karajan)\CD1\16 - Giuseppe Verdi - Act 2 - Scene 1 - Mesta и la tua canzon!.wav
Peak level 45.9 %
Track quality 100.0 %
Test CRC 165FF359
Copy CRC 165FF359
Cannot be verified as accurate (confidence 13) [D328D478], AccurateRip returned [317A0B74]
Copy OK
Track 17
Filename C:\Il Trovatore (Maria Callas, Orchestra e Coro del Teatro alla Scala, Milano; Karajan)\CD1\17 - Giuseppe Verdi - Act 2 - Scene 1 - Soli or siamo.wav
Peak level 56.3 %
Track quality 100.0 %
Test CRC 76019CCE
Copy CRC 76019CCE
Cannot be verified as accurate (confidence 13) [B2F263B5], AccurateRip returned [A36C1B43]
Copy OK
Track 18
Filename C:\Il Trovatore (Maria Callas, Orchestra e Coro del Teatro alla Scala, Milano; Karajan)\CD1\18 - Giuseppe Verdi - Act 2 - Scene 1 - Condotta ell'era in ceppi.wav
Peak level 83.5 %
Track quality 100.0 %
Test CRC FBA0E7C2
Copy CRC FBA0E7C2
Cannot be verified as accurate (confidence 13) [77525860], AccurateRip returned [AD4E6E87]
Copy OK
Track 19
Filename C:\Il Trovatore (Maria Callas, Orchestra e Coro del Teatro alla Scala, Milano; Karajan)\CD1\19 - Giuseppe Verdi - Act 2 - Scene 1 - Non son tuo figlio!.wav
Peak level 47.3 %
Track quality 100.0 %
Test CRC F23D3D41
Copy CRC F23D3D41
Cannot be verified as accurate (confidence 13) [7D2E3F78], AccurateRip returned [EB5B08BC]
Copy OK
Track 20
Filename C:\Il Trovatore (Maria Callas, Orchestra e Coro del Teatro alla Scala, Milano; Karajan)\CD1\20 - Giuseppe Verdi - Act 2 - Scene 1 - Mal reggendo all'aspro assalto.wav
Peak level 56.4 %
Track quality 100.0 %
Test CRC 0F43139F
Copy CRC 0F43139F
Cannot be verified as accurate (confidence 13) [4B87167B], AccurateRip returned [6DBEBC0D]
Copy OK
Track 21
Filename C:\Il Trovatore (Maria Callas, Orchestra e Coro del Teatro alla Scala, Milano; Karajan)\CD1\21 - Giuseppe Verdi - Act 2 - Scene 1 - L'usato messo Ruiz invia!...Mi vendica!.wav
Peak level 69.4 %
Track quality 100.0 %
Test CRC 9068DE74
Copy CRC 9068DE74
Cannot be verified as accurate (confidence 13) [70649A24], AccurateRip returned [FFD3E0E1]
Copy OK
Track 22
Filename C:\Il Trovatore (Maria Callas, Orchestra e Coro del Teatro alla Scala, Milano; Karajan)\CD1\22 - Giuseppe Verdi - Act 2 - Scene 1 - Perigliarti ancor languente.wav
Peak level 77.1 %
Track quality 100.0 %
Test CRC BA0977C0
Copy CRC BA0977C0
Cannot be verified as accurate (confidence 13) [C9162A71], AccurateRip returned [71524D5A]
Copy OK
Track 23
Filename C:\Il Trovatore (Maria Callas, Orchestra e Coro del Teatro alla Scala, Milano; Karajan)\CD1\23 - Giuseppe Verdi - Act 2 - Scene 2 - Tutto и deserto.wav
Pre-gap length 0:00:02.25
Peak level 37.6 %
Track quality 100.0 %
Test CRC D9BE3644
Copy CRC D9BE3644
Cannot be verified as accurate (confidence 13) [7DC46D69], AccurateRip returned [4C48EB42]
Copy OK
Track 24
Filename C:\Il Trovatore (Maria Callas, Orchestra e Coro del Teatro alla Scala, Milano; Karajan)\CD1\24 - Giuseppe Verdi - Act 2 - Scene 2 - Il balen del suo sorriso.wav
Peak level 46.9 %
Track quality 100.0 %
Test CRC CC923742
Copy CRC CC923742
Cannot be verified as accurate (confidence 13) [76986FC2], AccurateRip returned [3E8ED015]
Copy OK
Track 25
Filename C:\Il Trovatore (Maria Callas, Orchestra e Coro del Teatro alla Scala, Milano; Karajan)\CD1\25 - Giuseppe Verdi - Act 2 - Scene 2 - Qual suono! Oh ciel!.wav
Peak level 25.4 %
Track quality 100.0 %
Test CRC 7D2B523D
Copy CRC 7D2B523D
Cannot be verified as accurate (confidence 13) [2CFE9882], AccurateRip returned [571AE905]
Copy OK
Track 26
Filename C:\Il Trovatore (Maria Callas, Orchestra e Coro del Teatro alla Scala, Milano; Karajan)\CD1\26 - Giuseppe Verdi - Act 2 - Scene 2 - Per me ora fatale.wav
Peak level 49.8 %
Track quality 100.0 %
Test CRC 98E878CB
Copy CRC 98E878CB
Cannot be verified as accurate (confidence 13) [D4C0FEFE], AccurateRip returned [3D468A99]
Copy OK
Track 27
Filename C:\Il Trovatore (Maria Callas, Orchestra e Coro del Teatro alla Scala, Milano; Karajan)\CD1\27 - Giuseppe Verdi - Act 2 - Scene 2 - Ah! se l'error t'ingombra.wav
Peak level 12.3 %
Track quality 99.9 %
Test CRC 45C6436B
Copy CRC 45C6436B
Cannot be verified as accurate (confidence 13) [10FBAAEF], AccurateRip returned [A0FE8A60]
Copy OK
Track 28
Filename C:\Il Trovatore (Maria Callas, Orchestra e Coro del Teatro alla Scala, Milano; Karajan)\CD1\28 - Giuseppe Verdi - Act 2 - Scene 2 - Perchй piangete ...O dolci amiche.wav
Peak level 82.7 %
Track quality 100.0 %
Test CRC 09765317
Copy CRC 09765317
Cannot be verified as accurate (confidence 13) [FD4A777F], AccurateRip returned [D5EE4665]
Copy OK
Track 29
Filename C:\Il Trovatore (Maria Callas, Orchestra e Coro del Teatro alla Scala, Milano; Karajan)\CD1\29 - Giuseppe Verdi - Act 2 - Scene 2 - E deggio e posso crederlo .wav
Peak level 85.9 %
Track quality 100.0 %
Test CRC D0C89DA1
Copy CRC D0C89DA1
Cannot be verified as accurate (confidence 13) [CB40FC5F], AccurateRip returned [125B476D]
Copy OK
No tracks could be verified as accurate
You may have a different pressing from the one(s) in the database
No errors occurred
End of status report

CD2

Exact Audio Copy V0.99 prebeta 5 from 4. May 2009
EAC extraction logfile from 13. August 2009, 5:36
Giuseppe Verdi / Il Trovatore (Maria Callas, Orchestra e Coro del Teatro alla Scala, Milano; Karajan)
Used drive : HL-DT-STDVDRAM GSA-H10N Adapter: 0 ID: 0
Read mode : Secure
Utilize accurate stream : Yes
Defeat audio cache : Yes
Make use of C2 pointers : No
Read offset correction : 667
Overread into Lead-In and Lead-Out : No
Fill up missing offset samples with silence : Yes
Delete leading and trailing silent blocks : No
Null samples used in CRC calculations : Yes
Used interface : Installed external ASPI interface
Gap handling : Appended to previous track
Used output format : User Defined Encoder
Selected bitrate : 128 kBit/s
Quality : High
Add ID3 tag : No
Command line compressor : C:\Program Files\Exact Audio Copy\Flac\flac.exe
Additional command line options : -V -8 -T "artist=%a" -T "title=%t" -T "album=%g" -T "date=%y" -T "tracknumber=%n" -T "genre=%m" %s
TOC of the extracted CD
Track | Start | Length | Start sector | End sector
---------------------------------------------------------
1 | 0:00.00 | 4:27.30 | 0 | 20054
2 | 4:27.30 | 2:11.52 | 20055 | 29931
3 | 6:39.07 | 3:08.18 | 29932 | 44049
4 | 9:47.25 | 2:07.25 | 44050 | 53599
5 | 11:54.50 | 2:01.72 | 53600 | 62746
6 | 13:56.47 | 2:52.20 | 62747 | 75666
7 | 16:48.67 | 1:29.20 | 75667 | 82361
8 | 18:18.12 | 3:18.03 | 82362 | 97214
9 | 21:36.15 | 3:05.72 | 97215 | 111161
10 | 24:42.12 | 4:01.55 | 111162 | 129291
11 | 28:43.67 | 4:53.15 | 129292 | 151281
12 | 33:37.07 | 2:32.58 | 151282 | 162739
13 | 36:09.65 | 1:46.52 | 162740 | 170741
14 | 37:56.42 | 2:19.23 | 170742 | 181189
15 | 40:15.65 | 1:13.42 | 181190 | 186706
16 | 41:29.32 | 2:24.48 | 186707 | 197554
17 | 43:54.05 | 5:28.10 | 197555 | 222164
18 | 49:22.15 | 1:20.02 | 222165 | 228166
19 | 50:42.17 | 2:03.03 | 228167 | 237394
20 | 52:45.20 | 1:08.25 | 237395 | 242519
21 | 53:53.45 | 3:00.32 | 242520 | 256051
22 | 56:54.02 | 1:06.15 | 256052 | 261016
23 | 58:00.17 | 3:31.73 | 261017 | 276914
Track 1
Filename C:\Il Trovatore (Maria Callas, Orchestra e Coro del Teatro alla Scala, Milano; Karajan)\CD2\01 - Giuseppe Verdi - Act 3 - Scene 1 - Or co' dadi, ma fra poco.wav
Pre-gap length 0:00:02.00
Peak level 68.8 %
Track quality 100.0 %
Test CRC D4E00E36
Copy CRC D4E00E36
Cannot be verified as accurate (confidence 13) [21887E73], AccurateRip returned [7F088BDD]
Copy OK
Track 2
Filename C:\Il Trovatore (Maria Callas, Orchestra e Coro del Teatro alla Scala, Milano; Karajan)\CD2\02 - Giuseppe Verdi - Act 3 - Scene 1 - In braccio al mio rival!.wav
Peak level 51.0 %
Track quality 100.0 %
Test CRC 3133C07F
Copy CRC 3133C07F
Cannot be verified as accurate (confidence 13) [D9B9C897], AccurateRip returned [CD13B44D]
Copy OK
Track 3
Filename C:\Il Trovatore (Maria Callas, Orchestra e Coro del Teatro alla Scala, Milano; Karajan)\CD2\03 - Giuseppe Verdi - Act 3 - Scene 1 - Giorni poveri vivea.wav
Peak level 57.7 %
Track quality 100.0 %
Test CRC AEB61D88
Copy CRC AEB61D88
Cannot be verified as accurate (confidence 13) [0D270801], AccurateRip returned [E76E3180]
Copy OK
Track 4
Filename C:\Il Trovatore (Maria Callas, Orchestra e Coro del Teatro alla Scala, Milano; Karajan)\CD2\04 - Giuseppe Verdi - Act 3 - Scene 1 - Deh! rallentate, o barbari.wav
Peak level 82.2 %
Track quality 100.0 %
Test CRC 5B3517F7
Copy CRC 5B3517F7
Cannot be verified as accurate (confidence 13) [DD39D9D4], AccurateRip returned [FDEE3607]
Copy OK
Track 5
Filename C:\Il Trovatore (Maria Callas, Orchestra e Coro del Teatro alla Scala, Milano; Karajan)\CD2\05 - Giuseppe Verdi - Act 3 - Scene 2 - Quale d'armi fragor.wav
Peak level 31.7 %
Track quality 100.0 %
Test CRC C4988FD2
Copy CRC C4988FD2
Cannot be verified as accurate (confidence 13) [4DE39FB0], AccurateRip returned [5490CE59]
Copy OK
Track 6
Filename C:\Il Trovatore (Maria Callas, Orchestra e Coro del Teatro alla Scala, Milano; Karajan)\CD2\06 - Giuseppe Verdi - Act 3 - Scene 2 - Ah sм, ben mio, coll'essere io tuo.wav
Peak level 30.7 %
Track quality 100.0 %
Test CRC D08B2A69
Copy CRC D08B2A69
Cannot be verified as accurate (confidence 13) [668936CA], AccurateRip returned [95EC086B]
Copy OK
Track 7
Filename C:\Il Trovatore (Maria Callas, Orchestra e Coro del Teatro alla Scala, Milano; Karajan)\CD2\07 - Giuseppe Verdi - Act 3 - Scene 2 - L'onda de' suoni mistici pura discenda al cor!.wav
Peak level 58.2 %
Track quality 100.0 %
Test CRC CFC98A25
Copy CRC CFC98A25
Cannot be verified as accurate (confidence 13) [40CCEB1E], AccurateRip returned [5727B7DB]
Copy OK
Track 8
Filename C:\Il Trovatore (Maria Callas, Orchestra e Coro del Teatro alla Scala, Milano; Karajan)\CD2\08 - Giuseppe Verdi - Act 3 - Scene 2 - Di quella pira, l'orrendo foco.wav
Peak level 72.3 %
Track quality 100.0 %
Test CRC 2B3529A0
Copy CRC 2B3529A0
Cannot be verified as accurate (confidence 13) [4C4FA71A], AccurateRip returned [00B7F06D]
Copy OK
Track 9
Filename C:\Il Trovatore (Maria Callas, Orchestra e Coro del Teatro alla Scala, Milano; Karajan)\CD2\09 - Giuseppe Verdi - Act 4 - Scene 1 - Siam giunti; ecco la torre.wav
Pre-gap length 0:00:06.23
Peak level 34.5 %
Track quality 99.9 %
Test CRC 77791E97
Copy CRC 77791E97
Cannot be verified as accurate (confidence 13) [CF9963D7], AccurateRip returned [52DF2E23]
Copy OK
Track 10
Filename C:\Il Trovatore (Maria Callas, Orchestra e Coro del Teatro alla Scala, Milano; Karajan)\CD2\10 - Giuseppe Verdi - Act 4 - Scene 1 - D'amor sull'ali rosee.wav
Peak level 38.7 %
Track quality 99.9 %
Test CRC 836FB4F5
Copy CRC 836FB4F5
Cannot be verified as accurate (confidence 13) [92EB1031], AccurateRip returned [FA47FD24]
Copy OK
Track 11
Filename C:\Il Trovatore (Maria Callas, Orchestra e Coro del Teatro alla Scala, Milano; Karajan)\CD2\11 - Giuseppe Verdi - Act 4 - Scene 1 - Misere...Quel suon, quelle preci.wav
Peak level 38.4 %
Track quality 99.9 %
Test CRC 807A7DB4
Copy CRC 807A7DB4
Cannot be verified as accurate (confidence 13) [81AA2908], AccurateRip returned [468D634E]
Copy OK
Track 12
Filename C:\Il Trovatore (Maria Callas, Orchestra e Coro del Teatro alla Scala, Milano; Karajan)\CD2\12 - Giuseppe Verdi - Act 4 - Scene 1 - Di te, di te scordarmi di te.wav
Peak level 81.5 %
Track quality 99.9 %
Test CRC 88D711F5
Copy CRC 88D711F5
Cannot be verified as accurate (confidence 13) [40C3C815], AccurateRip returned [75E60874]
Copy OK
Track 13
Filename C:\Il Trovatore (Maria Callas, Orchestra e Coro del Teatro alla Scala, Milano; Karajan)\CD2\13 - Giuseppe Verdi - Act 4 - Scene 1 - Udiste .wav
Peak level 54.0 %
Track quality 100.0 %
Test CRC 630CE4DF
Copy CRC 630CE4DF
Cannot be verified as accurate (confidence 13) [22C0D4CF], AccurateRip returned [50953072]
Copy OK
Track 14
Filename C:\Il Trovatore (Maria Callas, Orchestra e Coro del Teatro alla Scala, Milano; Karajan)\CD2\14 - Giuseppe Verdi - Act 4 - Scene 1 - Mira, d'acerbe lagrime.wav
Peak level 49.8 %
Track quality 100.0 %
Test CRC ECCD6416
Copy CRC ECCD6416
Cannot be verified as accurate (confidence 13) [FEEC86F3], AccurateRip returned [CB592AFF]
Copy OK
Track 15
Filename C:\Il Trovatore (Maria Callas, Orchestra e Coro del Teatro alla Scala, Milano; Karajan)\CD2\15 - Giuseppe Verdi - Act 4 - Scene 1 - Conte!...Nй basti!.wav
Peak level 48.5 %
Track quality 100.0 %
Test CRC A6DCBFF9
Copy CRC A6DCBFF9
Cannot be verified as accurate (confidence 13) [0166BFAF], AccurateRip returned [68014440]
Copy OK
Track 16
Filename C:\Il Trovatore (Maria Callas, Orchestra e Coro del Teatro alla Scala, Milano; Karajan)\CD2\16 - Giuseppe Verdi - Act 4 - Scene 1 - Colui vivrа...Vivrа! contende il giubilo.wav
Peak level 62.8 %
Track quality 100.0 %
Test CRC E74AF056
Copy CRC E74AF056
Cannot be verified as accurate (confidence 13) [39BDE0A0], AccurateRip returned [44A852A6]
Copy OK
Track 17
Filename C:\Il Trovatore (Maria Callas, Orchestra e Coro del Teatro alla Scala, Milano; Karajan)\CD2\17 - Giuseppe Verdi - Act 4 - Scene 2 - Madre, non dormi .wav
Peak level 60.9 %
Track quality 100.0 %
Test CRC E531F685
Copy CRC E531F685
Cannot be verified as accurate (confidence 13) [2239ABFF], AccurateRip returned [61BD0EB7]
Copy OK
Track 18
Filename C:\Il Trovatore (Maria Callas, Orchestra e Coro del Teatro alla Scala, Milano; Karajan)\CD2\18 - Giuseppe Verdi - Act 4 - Scene 2 - Sм, la stanchezza m'opprime.wav
Peak level 40.8 %
Track quality 99.8 %
Test CRC B173871F
Copy CRC B173871F
Cannot be verified as accurate (confidence 13) [72DC39DF], AccurateRip returned [E4D047DD]
Copy OK
Track 19
Filename C:\Il Trovatore (Maria Callas, Orchestra e Coro del Teatro alla Scala, Milano; Karajan)\CD2\19 - Giuseppe Verdi - Act 4 - Scene 2 - Ai nostri monti ritorneremo.wav
Peak level 41.9 %
Track quality 100.0 %
Test CRC 2FEFAB8F
Copy CRC 2FEFAB8F
Cannot be verified as accurate (confidence 13) [ABB551A6], AccurateRip returned [1518E71C]
Copy OK
Track 20
Filename C:\Il Trovatore (Maria Callas, Orchestra e Coro del Teatro alla Scala, Milano; Karajan)\CD2\20 - Giuseppe Verdi - Act 4 - Scene 2 - Che! Non m'inganna.wav
Peak level 54.8 %
Track quality 100.0 %
Test CRC 766EADCC
Copy CRC 766EADCC
Cannot be verified as accurate (confidence 13) [2715C18E], AccurateRip returned [44010FF1]
Copy OK
Track 21
Filename C:\Il Trovatore (Maria Callas, Orchestra e Coro del Teatro alla Scala, Milano; Karajan)\CD2\21 - Giuseppe Verdi - Act 4 - Scene 2 - Parlar non vuoi ...Ha quest'infame l'amor venduto.wav
Peak level 72.1 %
Track quality 100.0 %
Test CRC C29FDC06
Copy CRC C29FDC06
Cannot be verified as accurate (confidence 13) [9415F2DB], AccurateRip returned [9FB20F80]
Copy OK
Track 22
Filename C:\Il Trovatore (Maria Callas, Orchestra e Coro del Teatro alla Scala, Milano; Karajan)\CD2\22 - Giuseppe Verdi - Act 4 - Scene 2 - Ti scosta!.wav
Peak level 55.7 %
Track quality 100.0 %
Test CRC DD6CFF10
Copy CRC DD6CFF10
Cannot be verified as accurate (confidence 13) [E7ECB429], AccurateRip returned [7821E373]
Copy OK
Track 23
Filename C:\Il Trovatore (Maria Callas, Orchestra e Coro del Teatro alla Scala, Milano; Karajan)\CD2\23 - Giuseppe Verdi - Act 4 - Scene 2 - Prima che d'altri vivere.wav
Peak level 99.9 %
Track quality 100.0 %
Test CRC 508BD370
Copy CRC 508BD370
Cannot be verified as accurate (confidence 13) [80B9E825], AccurateRip returned [5EB09909]
Copy OK
No tracks could be verified as accurate
You may have a different pressing from the one(s) in the database
No errors occurred
End of status report

Содержание индексной карты (.CUE)

CD1

REM GENRE Opera
REM DATE 1956
REM DISCID 8F0FDF1D
REM COMMENT "ExactAudioCopy v0.99pb5"
CATALOG 0724355633422
PERFORMER "Giuseppe Verdi"
TITLE "Il Trovatore (Maria Callas, Orchestra e Coro del Teatro alla Scala, Milano; K..."
FILE "01 - Giuseppe Verdi - Act 1 - Scene 1 - All'erta! All'erta!.wav" WAVE
TRACK 01 AUDIO
TITLE "Act 1 - Scene 1 - All'erta! All'erta!"
PERFORMER "Giuseppe Verdi"
INDEX 01 00:00:00
FILE "02 - Giuseppe Verdi - Act 1 - Scene 1 - Di due figli vivea padre beato.wav" WAVE
TRACK 02 AUDIO
TITLE "Act 1 - Scene 1 - Di due figli vivea padre beato"
PERFORMER "Giuseppe Verdi"
INDEX 01 00:00:00
FILE "03 - Giuseppe Verdi - Act 1 - Scene 1 - Abbietta zingara, fosca vegliarda!.wav" WAVE
TRACK 03 AUDIO
TITLE "Act 1 - Scene 1 - Abbietta zingara, fosca vegliarda!"
PERFORMER "Giuseppe Verdi"
INDEX 01 00:00:00
FILE "04 - Giuseppe Verdi - Act 1 - Scene 1 - Brevi e tristi giorni visse.wav" WAVE
TRACK 04 AUDIO
TITLE "Act 1 - Scene 1 - Brevi e tristi giorni visse"
PERFORMER "Giuseppe Verdi"
INDEX 01 00:00:00
FILE "05 - Giuseppe Verdi - Act 1 - Scene 1 - Sull'orlo dei tetti.wav" WAVE
TRACK 05 AUDIO
TITLE "Act 1 - Scene 1 - Sull'orlo dei tetti"
PERFORMER "Giuseppe Verdi"
INDEX 01 00:00:00
FILE "06 - Giuseppe Verdi - Act 1 - Scene 2 - Che piщ t'arresti .wav" WAVE
TRACK 06 AUDIO
TITLE "Act 1 - Scene 2 - Che piщ t'arresti?"
PERFORMER "Giuseppe Verdi"
INDEX 01 00:00:00
FILE "07 - Giuseppe Verdi - Act 1 - Scene 2 - Tacea la notte placida.wav" WAVE
TRACK 07 AUDIO
TITLE "Act 1 - Scene 2 - Tacea la notte placida"
PERFORMER "Giuseppe Verdi"
INDEX 01 00:00:00
FILE "08 - Giuseppe Verdi - Act 1 - Scene 2 - Quanto narrasti di turbamento m'ha piena l'alma!.wav" WAVE
TRACK 08 AUDIO
TITLE "Act 1 - Scene 2 - Quanto narrasti di turbamento m'ha piena l'alma!"
PERFORMER "Giuseppe Verdi"
INDEX 01 00:00:00
FILE "09 - Giuseppe Verdi - Act 1 - Scene 2 - Di tale amor.wav" WAVE
TRACK 09 AUDIO
TITLE "Act 1 - Scene 2 - Di tale amor"
PERFORMER "Giuseppe Verdi"
INDEX 01 00:00:00
FILE "10 - Giuseppe Verdi - Act 1 - Scene 2 - Tace la notte!.wav" WAVE
TRACK 10 AUDIO
TITLE "Act 1 - Scene 2 - Tace la notte!"
PERFORMER "Giuseppe Verdi"
INDEX 01 00:00:00
FILE "11 - Giuseppe Verdi - Act 1 - Scene 2 - Il trovator! Io fremo!...Deserto sulla terra.wav" WAVE
TRACK 11 AUDIO
TITLE "Act 1 - Scene 2 - Il trovator! Io fremo!...Deserto sulla terra"
PERFORMER "Giuseppe Verdi"
INDEX 01 00:00:00
FILE "12 - Giuseppe Verdi - Act 1 - Scene 2 - Anima mia!...Piщ dell'usato.wav" WAVE
TRACK 12 AUDIO
TITLE "Act 1 - Scene 2 - Anima mia!...Piщ dell'usato"
PERFORMER "Giuseppe Verdi"
INDEX 01 00:00:00
FILE "13 - Giuseppe Verdi - Act 1 - Scene 2 - Di geloso amor sprezzato.wav" WAVE
TRACK 13 AUDIO
TITLE "Act 1 - Scene 2 - Di geloso amor sprezzato"
PERFORMER "Giuseppe Verdi"
INDEX 01 00:00:00
TRACK 14 AUDIO
TITLE "Act 2 - Scene 1 - Vedi! le fosche notturne"
PERFORMER "Giuseppe Verdi"
INDEX 00 02:31:62
FILE "14 - Giuseppe Verdi - Act 2 - Scene 1 - Vedi! le fosche notturne.wav" WAVE
INDEX 01 00:00:00
FILE "15 - Giuseppe Verdi - Act 2 - Scene 1 - Stride la vampa!.wav" WAVE
TRACK 15 AUDIO
TITLE "Act 2 - Scene 1 - Stride la vampa!"
PERFORMER "Giuseppe Verdi"
INDEX 01 00:00:00
FILE "16 - Giuseppe Verdi - Act 2 - Scene 1 - Mesta и la tua canzon!.wav" WAVE
TRACK 16 AUDIO
TITLE "Act 2 - Scene 1 - Mesta и la tua canzon!"
PERFORMER "Giuseppe Verdi"
INDEX 01 00:00:00
FILE "17 - Giuseppe Verdi - Act 2 - Scene 1 - Soli or siamo.wav" WAVE
TRACK 17 AUDIO
TITLE "Act 2 - Scene 1 - Soli or siamo"
PERFORMER "Giuseppe Verdi"
INDEX 01 00:00:00
FILE "18 - Giuseppe Verdi - Act 2 - Scene 1 - Condotta ell'era in ceppi.wav" WAVE
TRACK 18 AUDIO
TITLE "Act 2 - Scene 1 - Condotta ell'era in ceppi"
PERFORMER "Giuseppe Verdi"
INDEX 01 00:00:00
FILE "19 - Giuseppe Verdi - Act 2 - Scene 1 - Non son tuo figlio!.wav" WAVE
TRACK 19 AUDIO
TITLE "Act 2 - Scene 1 - Non son tuo figlio!"
PERFORMER "Giuseppe Verdi"
INDEX 01 00:00:00
FILE "20 - Giuseppe Verdi - Act 2 - Scene 1 - Mal reggendo all'aspro assalto.wav" WAVE
TRACK 20 AUDIO
TITLE "Act 2 - Scene 1 - Mal reggendo all'aspro assalto"
PERFORMER "Giuseppe Verdi"
INDEX 01 00:00:00
FILE "21 - Giuseppe Verdi - Act 2 - Scene 1 - L'usato messo Ruiz invia!...Mi vendica!.wav" WAVE
TRACK 21 AUDIO
TITLE "Act 2 - Scene 1 - L'usato messo Ruiz invia!...Mi vendica!"
PERFORMER "Giuseppe Verdi"
INDEX 01 00:00:00
FILE "22 - Giuseppe Verdi - Act 2 - Scene 1 - Perigliarti ancor languente.wav" WAVE
TRACK 22 AUDIO
TITLE "Act 2 - Scene 1 - Perigliarti ancor languente"
PERFORMER "Giuseppe Verdi"
INDEX 01 00:00:00
TRACK 23 AUDIO
TITLE "Act 2 - Scene 2 - Tutto и deserto"
PERFORMER "Giuseppe Verdi"
INDEX 00 02:26:68
FILE "23 - Giuseppe Verdi - Act 2 - Scene 2 - Tutto и deserto.wav" WAVE
INDEX 01 00:00:00
FILE "24 - Giuseppe Verdi - Act 2 - Scene 2 - Il balen del suo sorriso.wav" WAVE
TRACK 24 AUDIO
TITLE "Act 2 - Scene 2 - Il balen del suo sorriso"
PERFORMER "Giuseppe Verdi"
INDEX 01 00:00:00
FILE "25 - Giuseppe Verdi - Act 2 - Scene 2 - Qual suono! Oh ciel!.wav" WAVE
TRACK 25 AUDIO
TITLE "Act 2 - Scene 2 - Qual suono! Oh ciel!"
PERFORMER "Giuseppe Verdi"
INDEX 01 00:00:00
FILE "26 - Giuseppe Verdi - Act 2 - Scene 2 - Per me ora fatale.wav" WAVE
TRACK 26 AUDIO
TITLE "Act 2 - Scene 2 - Per me ora fatale"
PERFORMER "Giuseppe Verdi"
INDEX 01 00:00:00
FILE "27 - Giuseppe Verdi - Act 2 - Scene 2 - Ah! se l'error t'ingombra.wav" WAVE
TRACK 27 AUDIO
TITLE "Act 2 - Scene 2 - Ah! se l'error t'ingombra"
PERFORMER "Giuseppe Verdi"
INDEX 01 00:00:00
FILE "28 - Giuseppe Verdi - Act 2 - Scene 2 - Perchй piangete ...O dolci amiche.wav" WAVE
TRACK 28 AUDIO
TITLE "Act 2 - Scene 2 - Perchй piangete?...O dolci amiche"
PERFORMER "Giuseppe Verdi"
INDEX 01 00:00:00
FILE "29 - Giuseppe Verdi - Act 2 - Scene 2 - E deggio e posso crederlo .wav" WAVE
TRACK 29 AUDIO
TITLE "Act 2 - Scene 2 - E deggio e posso crederlo?"
PERFORMER "Giuseppe Verdi"
INDEX 01 00:00:00

CD2

REM GENRE Opera
REM DATE 1956
REM DISCID 3E0E6C17
REM COMMENT "ExactAudioCopy v0.99pb5"
CATALOG 0724355633521
PERFORMER "Giuseppe Verdi"
TITLE "Il Trovatore (Maria Callas, Orchestra e Coro del Teatro alla Scala, Milano; K..."
FILE "01 - Giuseppe Verdi - Act 3 - Scene 1 - Or co' dadi, ma fra poco.wav" WAVE
TRACK 01 AUDIO
TITLE " Act 3 - Scene 1 - Or co' dadi, ma fra poco"
PERFORMER "Giuseppe Verdi"
INDEX 01 00:00:00
FILE "02 - Giuseppe Verdi - Act 3 - Scene 1 - In braccio al mio rival!.wav" WAVE
TRACK 02 AUDIO
TITLE " Act 3 - Scene 1 - In braccio al mio rival!"
PERFORMER "Giuseppe Verdi"
INDEX 01 00:00:00
FILE "03 - Giuseppe Verdi - Act 3 - Scene 1 - Giorni poveri vivea.wav" WAVE
TRACK 03 AUDIO
TITLE " Act 3 - Scene 1 - Giorni poveri vivea"
PERFORMER "Giuseppe Verdi"
INDEX 01 00:00:00
FILE "04 - Giuseppe Verdi - Act 3 - Scene 1 - Deh! rallentate, o barbari.wav" WAVE
TRACK 04 AUDIO
TITLE " Act 3 - Scene 1 - Deh! rallentate, o barbari"
PERFORMER "Giuseppe Verdi"
INDEX 01 00:00:00
FILE "05 - Giuseppe Verdi - Act 3 - Scene 2 - Quale d'armi fragor.wav" WAVE
TRACK 05 AUDIO
TITLE " Act 3 - Scene 2 - Quale d'armi fragor"
PERFORMER "Giuseppe Verdi"
INDEX 01 00:00:00
FILE "06 - Giuseppe Verdi - Act 3 - Scene 2 - Ah sм, ben mio, coll'essere io tuo.wav" WAVE
TRACK 06 AUDIO
TITLE " Act 3 - Scene 2 - Ah sм, ben mio, coll'essere io tuo"
PERFORMER "Giuseppe Verdi"
INDEX 01 00:00:00
FILE "07 - Giuseppe Verdi - Act 3 - Scene 2 - L'onda de' suoni mistici pura discenda al cor!.wav" WAVE
TRACK 07 AUDIO
TITLE " Act 3 - Scene 2 - L'onda de' suoni mistici pura discenda al cor!"
PERFORMER "Giuseppe Verdi"
INDEX 01 00:00:00
FILE "08 - Giuseppe Verdi - Act 3 - Scene 2 - Di quella pira, l'orrendo foco.wav" WAVE
TRACK 08 AUDIO
TITLE " Act 3 - Scene 2 - Di quella pira, l'orrendo foco"
PERFORMER "Giuseppe Verdi"
INDEX 01 00:00:00
TRACK 09 AUDIO
TITLE " Act 4 - Scene 1 - Siam giunti; ecco la torre"
PERFORMER "Giuseppe Verdi"
INDEX 00 03:11:55
FILE "09 - Giuseppe Verdi - Act 4 - Scene 1 - Siam giunti; ecco la torre.wav" WAVE
INDEX 01 00:00:00
FILE "10 - Giuseppe Verdi - Act 4 - Scene 1 - D'amor sull'ali rosee.wav" WAVE
TRACK 10 AUDIO
TITLE " Act 4 - Scene 1 - D'amor sull'ali rosee"
PERFORMER "Giuseppe Verdi"
INDEX 01 00:00:00
FILE "11 - Giuseppe Verdi - Act 4 - Scene 1 - Misere...Quel suon, quelle preci.wav" WAVE
TRACK 11 AUDIO
TITLE " Act 4 - Scene 1 - Misere...Quel suon, quelle preci"
PERFORMER "Giuseppe Verdi"
INDEX 01 00:00:00
FILE "12 - Giuseppe Verdi - Act 4 - Scene 1 - Di te, di te scordarmi di te.wav" WAVE
TRACK 12 AUDIO
TITLE " Act 4 - Scene 1 - Di te, di te scordarmi di te"
PERFORMER "Giuseppe Verdi"
INDEX 01 00:00:00
FILE "13 - Giuseppe Verdi - Act 4 - Scene 1 - Udiste .wav" WAVE
TRACK 13 AUDIO
TITLE " Act 4 - Scene 1 - Udiste?"
PERFORMER "Giuseppe Verdi"
INDEX 01 00:00:00
FILE "14 - Giuseppe Verdi - Act 4 - Scene 1 - Mira, d'acerbe lagrime.wav" WAVE
TRACK 14 AUDIO
TITLE " Act 4 - Scene 1 - Mira, d'acerbe lagrime"
PERFORMER "Giuseppe Verdi"
INDEX 01 00:00:00
FILE "15 - Giuseppe Verdi - Act 4 - Scene 1 - Conte!...Nй basti!.wav" WAVE
TRACK 15 AUDIO
TITLE " Act 4 - Scene 1 - Conte!...Nй basti!"
PERFORMER "Giuseppe Verdi"
INDEX 01 00:00:00
FILE "16 - Giuseppe Verdi - Act 4 - Scene 1 - Colui vivrа...Vivrа! contende il giubilo.wav" WAVE
TRACK 16 AUDIO
TITLE " Act 4 - Scene 1 - Colui vivrа...Vivrа! contende il giubilo"
PERFORMER "Giuseppe Verdi"
INDEX 01 00:00:00
FILE "17 - Giuseppe Verdi - Act 4 - Scene 2 - Madre, non dormi .wav" WAVE
TRACK 17 AUDIO
TITLE " Act 4 - Scene 2 - Madre, non dormi?"
PERFORMER "Giuseppe Verdi"
INDEX 01 00:00:00
FILE "18 - Giuseppe Verdi - Act 4 - Scene 2 - Sм, la stanchezza m'opprime.wav" WAVE
TRACK 18 AUDIO
TITLE " Act 4 - Scene 2 - Sм, la stanchezza m'opprime"
PERFORMER "Giuseppe Verdi"
INDEX 01 00:00:00
FILE "19 - Giuseppe Verdi - Act 4 - Scene 2 - Ai nostri monti ritorneremo.wav" WAVE
TRACK 19 AUDIO
TITLE " Act 4 - Scene 2 - Ai nostri monti ritorneremo"
PERFORMER "Giuseppe Verdi"
INDEX 01 00:00:00
FILE "20 - Giuseppe Verdi - Act 4 - Scene 2 - Che! Non m'inganna.wav" WAVE
TRACK 20 AUDIO
TITLE " Act 4 - Scene 2 - Che! Non m'inganna"
PERFORMER "Giuseppe Verdi"
INDEX 01 00:00:00
FILE "21 - Giuseppe Verdi - Act 4 - Scene 2 - Parlar non vuoi ...Ha quest'infame l'amor venduto.wav" WAVE
TRACK 21 AUDIO
TITLE " Act 4 - Scene 2 - Parlar non vuoi?...Ha quest'infame l'amor venduto"
PERFORMER "Giuseppe Verdi"
INDEX 01 00:00:00
FILE "22 - Giuseppe Verdi - Act 4 - Scene 2 - Ti scosta!.wav" WAVE
TRACK 22 AUDIO
TITLE " Act 4 - Scene 2 - Ti scosta!"
PERFORMER "Giuseppe Verdi"
INDEX 01 00:00:00
FILE "23 - Giuseppe Verdi - Act 4 - Scene 2 - Prima che d'altri vivere.wav" WAVE
TRACK 23 AUDIO
TITLE " Act 4 - Scene 2 - Prima che d'altri vivere"
PERFORMER "Giuseppe Verdi"
INDEX 01 00:00:00
Студийная запись отличного качества с превосходным составом.



Показать сообщения:    

Текущее время: 09-Дек 08:54

Часовой пояс: UTC + 3


Вы не можете начинать темы
Вы не можете отвечать на сообщения
Вы не можете редактировать свои сообщения
Вы не можете удалять свои сообщения
Вы не можете голосовать в опросах
Вы не можете прикреплять файлы к сообщениям
Вы не можете скачивать файлы