(Opera / Classical) Верди - Набукко (Навуходоносор) / Giuseppe Verdi - Nabucco (Rysanek, MacNeil, Siepi, Fernandi, Elias; Schippers) - 2010, FLAC (tracks+.cue) lossless


 

[Цитировать]

Giuseppe Verdi - Nabucco (Rysanek, MacNeil, Siepi, Fernandi, Elias; Schippers)
Жанр: Opera / Classical
Год издания диска: 2010
Издатель (лейбл): MYTO
Номер по каталогу: 00235
Дата записи: 1960
Аудиокодек: FLAC
Тип рипа: tracks+.cue
Битрейт аудио: lossless
Продолжительность: 01:50:33
Источник: скачано с
сайт-источник/ник/другое: what.cd
Наличие сканов в содержимом раздачи: да
Треклист:

скрытый текст

CD1:
01. Ouverture (7:33) [339 Kb/s]
02. Gli arredi festivi giu (5:08) [341 Kb/s]
03. Sperate, o figli (3:51) [341 Kb/s]
04. Furibondo dell'Assiria (0:48) [356 Kb/s]
05. Come notte a sol fulgente (1:40) [371 Kb/s]
06. Fenena... O mia diletta (2:03) [337 Kb/s]
07. Guerrieri, e preso il tempio (1:58) [314 Kb/s]
08. Io t'amava... il regno e il core (3:46) [346 Kb/s]
09. Lo vedeste... Fulminando (3:59) [352 Kb/s]
10. Tremin gl'insani del mio furore (3:15) [345 Kb/s]
11. O vinti, il capo a terra (1:00) [342 Kb/s]
12. Mio furor, non piu costretto (1:51) [353 Kb/s]
13. Ben io t'invenni, o fatal scritto (3:25) [325 Kb/s]
14. Anch'io dischiuso un giorno (2:53) [312 Kb/s]
15. Chi s'avanza (1:17) [344 Kb/s]
16. Salgo gia del trono aurato (1:34) [353 Kb/s]
17. Tu sul labbro dei veggenti (5:54) [318 Kb/s]
18. Che si vuol, chi mai ci chiama (4:21) [339 Kb/s]
19. S'appressan gl'istanti (4:02) [334 Kb/s]
20. S'oda or me... Babilonesi (2:22) [330 Kb/s]
21. Chi mi toglie il regio scettro (3:04) [334 Kb/s]
CD2:
01. Va, pensiero, sull'ali dorate (4:50) [322 Kb/s]
02. Oh chi piange, di femmine imbelli (0:50) [325 Kb/s]
03. Del futuro nel buio discerno (3:29) [341 Kb/s]
04. Eccelsa donna, che d'Assiria il fato (3:25) [302 Kb/s]
05. Donna, chi sei (3:31) [307 Kb/s]
06. Oh di qual onta aggravasi (3:43) [320 Kb/s]
07. Oh qual suono (1:05) [321 Kb/s]
08. Deh perdona, deh perdona (2:01) [321 Kb/s]
09. Son pur queste mie membra (4:43) [310 Kb/s]
10. Dio di Giuda, l'ara, il tempio (2:38) [321 Kb/s]
11. Porta fatal, oh t'aprirai (0:52) [321 Kb/s]
12. Cadran, cadranno i perfidi (1:38) [352 Kb/s]
13. Va, la palma del martirio (1:41) [301 Kb/s]
14. Oh, dischiuso e il firmamento (2:11) [310 Kb/s]
15. Viva Nabucco (1:30) [304 Kb/s]
16. Su me... morente... esanime (3:05) [295 Kb/s]
17. Ah, torna, Israello (3:36) [333 Kb/s]
Исполнители:
Nabucco - Cornell MacNeil
Ismaele - Eugenio Fernandi
Zaccaria - Cesare Siepi
Abigaille - Leonie Rysanek
Fenena - Rosalind Elias
Il Gran Sacerdote di Belo - Bonaldo Giaiotti
Abdallo - Paul Franke
Anna - Carlotta Ordassy
Orchestra and Chorus of the Metropolitan Opera House
Conductor - Thomas Schippers

CD1 log

Exact Audio Copy V1.0 beta 3 from 29. August 2011
EAC extraction logfile from 1. September 2012, 16:53
Verdi / Nabucco - Schippers 1960 (2010) CD1of2
Used drive : Optiarc DVD RW AD-7231S5 Adapter: 0 ID: 1
Read mode : SecureUtilize accurate stream : YesDefeat audio cache : YesMake use of C2 pointers : No
Read offset correction : 48Overread into Lead-In and Lead-Out : NoFill up missing offset samples with silence : YesDelete leading and trailing silent blocks : NoNull samples used in CRC calculations : YesUsed interface : Native Win32 interface for Win NT & 2000Gap handling : Appended to previous track
Used output format : User Defined EncoderSelected bitrate : 1024 kBit/sQuality : HighAdd ID3 tag : NoCommand line compressor : C:\Program Files (x86)\Exact Audio Copy\Flac\flac.exeAdditional command line options : -8 -V -T "artist=%artist%" -T "title=%title%" -T "album=%albumtitle%" -T "date=%year%" -T "tracknumber=%tracknr%" -T "genre=%genre%" -8 %source%
TOC of the extracted CD
Track | Start | Length | Start sector | End sector --------------------------------------------------------- 1 | 0:00.00 | 7:33.08 | 0 | 33982 2 | 7:33.08 | 5:08.31 | 33983 | 57113 3 | 12:41.39 | 3:51.31 | 57114 | 74469 4 | 16:32.70 | 0:48.12 | 74470 | 78081 5 | 17:21.07 | 1:40.18 | 78082 | 85599 6 | 19:01.25 | 2:03.24 | 85600 | 94848 7 | 21:04.49 | 1:58.06 | 94849 | 103704 8 | 23:02.55 | 3:46.23 | 103705 | 120677 9 | 26:49.03 | 3:59.01 | 120678 | 138603 10 | 30:48.04 | 3:15.30 | 138604 | 153258 11 | 34:03.34 | 0:59.39 | 153259 | 157722 12 | 35:02.73 | 1:50.63 | 157723 | 166035 13 | 36:53.61 | 3:25.17 | 166036 | 181427 14 | 40:19.03 | 2:53.33 | 181428 | 194435 15 | 43:12.36 | 1:16.56 | 194436 | 200191 16 | 44:29.17 | 1:34.12 | 200192 | 207253 17 | 46:03.29 | 5:54.31 | 207254 | 233834 18 | 51:57.60 | 4:20.46 | 233835 | 253380 19 | 56:18.31 | 4:01.66 | 253381 | 271521 20 | 60:20.22 | 2:21.40 | 271522 | 282136 21 | 62:41.62 | 3:03.69 | 282137 | 295930
Track 1
Filename C:\EAC Rips\01 Ouverture.wav
Pre-gap length 0:00:02.00
Peak level 97.5 % Extraction speed 2.3 X Track quality 100.0 % Test CRC FFE7FE68 Copy CRC FFE7FE68 Track not present in AccurateRip database Copy OK
Track 2
Filename C:\EAC Rips\02 Gli arredi festivi giu.wav
Peak level 96.1 % Extraction speed 2.2 X Track quality 99.9 % Test CRC E79C3CCA Copy CRC E79C3CCA Track not present in AccurateRip database Copy OK
Track 3
Filename C:\EAC Rips\03 Sperate, o figli.wav
Peak level 87.3 % Extraction speed 2.3 X Track quality 99.9 % Test CRC 38D696DF Copy CRC 38D696DF Track not present in AccurateRip database Copy OK
Track 4
Filename C:\EAC Rips\04 Furibondo dell'Assiria.wav
Peak level 92.1 % Extraction speed 1.7 X Track quality 100.0 % Test CRC 2E3BB5CE Copy CRC 2E3BB5CE Track not present in AccurateRip database Copy OK
Track 5
Filename C:\EAC Rips\05 Come notte a sol fulgente.wav
Peak level 94.0 % Extraction speed 1.7 X Track quality 99.8 % Test CRC DDCD22D1 Copy CRC DDCD22D1 Track not present in AccurateRip database Copy OK
Track 6
Filename C:\EAC Rips\06 Fenena... O mia diletta.wav
Peak level 77.2 % Extraction speed 2.5 X Track quality 100.0 % Test CRC BBF89BE1 Copy CRC BBF89BE1 Track not present in AccurateRip database Copy OK
Track 7
Filename C:\EAC Rips\07 Guerrieri, e preso il tempio.wav
Peak level 93.1 % Extraction speed 2.5 X Track quality 100.0 % Test CRC B6F7BDBA Copy CRC B6F7BDBA Track not present in AccurateRip database Copy OK
Track 8
Filename C:\EAC Rips\08 Io t'amava... il regno e il core.wav
Peak level 81.4 % Extraction speed 2.9 X Track quality 100.0 % Test CRC 5FF89899 Copy CRC 5FF89899 Track not present in AccurateRip database Copy OK
Track 9
Filename C:\EAC Rips\09 Lo vedeste... Fulminando.wav
Peak level 93.5 % Extraction speed 2.7 X Track quality 99.9 % Test CRC 64CE18E4 Copy CRC 64CE18E4 Track not present in AccurateRip database Copy OK
Track 10
Filename C:\EAC Rips\10 Tremin gl'insani del mio furore.wav
Peak level 96.4 % Extraction speed 3.1 X Track quality 100.0 % Test CRC 28E30D87 Copy CRC 28E30D87 Track not present in AccurateRip database Copy OK
Track 11
Filename C:\EAC Rips\11 O vinti, il capo a terra.wav
Peak level 73.5 % Extraction speed 2.3 X Track quality 100.0 % Test CRC E453C788 Copy CRC E453C788 Track not present in AccurateRip database Copy OK
Track 12
Filename C:\EAC Rips\12 Mio furor, non piu costretto.wav
Peak level 86.4 % Extraction speed 2.8 X Track quality 100.0 % Test CRC CD50D0E3 Copy CRC CD50D0E3 Track not present in AccurateRip database Copy OK
Track 13
Filename C:\EAC Rips\13 Ben io t'invenni, o fatal scritto.wav
Peak level 77.8 % Extraction speed 3.4 X Track quality 100.0 % Test CRC 9F234512 Copy CRC 9F234512 Track not present in AccurateRip database Copy OK
Track 14
Filename C:\EAC Rips\14 Anch'io dischiuso un giorno.wav
Peak level 81.7 % Extraction speed 3.3 X Track quality 100.0 % Test CRC D6864918 Copy CRC D6864918 Track not present in AccurateRip database Copy OK
Track 15
Filename C:\EAC Rips\15 Chi s'avanza.wav
Peak level 77.6 % Extraction speed 2.8 X Track quality 100.0 % Test CRC 490097A8 Copy CRC 490097A8 Track not present in AccurateRip database Copy OK
Track 16
Filename C:\EAC Rips\16 Salgo gia del trono aurato.wav
Peak level 80.9 % Extraction speed 2.9 X Track quality 100.0 % Test CRC 00C22C3B Copy CRC 00C22C3B Track not present in AccurateRip database Copy OK
Track 17
Filename C:\EAC Rips\17 Tu sul labbro dei veggenti.wav
Peak level 78.2 % Extraction speed 3.9 X Track quality 100.0 % Test CRC 26292BBA Copy CRC 26292BBA Track not present in AccurateRip database Copy OK
Track 18
Filename C:\EAC Rips\18 Che si vuol, chi mai ci chiama.wav
Peak level 96.3 % Extraction speed 3.3 X Track quality 99.9 % Test CRC D5FCE079 Copy CRC D5FCE079 Track not present in AccurateRip database Copy OK
Track 19
Filename C:\EAC Rips\19 S'appressan gl'istanti.wav
Peak level 100.0 % Extraction speed 3.9 X Track quality 100.0 % Test CRC AB821CF1 Copy CRC AB821CF1 Track not present in AccurateRip database Copy OK
Track 20
Filename C:\EAC Rips\20 S'oda or me... Babilonesi.wav
Peak level 98.6 % Extraction speed 3.7 X Track quality 100.0 % Test CRC 3A8C5320 Copy CRC 3A8C5320 Track not present in AccurateRip database Copy OK
Track 21
Filename C:\EAC Rips\21 Chi mi toglie il regio scettro.wav
Peak level 79.4 % Extraction speed 3.3 X Track quality 99.9 % Test CRC BC392C4E Copy CRC BC392C4E Track not present in AccurateRip database Copy OK
None of the tracks are present in the AccurateRip database
No errors occurred
End of status report
---- CUETools DB Plugin V2.1.3
[CTDB TOCID: eIvqz121N0ySahTuKhXqb37T17E-] disk not present in database, Submit result: eIvqz121N0ySahTuKhXqb37T17E- has been uploaded
==== Log checksum 76CD7C9017520D1842BC63EFF1A234210B3B37A007EF94D63B529F8A7E4257A4 ====

CD2 log

Exact Audio Copy V1.0 beta 3 from 29. August 2011
EAC extraction logfile from 1. September 2012, 18:00
Verdi / Nabucco - Schippers 1960 (2010) CD2of2
Used drive : Optiarc DVD RW AD-7231S5 Adapter: 0 ID: 1
Read mode : SecureUtilize accurate stream : YesDefeat audio cache : YesMake use of C2 pointers : No
Read offset correction : 48Overread into Lead-In and Lead-Out : NoFill up missing offset samples with silence : YesDelete leading and trailing silent blocks : NoNull samples used in CRC calculations : YesUsed interface : Native Win32 interface for Win NT & 2000Gap handling : Appended to previous track
Used output format : User Defined EncoderSelected bitrate : 1024 kBit/sQuality : HighAdd ID3 tag : NoCommand line compressor : C:\Program Files (x86)\Exact Audio Copy\Flac\flac.exeAdditional command line options : -8 -V -T "artist=%artist%" -T "title=%title%" -T "album=%albumtitle%" -T "date=%year%" -T "tracknumber=%tracknr%" -T "genre=%genre%" -8 %source%
TOC of the extracted CD
Track | Start | Length | Start sector | End sector --------------------------------------------------------- 1 | 0:00.00 | 4:49.45 | 0 | 21719 2 | 4:49.45 | 0:49.58 | 21720 | 25452 3 | 5:39.28 | 3:28.71 | 25453 | 41123 4 | 9:08.24 | 3:25.23 | 41124 | 56521 5 | 12:33.47 | 3:31.32 | 56522 | 72378 6 | 16:05.04 | 3:43.34 | 72379 | 89137 7 | 19:48.38 | 1:05.02 | 89138 | 94014 8 | 20:53.40 | 2:01.16 | 94015 | 103105 9 | 22:54.56 | 4:42.51 | 103106 | 124306 10 | 27:37.32 | 2:37.44 | 124307 | 136125 11 | 30:15.01 | 0:52.23 | 136126 | 140048 12 | 31:07.24 | 1:37.38 | 140049 | 147361 13 | 32:44.62 | 1:41.21 | 147362 | 154957 14 | 34:26.08 | 2:10.68 | 154958 | 164775 15 | 36:37.01 | 1:30.29 | 164776 | 171554 16 | 38:07.30 | 3:04.44 | 171555 | 185398 17 | 41:11.74 | 3:35.50 | 185399 | 201573
Track 1
Filename C:\EAC Rips\01 Va, pensiero, sull'ali dorate.wav
Pre-gap length 0:00:02.00
Peak level 83.1 % Extraction speed 1.8 X Track quality 100.0 % Test CRC F1CAF13E Copy CRC F1CAF13E Track not present in AccurateRip database Copy OK
Track 2
Filename C:\EAC Rips\02 Oh chi piange, di femmine imbelli.wav
Peak level 72.6 % Extraction speed 0.8 X Track quality 99.7 % Test CRC A4F03583 Copy CRC A4F03583 Track not present in AccurateRip database Copy OK
Track 3
Filename C:\EAC Rips\03 Del futuro nel buio discerno.wav
Peak level 96.1 % Extraction speed 2.0 X Track quality 100.0 % Test CRC EB8936EC Copy CRC EB8936EC Track not present in AccurateRip database Copy OK
Track 4
Filename C:\EAC Rips\04 Eccelsa donna, che d'Assiria il fato.wav
Peak level 53.2 % Extraction speed 2.2 X Track quality 100.0 % Test CRC B96CEE43 Copy CRC B96CEE43 Track not present in AccurateRip database Copy OK
Track 5
Filename C:\EAC Rips\05 Donna, chi sei.wav
Peak level 60.9 % Extraction speed 2.3 X Track quality 100.0 % Test CRC FF25D27F Copy CRC FF25D27F Track not present in AccurateRip database Copy OK
Track 6
Filename C:\EAC Rips\06 Oh di qual onta aggravasi.wav
Peak level 58.3 % Extraction speed 2.1 X Track quality 99.9 % Test CRC 7807585B Copy CRC 7807585B Track not present in AccurateRip database Copy OK
Track 7
Filename C:\EAC Rips\07 Oh qual suono.wav
Peak level 59.8 % Extraction speed 1.8 X Track quality 100.0 % Test CRC 2F8ED672 Copy CRC 2F8ED672 Track not present in AccurateRip database Copy OK
Track 8
Filename C:\EAC Rips\08 Deh perdona, deh perdona.wav
Peak level 69.8 % Extraction speed 2.3 X Track quality 100.0 % Test CRC 68292706 Copy CRC 68292706 Track not present in AccurateRip database Copy OK
Track 9
Filename C:\EAC Rips\09 Son pur queste mie membra.wav
Peak level 80.3 % Extraction speed 2.8 X Track quality 100.0 % Test CRC A3903ABA Copy CRC A3903ABA Track not present in AccurateRip database Copy OK
Track 10
Filename C:\EAC Rips\10 Dio di Giuda, l'ara, il tempio.wav
Peak level 70.0 % Extraction speed 2.7 X Track quality 100.0 % Test CRC E72F03E8 Copy CRC E72F03E8 Track not present in AccurateRip database Copy OK
Track 11
Filename C:\EAC Rips\11 Porta fatal, oh t'aprirai.wav
Peak level 64.2 % Extraction speed 2.0 X Track quality 100.0 % Test CRC 77B72998 Copy CRC 77B72998 Track not present in AccurateRip database Copy OK
Track 12
Filename C:\EAC Rips\12 Cadran, cadranno i perfidi.wav
Peak level 59.3 % Extraction speed 2.4 X Track quality 100.0 % Test CRC 73BC1855 Copy CRC 73BC1855 Track not present in AccurateRip database Copy OK
Track 13
Filename C:\EAC Rips\13 Va, la palma del martirio.wav
Peak level 34.3 % Extraction speed 2.5 X Track quality 100.0 % Test CRC 8A615666 Copy CRC 8A615666 Track not present in AccurateRip database Copy OK
Track 14
Filename C:\EAC Rips\14 Oh, dischiuso e il firmamento.wav
Peak level 49.4 % Extraction speed 2.8 X Track quality 100.0 % Test CRC 419C483F Copy CRC 419C483F Track not present in AccurateRip database Copy OK
Track 15
Filename C:\EAC Rips\15 Viva Nabucco.wav
Peak level 66.2 % Extraction speed 2.6 X Track quality 100.0 % Test CRC E0A80D52 Copy CRC E0A80D52 Track not present in AccurateRip database Copy OK
Track 16
Filename C:\EAC Rips\16 Su me... morente... esanime.wav
Peak level 50.0 % Extraction speed 2.6 X Track quality 99.9 % Test CRC BECBE7FD Copy CRC BECBE7FD Track not present in AccurateRip database Copy OK
Track 17
Filename C:\EAC Rips\17 Ah, torna, Israello.wav
Peak level 78.3 % Extraction speed 3.2 X Track quality 100.0 % Test CRC 99CD8980 Copy CRC 99CD8980 Track not present in AccurateRip database Copy OK
None of the tracks are present in the AccurateRip database
No errors occurred
End of status report
---- CUETools DB Plugin V2.1.3
[CTDB TOCID: U0Hz_RAIB29dRf3owNaN2uU_b9A-] disk not present in database, Submit result: U0Hz_RAIB29dRf3owNaN2uU_b9A- has been uploaded
==== Log checksum 9B5F4F21E31F83EEB5745497D011B5A1E4AED8488763B952A935D28358C07C55 ====

CD1 .cue

REM GENRE OperaREM DATE 1960REM DISCID 170F6915REM COMMENT "ExactAudioCopy v1.0b3"PERFORMER "Verdi"TITLE "Nabucco - Schippers 1960 (2010) CD1of2"FILE "01 Ouverture.flac" FLAC TRACK 01 AUDIO TITLE "Ouverture" PERFORMER "Verdi" INDEX 01 00:00:00FILE "02 Gli arredi festivi giu.flac" FLAC TRACK 02 AUDIO TITLE "Gli arredi festivi giu" PERFORMER "Verdi" INDEX 01 00:00:00FILE "03 Sperate, o figli.flac" FLAC TRACK 03 AUDIO TITLE "Sperate, o figli" PERFORMER "Verdi" INDEX 01 00:00:00FILE "04 Furibondo dell'Assiria.flac" FLAC TRACK 04 AUDIO TITLE "Furibondo dell'Assiria" PERFORMER "Verdi" INDEX 01 00:00:00FILE "05 Come notte a sol fulgente.flac" FLAC TRACK 05 AUDIO TITLE "Come notte a sol fulgente" PERFORMER "Verdi" INDEX 01 00:00:00FILE "06 Fenena... O mia diletta.flac" FLAC TRACK 06 AUDIO TITLE "Fenena... O mia diletta" PERFORMER "Verdi" INDEX 01 00:00:00FILE "07 Guerrieri, e preso il tempio.flac" FLAC TRACK 07 AUDIO TITLE "Guerrieri, e preso il tempio" PERFORMER "Verdi" INDEX 01 00:00:00FILE "08 Io t'amava... il regno e il core.flac" FLAC TRACK 08 AUDIO TITLE "Io t'amava... il regno e il core" PERFORMER "Verdi" INDEX 01 00:00:00FILE "09 Lo vedeste... Fulminando.flac" FLAC TRACK 09 AUDIO TITLE "Lo vedeste... Fulminando" PERFORMER "Verdi" INDEX 01 00:00:00FILE "10 Tremin gl'insani del mio furore.flac" FLAC TRACK 10 AUDIO TITLE "Tremin gl'insani del mio furore" PERFORMER "Verdi" INDEX 01 00:00:00FILE "11 O vinti, il capo a terra.flac" FLAC TRACK 11 AUDIO TITLE "O vinti, il capo a terra" PERFORMER "Verdi" INDEX 01 00:00:00FILE "12 Mio furor, non piu costretto.flac" FLAC TRACK 12 AUDIO TITLE "Mio furor, non piu costretto" PERFORMER "Verdi" INDEX 01 00:00:00FILE "13 Ben io t'invenni, o fatal scritto.flac" FLAC TRACK 13 AUDIO TITLE "Ben io t'invenni, o fatal scritto" PERFORMER "Verdi" INDEX 01 00:00:00FILE "14 Anch'io dischiuso un giorno.flac" FLAC TRACK 14 AUDIO TITLE "Anch'io dischiuso un giorno" PERFORMER "Verdi" INDEX 01 00:00:00FILE "15 Chi s'avanza.flac" FLAC TRACK 15 AUDIO TITLE "Chi s'avanza" PERFORMER "Verdi" INDEX 01 00:00:00FILE "16 Salgo gia del trono aurato.flac" FLAC TRACK 16 AUDIO TITLE "Salgo gia del trono aurato" PERFORMER "Verdi" INDEX 01 00:00:00FILE "17 Tu sul labbro dei veggenti.flac" FLAC TRACK 17 AUDIO TITLE "Tu sul labbro dei veggenti" PERFORMER "Verdi" INDEX 01 00:00:00FILE "18 Che si vuol, chi mai ci chiama.flac" FLAC TRACK 18 AUDIO TITLE "Che si vuol, chi mai ci chiama" PERFORMER "Verdi" INDEX 01 00:00:00FILE "19 S'appressan gl'istanti.flac" FLAC TRACK 19 AUDIO TITLE "S'appressan gl'istanti" PERFORMER "Verdi" INDEX 01 00:00:00FILE "20 S'oda or me... Babilonesi.flac" FLAC TRACK 20 AUDIO TITLE "S'oda or me... Babilonesi" PERFORMER "Verdi" INDEX 01 00:00:00FILE "21 Chi mi toglie il regio scettro.flac" FLAC TRACK 21 AUDIO TITLE "Chi mi toglie il regio scettro" PERFORMER "Verdi" INDEX 01 00:00:00

CD2 .cue

REM GENRE OperaREM DATE 1960REM DISCID 170F6915REM COMMENT "ExactAudioCopy v1.0b3"PERFORMER "Verdi"TITLE "Nabucco - Schippers 1960 (2010) CD2of2"FILE "01 Va, pensiero, sull'ali dorate.flac" FLAC TRACK 01 AUDIO TITLE "Va, pensiero, sull'ali dorate" PERFORMER "Verdi" INDEX 01 00:00:00FILE "02 Oh chi piange, di femmine imbelli.flac" FLAC TRACK 02 AUDIO TITLE "Oh chi piange, di femmine imbelli" PERFORMER "Verdi" INDEX 01 00:00:00FILE "03 Del futuro nel buio discerno.flac" FLAC TRACK 03 AUDIO TITLE "Del futuro nel buio discerno" PERFORMER "Verdi" INDEX 01 00:00:00FILE "04 Eccelsa donna, che d'Assiria il fato.flac" FLAC TRACK 04 AUDIO TITLE "Eccelsa donna, che d'Assiria il fato" PERFORMER "Verdi" INDEX 01 00:00:00FILE "05 Donna, chi sei.flac" FLAC TRACK 05 AUDIO TITLE "Donna, chi sei" PERFORMER "Verdi" INDEX 01 00:00:00FILE "06 Oh di qual onta aggravasi.flac" FLAC TRACK 06 AUDIO TITLE "Oh di qual onta aggravasi" PERFORMER "Verdi" INDEX 01 00:00:00FILE "07 Oh qual suono.flac" FLAC TRACK 07 AUDIO TITLE "Oh qual suono" PERFORMER "Verdi" INDEX 01 00:00:00FILE "08 Deh perdona, deh perdona.flac" FLAC TRACK 08 AUDIO TITLE "Deh perdona, deh perdona" PERFORMER "Verdi" INDEX 01 00:00:00FILE "09 Son pur queste mie membra.flac" FLAC TRACK 09 AUDIO TITLE "Son pur queste mie membra" PERFORMER "Verdi" INDEX 01 00:00:00FILE "10 Dio di Giuda, l'ara, il tempio.flac" FLAC TRACK 10 AUDIO TITLE "Dio di Giuda, l'ara, il tempio" PERFORMER "Verdi" INDEX 01 00:00:00FILE "11 Porta fatal, oh t'aprirai.flac" FLAC TRACK 11 AUDIO TITLE "Porta fatal, oh t'aprirai" PERFORMER "Verdi" INDEX 01 00:00:00FILE "12 Cadran, cadranno i perfidi.flac" FLAC TRACK 12 AUDIO TITLE "Cadran, cadranno i perfidi" PERFORMER "Verdi" INDEX 01 00:00:00FILE "13 Va, la palma del martirio.flac" FLAC TRACK 13 AUDIO TITLE "Va, la palma del martirio" PERFORMER "Verdi" INDEX 01 00:00:00FILE "14 Oh, dischiuso e il firmamento.flac" FLAC TRACK 14 AUDIO TITLE "Oh, dischiuso e il firmamento" PERFORMER "Verdi" INDEX 01 00:00:00FILE "15 Viva Nabucco.flac" FLAC TRACK 15 AUDIO TITLE "Viva Nabucco" PERFORMER "Verdi" INDEX 01 00:00:00FILE "16 Su me... morente... esanime.flac" FLAC TRACK 16 AUDIO TITLE "Su me... morente... esanime" PERFORMER "Verdi" INDEX 01 00:00:00FILE "17 Ah, torna, Israello.flac" FLAC TRACK 17 AUDIO TITLE "Ah, torna, Israello" PERFORMER "Verdi" INDEX 01 00:00:00



Показать сообщения:    

Текущее время: 10-Дек 19:41

Часовой пояс: UTC + 3


Вы не можете начинать темы
Вы не можете отвечать на сообщения
Вы не можете редактировать свои сообщения
Вы не можете удалять свои сообщения
Вы не можете голосовать в опросах
Вы не можете прикреплять файлы к сообщениям
Вы не можете скачивать файлы