(Baroque opera) Marc-Antoine Charpentier - La Descente d'Orphee aux Enfers (Patricia Petibon, Monique Zanetti, Sophie Daneman, Paul Agnew / Les Arts Florissants, William Christie) - 2005, FLAC (image+.cue) lossless


 

[Цитировать]

Marc-Antoine Charpentier - La Descente d'Orphee aux Enfers

Жанр: Baroque opera
Страна-производитель диска: Made in Germany
Год издания диска: 2005
Издатель (лейбл): Warner Classics / Erato
Номер по каталогу: 0630-11913-2
Дата записи: 1995
Аудиокодек: FLAC
Тип рипа: image+.cue
Битрейт аудио: lossless
Продолжительность: Total time: 56'10"
Источник: релизер
сайт-источник/ник/другое: личные запасы
Наличие сканов в содержимом раздачи: да
Треклист:

скрытый текст

01. Ouverture 2:54
ACT I
Scene 1
02. «Inventons mille jeux divers» (Daphne, chorus) 4:06
Entree des nymphes
«Ruisseau qui dans ce beau sejour» (Enone, Arethuze)
03. «Compagnes fideles» (Euridice) 3:15
04. «Soutiens-moi, chere Enone» (Euridice) 1:12
Scene 2
«Qu'ai-je entendu, que vois-je!» (Orphee)
05. «Ah, bergers, c'en est fait» (Orphee) 2:50
06. Entree de nymphes et de bergers desesperes 2:17
«Lache amant» (Orphee)
Scene 3
07. «Ne tourne point, mon fils» (Apollon) 2:05
08. «Que d'un frivole espoir» (Orphee) 3:14
«Juste sujet de pleurs» (chorus)
ACT II «L'Enfer»
Scene 1
09. Prelude 1:24
«Affreux tourments» (Tantale, Ixion, Titye, Furies chantantes)
Scene 2
10. Prelude 3:45
«Cessez, cessez, fameux coupables» (Orphee)
11. «Je ne refuse point le secours» (Orphee) 2:45
«Il n'est rien aux Enfers» (chorus)
12. Les fantomes 1:11
Scene 3
13. Prelude 0:56
«Que ne cherche en mon palais» (Pluton)
14. «Je ne viens point ici» (Orphee) 4:34
«Pauvre amant» (Proserpine)
15. «Euridice n'est plus» (Orphee) 4:09
«Le destin est contraire» (Pluton)
«Ah, puisqu'avant le temps» (Proserpine)
16. «Tu ne la perdras point, helas!» (Orphee) 4:01
«Quel charme imperieux» (Pluton)
«Courage Orphee» (Proserpine)
17. «Souviens-toi du larcin» (Orphee) 4:01
18. «Je cede, je me rends» (Pluton) 2:03
Scene 4
19. «Vous partez donc, Orphee» (chorus) 3:25
20. Entree des fantomes 1:57
Total time: 56'10"
Исполнители:

скрытый текст

Marc-Antoine Charpentier (1643-1704)
La Descente d'Orphee aux Enfers
Daphne, Enone - Patricia Petibon (soprano)
Proserpine - Monique Zanetti (soprano)
Arethuze - Katalin Karolyi (alto)
Euridice - Sophie Daneman (soprano)
Orphee - Paul Agnew (tenor)
Apollon, Titye - Jean-Francois Gardeil (bass-baritone)
Ixion - Steve Dugardin (counter-tenor)
Tantale - Francois Piolino (tenor)
Pluton - Fernand Bernadi (bass-baritone)
Les Arts Florissants
Simon Heyerick, Isabel Serrano (violin)
Kaori Uemura, Philippe Pierlot, Anne-Marie Lasla (bass viol)
Serge Saitta, Sebastien Marq (flute)
Elizabeth Kenny (lute)
William Christie (harpsichord & organ)
dir. William Christie
Recording: 20-23/05/1995, Salle Berthier, Opera Comique, Paris
Audio CD (August 18, 2005)

Лог создания рипа

Exact Audio Copy V0.99 prebeta 5 from 4. May 2009
EAC extraction logfile from 26. August 2010, 17:06
Charpentier, Marc-Antoine / La descente d'Orphйe aux Enfers H488
Used drive : TSSTcorpCDDVDW TS-L632H Adapter: 2 ID: 0
Read mode : SecureUtilize accurate stream : YesDefeat audio cache : YesMake use of C2 pointers : No
Read offset correction : 6Overread into Lead-In and Lead-Out : NoFill up missing offset samples with silence : YesDelete leading and trailing silent blocks : NoNull samples used in CRC calculations : YesUsed interface : Native Win32 interface for Win NT & 2000
Used output format : User Defined EncoderSelected bitrate : 768 kBit/sQuality : HighAdd ID3 tag : NoCommand line compressor : C:\Program Files\Exact Audio Copy\Flac\flac.exeAdditional command line options : -8 -V -T "ARTIST=%a" -T "TITLE=%t" -T "ALBUM=%g" -T "DATE=%y" -T "TRACKNUMBER=%n" -T "TOTALTRACKS=%x" -T "GENRE=%m" -T "ALBUM ARTIST=%v" -T "ALBUMARTIST=%v" -T "COMMENT=EAC V0.99 prebeta 4, Secure Mode, Test & Copy, FLAC -8
TOC of the extracted CD
Track | Start | Length | Start sector | End sector --------------------------------------------------------- 1 | 0:00.00 | 2:54.32 | 0 | 13081 2 | 2:54.32 | 4:05.60 | 13082 | 31516 3 | 7:00.17 | 3:15.25 | 31517 | 46166 4 | 10:15.42 | 1:12.33 | 46167 | 51599 5 | 11:28.00 | 2:50.00 | 51600 | 64349 6 | 14:18.00 | 2:17.50 | 64350 | 74674 7 | 16:35.50 | 2:04.70 | 74675 | 84044 8 | 18:40.45 | 3:20.00 | 84045 | 99044 9 | 22:00.45 | 1:23.05 | 99045 | 105274 10 | 23:23.50 | 3:45.00 | 105275 | 122149 11 | 27:08.50 | 2:45.25 | 122150 | 134549 12 | 29:54.00 | 1:10.50 | 134550 | 139849 13 | 31:04.50 | 0:56.00 | 139850 | 144049 14 | 32:00.50 | 4:34.00 | 144050 | 164599 15 | 36:34.50 | 4:09.25 | 164600 | 183299 16 | 40:44.00 | 4:00.65 | 183300 | 201364 17 | 44:44.65 | 4:00.60 | 201365 | 219424 18 | 48:45.50 | 2:03.15 | 219425 | 228664 19 | 50:48.65 | 3:25.22 | 228665 | 244061 20 | 54:14.12 | 1:56.68 | 244062 | 252829
Range status and errors
Selected range
Filename C:\HorByr\Charpentier, Marc-Antoine - La descente d'Orphйe aux Enfers H488.wav
Peak level 100.0 % Range quality 100.0 % Copy CRC 97650632 Copy OK
No errors occurred
AccurateRip summary
Track 1 cannot be verified as accurate (confidence 16) [1CEB4841], AccurateRip returned [383DBF87]Track 2 cannot be verified as accurate (confidence 15) [63ACB299], AccurateRip returned [D537438D]Track 3 cannot be verified as accurate (confidence 15) [AF30B70C], AccurateRip returned [485E939B]Track 4 cannot be verified as accurate (confidence 15) [EA2B64D5], AccurateRip returned [153A8EF4]Track 5 cannot be verified as accurate (confidence 15) [B0A158EB], AccurateRip returned [FE441A0C]Track 6 cannot be verified as accurate (confidence 8) [39FEED1A], AccurateRip returned [365D8284]Track 7 cannot be verified as accurate (confidence 11) [2723EC00], AccurateRip returned [10D4D2E7]Track 8 cannot be verified as accurate (confidence 11) [F8DD4DF9], AccurateRip returned [06F2EEAB]Track 9 cannot be verified as accurate (confidence 11) [D5674496], AccurateRip returned [BB659D78]Track 10 cannot be verified as accurate (confidence 11) [4B61D3A9], AccurateRip returned [BAB77108]Track 11 cannot be verified as accurate (confidence 11) [A2B19FB4], AccurateRip returned [D66D9A49]Track 12 cannot be verified as accurate (confidence 11) [4C3AECEE], AccurateRip returned [32045005]Track 13 cannot be verified as accurate (confidence 11) [5260A71E], AccurateRip returned [FAA7D529]Track 14 cannot be verified as accurate (confidence 11) [9E1D1349], AccurateRip returned [53F2EC6D]Track 15 cannot be verified as accurate (confidence 3) [5CA7B5DD], AccurateRip returned [49649823]Track 16 cannot be verified as accurate (confidence 10) [EBE5AFD9], AccurateRip returned [82A4E671]Track 17 cannot be verified as accurate (confidence 10) [3DE4B2ED], AccurateRip returned [4D13B0ED]Track 18 cannot be verified as accurate (confidence 10) [07B6C188], AccurateRip returned [DD6CD467]Track 19 cannot be verified as accurate (confidence 10) [C4CE5E7A], AccurateRip returned [B4F5C29B]Track 20 cannot be verified as accurate (confidence 10) [D5BED4E4], AccurateRip returned [D256EBEE]
No tracks could be verified as accurateYou may have a different pressing from the one(s) in the database
End of status report



Показать сообщения:    

Текущее время: 19-Янв 22:16

Часовой пояс: UTC + 3


Вы не можете начинать темы
Вы не можете отвечать на сообщения
Вы не можете редактировать свои сообщения
Вы не можете удалять свои сообщения
Вы не можете голосовать в опросах
Вы не можете прикреплять файлы к сообщениям
Вы не можете скачивать файлы