(Baroque opera) Handel - Xerxes (Serse) / Гендель - Ксеркс (Ann Murray, Patricia Bardon, Yvonne Kenny / Bavarian State Opera Chorus, Bavarian State Opera Orchestra, Ivor Bolton) - 2005, FLAC (image+.cue), lossless


 

[Цитировать]

Handel: Xerxes - Ann Murray, Patricia Bardon, Yvonne Kenny

Жанр: Baroque opera
Год выпуска диска: 2005
Производитель диска: Label: Farao Classics
Аудио кодек: FLAC
Тип рипа: image+.cue
Битрейт аудио: lossless
Год записи диска: 1997
Продолжительность: CD1 [63:56] + CD2 [40:28] + CD3 [69:01]
Источник: релизер
сайт-источник/ник/другое: Bill
Наличие сканов в содержимом раздачи: полный буклет
Трэклист:

скрытый текст

Disc: 1
1. Ov - Bavarian State Orch/Ivor Bolton
2. Act I: Recitativo Serse - Ann Murray
3. Act I: Arioso Serse: Ombra Mai Fu - Ann Murray
4. Act I: Recitativo Arsamene/Elviro - Christopher Robson/Jan Zinkler
5. Act I: Recitativo E Arioso Romilda: O Voi, Che Penate - Yvonne Kenny
6. Act I: Recitativo Serse/Arsamene - Ann Murray/Christopher Robson
7. Act I: Aria Romilda: Va Godendo - Yvonne Kenny
8. Act I: Recitativo Serse/Arsamene - Ann Murray/Christopher Robson
9. Act I: Duetto Serse/Arsamene: Lo Le Diro Che L'amo - Ann Murray/Christopher Robson
10. Act I: Recitativo Romilda/Arsamene - Yvonne Kenny/Chrostopher Robson
11. Act I: Aria Atalanta: Si, Si, Mio Ben - Julie Kaufmann
12. Act I: Recitativo Elviro/Arsamene/Serse/Romilda - Jan Zinkler/Christopher Robson/Ann Murray/Yvonne Kenny
13. Act I: Aria Arsamene: Meglio In Voi Col Mio Partire - Christopher Robson
14. Act I: Recitativo Serse - Ann Murray
15. Act I: Aria Serse: Di Tacere E Di Schernirmi - Ann Murray
16. Act I: Recitativo Romilda - Yvonne Kenny
17. Act I: Aria Romilda: Ne Men Con L'ombre - Yvonne Kenny
18. Act I: Aria Amastre: Se Cangio Spoglia - Patricia Bardon
19. Act I: Recitativo Ariodate/Amastre - Umberto Chiummo/Patricia Bardon
20. Act I: Coro Soldati: Gia La Tromba - Chor Of The Bavarian State Opr/Ivor Bolton
21. Act I: Recitativo Amastre/Serse/Ariodate - Patricia Bardon/Ann Murray/Umberto Chiummo
22. Act I: Aria Ariodate: Soggietto Al Mio Volere - Umberto Chiummo
23. Act I: Coro Soldati: Gia La Tromba - Chor Of The Bavarian State Opr/Ivor Bolton
24. Act I: Recitativo Serse/Amastre - Ann Murray/Patricia Bardon
25. Act I: Aria Serse: Piu Che Penso - Ann Murray
26. Act I: Recitativo Arsamene/Elviro - Christopher Robson/Jan Zinkler
27. Act I: Arietta Elviro: Signor, Signor, Lasciate Far A Me - Jan Zinkler
28. Act I: Aria Arsamene: Non So Se Sia La Speme - Christopher Robson
29. Act I: Recitativo Amastre - Patricia Bardon
30. Act I: Aria Amastre: Sapra Delle Mie Offese - Patricia Bardon
31. Act I: Recitativo Atalanta/Romilda - Julie Kaufmann/Yvonne Kenny
32. Act I: Aria Romilda: Se L'idol Mio - Yvonne Kenny
33. Act I: Recitativo Atalanta - Julie Kaufmann
34. Act I: Aria Atalanta: Un Cenno Leggiadretto - Julie Kaufmann
35. (Blank) - Georg Friedrich Handel
Disc: 2
1. Act II: Arioso Amastre: Speranze Mi Fermate - Patricia Bardon
2. Act II: Arioso Elviro: Ah! Chi Voler Fiora - Jan Zinkler
3. Act II: Recitativo Elviro/Amastre - Jan Zinkler/Patricia Bardon
4. Act II: Aria Amastre: Or Che Siete Speranze Tradite - Patricia Bardon
5. Act II: Recitativo Elviro - Jan Zinkler
6. Act II: Arioso Atalanta: A Piangere Ogn'ora - Julie Kaufmann
7. Act II: Arietta Elviro: Ah! Tigre Infedele - Jan Zinkler
8. Act II: Arioso Serse: E Tormento Troppo Fiero - Ann Murray
9. Act II: Recitativo Serse/Atalanta - Ann Murray/Julie Kaufmann
10. Act II: Aria Atalanta: Dira, Che Amor Per Me - Julie Kaufmann
11. Act II: Recitativo Serse/Romilda - Ann Murray/Yvonne Kenny
12. Act II: Duetto Serse/Romilda: L'ammerete? - Ann Murray/Yvonne Kenny
13. Act II: Aria Serse: Se Bramate D'amar - Ann Murray
14. Act II: Recitativo Romilda - Yvonne Kenny
15. Act II: Aria Romilda: E Gelosia Quella Tiranna - Yvonne Kenny
16. Act II: Recitativo Amastre/Elviro - Patricia Bardon/Jan Zinkler
17. Act II: Aria Amastre: Anima Infida - Patricia Bardon
18. Act II: Recitativo Elviro/Arsamene - Jan Zinkler/Christopher Robson
19. Act II: Aria Arsamene: Quella Che Tutta Fe - Christopher Robson
20. Act II: Coro Marinari: La Virtute So Potea - Chor Of The Bavarian State Opr/Ivor Bolton
21. Act II: Recitativo Serse/Ariodate - Ann Murray/Umberto Chiummo
22. Act II: Coro Marinari: La Virtute So Potea - Chor Of The Bavarian State Opr/Ivor Bolton
23. Act II: Arioso Arsamene: Per Dar Fine - Christopher Robson
24. Act II: Recitativo Serse/Arsamene - Ann Murray/Christopher Robson
25. Act II: Aria Arsamene: Si, La Voglio - Christopher Robson
26. Act II: Recitativo Atalanta/Serse - Julie Kaufmann/Ann Murray
27. Act II: Aria Atalanta: Voi Mi Dite - Julie Kaufmann
28. Act II: Recitativo Serse - Ann Murray
29. Act II: Aria Serse: Il Core Spera E Teme - Ann Murray
30. Act II: Recitativo Elviro - Jan Zinkler
31. Act II: Arietta Elviro: Del Mio Caro Baco - Jan Zinkler
32. Act II: Duetto Serse/Amastre: Gran Pena E Gelosia - Ann Murray/Patricia Bardon
33. Act II: Recitativo Serse/Amastre - Ann Murray/Patricia Bardon
34. Act II: Arietta Romilda: Val Piu Contento Core - Yvonne Kenny
35. Act II: Recitativo Serse/Romilda/Amastre - Ann Murray/Yvonne Kenny/Patricia Bardon
36. Act II: Aria Romilda: Chi Cede Al Furore - Yvonne Kenny
37. (Blank) - Georg Friedrich Handel
Disc: 3
1. Act III: Sinf - Bavarian State Orch/Ivor Bolton
2. Act III: Recitativo Arsamene/Romilda/Atalanta/Elviro - Christopher Robson/Yvonne Kenny/Julie Kaufmann/Jan Zinkler
3. Act III: Arietta Atalanta: No, No, Se Tu Mi Sprezzi - Julie Kaufmann
4. Act III: Recitativo Romilda/Elviro/Arsamene/Serse - Yvonne Kenny/Jan Zinkler/Christopher Robson/Ann Murray
5. Act III: Aria Serse: Per Rendermi Beato - Ann Murray
6. Act III: Recitativo Arsamene/Romilda - Christopher Robson/Yvonne Kenny
7. Act III: Aria Arsamene: Amor, Tiranno Amor - Christopher Robson
8. Act III: Recitativo Serse/Ariodate - Ann Murray/Umberto Chiummo
9. Act III: Aria Ariodate: Del Ciel D'amore - Umberto Chiummo
10. Act III: Recitativo Romilda/Serse/Amastre - Yvonne Kenny/Ann Murray/Patricia Bardon
11. Act III: Aria Amastre: Cagion Son Io - Patricia Bardon
12. Act III: Recitativo Arsamene/Romilda - Christopher Robson/Yvonne Kenny
13. Act III: Duetto Romilda/Arsamene: Troppo Oltraggi La Mia Fede - Yvonne Kenny/Christopher Robson
14. Act III: Coro Ministri: Cio Che Giove Destino - Chor Of The Bavarian State Opr/Ivor Bolton
15. Act III: Recitativo Ariodate/Arsamene/Romilda - Umberto Chiummo/Christopher Robson/Yvonne Kenny
16. Act III: Coro Ministri: Chi Infelice Si Trovo - Chor Of The Bavarian State Opr/Ivor Bolton
17. Act III: Recitativo Serse/Ariodate - Ann Murray/Umberto Chiummo
18. Act III: Aria Serse: Crude Furie - Ann Murray
19. Act III: Recitativo Tutti - Ann Murray/Christopher Robson/Patricia Bardon/Umberto Chiummo/Yvonne Kenny/Julie Kaufmann...
20. Act III: Aria Romilda: Caro Voi Siete All'alma - Yvonne Kenny
21. Act III: Finale Tutti - Ann Murray/Christopher Robson/Patricia Bardon/Umberto Chiummo/Yvonne Kenny/Julie Kaufmann...
22. (Blank) - Georg Friedrich Handel
Доп. информация:

скрытый текст

George Frideric Handel
Serse, HWV 40
Ann Murray (Soprano)
Yvonne Kenny (Soprano)
Julie Kaufmann (Soprano)
Patricia Bardon (Mezzo Soprano)
Christopher Robson (Countertenor)
Jan Zinkler (Baritone)
Umberto Chiummo (Bass)
Bavarian State Opera Chorus
Bavarian State Opera Orchestra
Conductor Ivor Bolton
Живая запись была сделана в Мюнхенском Национальном театре в апреле 1997 года
Release Date: Feb 01, 2005
EAC CD1

скрытый текст

Exact Audio Copy V1.0 beta 3 from 29. August 2011
EAC extraction logfile from 19. July 2014, 7:31
Handel, G. F. / Serse - CD1
Used drive : LITE-ON DVDRW LH-20A1H Adapter: 4 ID: 1
Read mode : Secure
Utilize accurate stream : Yes
Defeat audio cache : Yes
Make use of C2 pointers : Yes
Read offset correction : 6
Overread into Lead-In and Lead-Out : No
Fill up missing offset samples with silence : Yes
Delete leading and trailing silent blocks : No
Null samples used in CRC calculations : Yes
Used interface : Native Win32 interface for Win NT & 2000
Used output format : User Defined Encoder
Selected bitrate : 896 kBit/s
Quality : High
Add ID3 tag : No
Command line compressor : C:\Program Files\Exact Audio Copy\FLAC\FLAC.EXE
Additional command line options : -6 -V -T "ARTIST=%artist%" -T "TITLE=%title%" -T "ALBUM=%albumtitle%" -T "DATE=%year%" -T "TRACKNUMBER=%tracknr%" -T "GENRE=%genre%" -T "COMMENT=%comment%" -T "BAND=%albuminterpret%" -T "ALBUMARTIST=%albuminterpret%" -T "COMPOSER=%composer%" %haslyrics%--tag-from-file=LYRICS="%lyricsfile%"%haslyrics% -T "DISCNUMBER=%cdnumber%" -T "TOTALDISCS=%totalcds%" -T "TOTALTRACKS=%numtracks%" %hascover%--picture="%coverfile%"%hascover% %source% -o %dest%
TOC of the extracted CD
Track | Start | Length | Start sector | End sector
---------------------------------------------------------
1 | 0:00.00 | 5:19.65 | 0 | 23989
2 | 5:19.65 | 0:38.30 | 23990 | 26869
3 | 5:58.20 | 2:30.35 | 26870 | 38154
4 | 8:28.55 | 2:05.58 | 38155 | 47587
5 | 10:34.38 | 1:57.50 | 47588 | 56412
6 | 12:32.13 | 0:20.62 | 56413 | 57974
7 | 12:53.00 | 2:07.40 | 57975 | 67539
8 | 15:00.40 | 1:25.20 | 67540 | 73934
9 | 16:25.60 | 3:09.25 | 73935 | 88134
10 | 19:35.10 | 1:06.35 | 88135 | 93119
11 | 20:41.45 | 2:16.70 | 93120 | 103389
12 | 22:58.40 | 1:14.40 | 103390 | 108979
13 | 24:13.05 | 2:34.45 | 108980 | 120574
14 | 26:47.50 | 0:32.70 | 120575 | 123044
15 | 27:20.45 | 2:21.50 | 123045 | 133669
16 | 29:42.20 | 0:16.15 | 133670 | 134884
17 | 29:58.35 | 2:30.34 | 134885 | 146168
18 | 32:28.69 | 1:39.06 | 146169 | 153599
19 | 34:08.00 | 0:21.65 | 153600 | 155239
20 | 34:29.65 | 0:35.65 | 155240 | 157929
21 | 35:05.55 | 0:57.54 | 157930 | 162258
22 | 36:03.34 | 1:56.20 | 162259 | 170978
23 | 37:59.54 | 0:37.71 | 170979 | 173824
24 | 38:37.50 | 1:34.08 | 173825 | 180882
25 | 40:11.58 | 8:09.47 | 180883 | 217604
26 | 48:21.30 | 0:32.35 | 217605 | 220039
27 | 48:53.65 | 0:35.45 | 220040 | 222709
28 | 49:29.35 | 5:09.15 | 222710 | 245899
29 | 54:38.50 | 0:24.57 | 245900 | 247756
30 | 55:03.32 | 4:08.65 | 247757 | 266421
31 | 59:12.22 | 1:07.73 | 266422 | 271519
32 | 60:20.20 | 4:22.17 | 271520 | 291186
33 | 64:42.37 | 0:18.38 | 291187 | 292574
34 | 65:01.00 | 3:56.00 | 292575 | 310274
35 | 68:57.00 | 0:04.25 | 310275 | 310599
Range status and errors
Selected range
Filename G:\Xerxes\Handel, G. F. - Serse - CD1.wav
Peak level 98.8 %
Extraction speed 5.1 X
Range quality 100.0 %
Copy CRC 8F51647B
Copy OK
No errors occurred
AccurateRip summary
Track 1 accurately ripped (confidence 3) [131B1C0E] (AR v2)
Track 2 accurately ripped (confidence 3) [50995AA6] (AR v2)
Track 3 accurately ripped (confidence 3) [CBB98C91] (AR v2)
Track 4 accurately ripped (confidence 3) [E2DF0C63] (AR v2)
Track 5 accurately ripped (confidence 3) [3EF90DBD] (AR v2)
Track 6 accurately ripped (confidence 3) [6BB98EBD] (AR v2)
Track 7 accurately ripped (confidence 3) [3BFD4A9A] (AR v2)
Track 8 accurately ripped (confidence 3) [444078E3] (AR v2)
Track 9 accurately ripped (confidence 3) [7594DFB1] (AR v2)
Track 10 accurately ripped (confidence 3) [35AA1D77] (AR v2)
Track 11 accurately ripped (confidence 3) [F930FC3D] (AR v2)
Track 12 accurately ripped (confidence 3) [7A0D1E3F] (AR v2)
Track 13 accurately ripped (confidence 3) [C40EF22E] (AR v2)
Track 14 accurately ripped (confidence 3) [54D3912C] (AR v2)
Track 15 accurately ripped (confidence 3) [BEFECFDF] (AR v2)
Track 16 accurately ripped (confidence 3) [D508CFBD] (AR v2)
Track 17 accurately ripped (confidence 3) [9E7542C0] (AR v2)
Track 18 accurately ripped (confidence 3) [1CD37F22] (AR v2)
Track 19 accurately ripped (confidence 3) [145CEFB8] (AR v2)
Track 20 accurately ripped (confidence 3) [E0D658C2] (AR v2)
Track 21 accurately ripped (confidence 3) [615A1E49] (AR v2)
Track 22 accurately ripped (confidence 3) [0FDBF8D1] (AR v2)
Track 23 accurately ripped (confidence 3) [4BC1BDD5] (AR v2)
Track 24 accurately ripped (confidence 3) [39B96EE2] (AR v2)
Track 25 accurately ripped (confidence 2) [D1F0E3D9] (AR v2)
Track 26 accurately ripped (confidence 3) [5ADFDF9A] (AR v2)
Track 27 accurately ripped (confidence 3) [4B922403] (AR v2)
Track 28 accurately ripped (confidence 3) [BA4978C0] (AR v2)
Track 29 accurately ripped (confidence 3) [C9CCEB81] (AR v2)
Track 30 accurately ripped (confidence 3) [BC0F0BEA] (AR v2)
Track 31 accurately ripped (confidence 3) [1A509DCC] (AR v2)
Track 32 accurately ripped (confidence 3) [6E536CF5] (AR v2)
Track 33 accurately ripped (confidence 3) [02FD7E97] (AR v2)
Track 34 accurately ripped (confidence 3) [1ADC63E7] (AR v2)
Track 35 not present in database
34 track(s) accurately ripped
1 track(s) not present in the AccurateRip database
Some tracks could not be verified as accurate
End of status report
EAC CD2

скрытый текст

Exact Audio Copy V1.0 beta 3 from 29. August 2011
EAC extraction logfile from 19. July 2014, 7:52
Handel, G.F. / Serse - CD2
Used drive : LITE-ON DVDRW LH-20A1H Adapter: 4 ID: 1
Read mode : Secure
Utilize accurate stream : Yes
Defeat audio cache : Yes
Make use of C2 pointers : Yes
Read offset correction : 6
Overread into Lead-In and Lead-Out : No
Fill up missing offset samples with silence : Yes
Delete leading and trailing silent blocks : No
Null samples used in CRC calculations : Yes
Used interface : Native Win32 interface for Win NT & 2000
Used output format : User Defined Encoder
Selected bitrate : 896 kBit/s
Quality : High
Add ID3 tag : No
Command line compressor : C:\Program Files\Exact Audio Copy\FLAC\FLAC.EXE
Additional command line options : -6 -V -T "ARTIST=%artist%" -T "TITLE=%title%" -T "ALBUM=%albumtitle%" -T "DATE=%year%" -T "TRACKNUMBER=%tracknr%" -T "GENRE=%genre%" -T "COMMENT=%comment%" -T "BAND=%albuminterpret%" -T "ALBUMARTIST=%albuminterpret%" -T "COMPOSER=%composer%" %haslyrics%--tag-from-file=LYRICS="%lyricsfile%"%haslyrics% -T "DISCNUMBER=%cdnumber%" -T "TOTALDISCS=%totalcds%" -T "TOTALTRACKS=%numtracks%" %hascover%--picture="%coverfile%"%hascover% %source% -o %dest%
TOC of the extracted CD
Track | Start | Length | Start sector | End sector
---------------------------------------------------------
1 | 0:00.00 | 0:42.58 | 0 | 3207
2 | 0:42.58 | 0:47.41 | 3208 | 6773
3 | 1:30.24 | 2:44.54 | 6774 | 19127
4 | 4:15.03 | 2:28.10 | 19128 | 30237
5 | 6:43.13 | 0:26.30 | 30238 | 32217
6 | 7:09.43 | 1:39.20 | 32218 | 39662
7 | 8:48.63 | 0:37.15 | 39663 | 42452
8 | 9:26.03 | 1:25.30 | 42453 | 48857
9 | 10:51.33 | 1:08.25 | 48858 | 53982
10 | 11:59.58 | 3:29.15 | 53983 | 69672
11 | 15:28.73 | 0:42.20 | 69673 | 72842
12 | 16:11.18 | 1:13.20 | 72843 | 78337
13 | 17:24.38 | 6:11.70 | 78338 | 106232
14 | 23:36.33 | 1:02.55 | 106233 | 110937
15 | 24:39.13 | 2:54.27 | 110938 | 124014
16 | 27:33.40 | 0:26.23 | 124015 | 125987
17 | 27:59.63 | 1:47.40 | 125988 | 134052
18 | 29:47.28 | 0:44.20 | 134053 | 137372
19 | 30:31.48 | 3:32.40 | 137373 | 153312
20 | 34:04.13 | 0:19.13 | 153313 | 154750
21 | 34:23.26 | 0:29.65 | 154751 | 156990
22 | 34:53.16 | 0:22.67 | 156991 | 158707
23 | 35:16.08 | 1:27.67 | 158708 | 165299
24 | 36:44.00 | 1:09.18 | 165300 | 170492
25 | 37:53.18 | 2:42.25 | 170493 | 182667
26 | 40:35.43 | 0:26.05 | 182668 | 184622
27 | 41:01.48 | 2:51.55 | 184623 | 197502
28 | 43:53.28 | 0:21.72 | 197503 | 199149
29 | 44:15.25 | 6:18.23 | 199150 | 227522
30 | 50:33.48 | 1:05.40 | 227523 | 232437
31 | 51:39.13 | 1:32.62 | 232438 | 239399
32 | 53:12.00 | 1:56.74 | 239400 | 248173
33 | 55:08.74 | 1:10.17 | 248174 | 253440
34 | 56:19.16 | 1:52.41 | 253441 | 261881
35 | 58:11.57 | 1:06.56 | 261882 | 266887
36 | 59:18.38 | 4:33.25 | 266888 | 287387
37 | 63:51.63 | 0:04.42 | 287388 | 287729
Range status and errors
Selected range
Filename G:\Xerxes\Handel, G.F. - Serse - CD2.wav
Peak level 98.8 %
Extraction speed 5.1 X
Range quality 100.0 %
Copy CRC B716B7AD
Copy OK
No errors occurred
AccurateRip summary
Track 1 accurately ripped (confidence 3) [A384808A] (AR v2)
Track 2 accurately ripped (confidence 3) [019BB020] (AR v2)
Track 3 accurately ripped (confidence 3) [9C97F68D] (AR v2)
Track 4 accurately ripped (confidence 3) [3FBC6889] (AR v2)
Track 5 accurately ripped (confidence 3) [DA0D3D57] (AR v2)
Track 6 accurately ripped (confidence 3) [E5C5621D] (AR v2)
Track 7 accurately ripped (confidence 3) [034C0C90] (AR v2)
Track 8 accurately ripped (confidence 3) [5C326AF0] (AR v2)
Track 9 accurately ripped (confidence 3) [43B8315B] (AR v2)
Track 10 accurately ripped (confidence 3) [82FA85F2] (AR v2)
Track 11 accurately ripped (confidence 3) [6BB711F2] (AR v2)
Track 12 accurately ripped (confidence 3) [27BDF219] (AR v2)
Track 13 accurately ripped (confidence 3) [706F09B3] (AR v2)
Track 14 accurately ripped (confidence 3) [6305CDC1] (AR v2)
Track 15 accurately ripped (confidence 3) [CC3EB3E4] (AR v2)
Track 16 accurately ripped (confidence 3) [A035768E] (AR v2)
Track 17 accurately ripped (confidence 3) [E92EFF1C] (AR v2)
Track 18 accurately ripped (confidence 3) [058C3AFD] (AR v2)
Track 19 accurately ripped (confidence 3) [CD1D98DC] (AR v2)
Track 20 accurately ripped (confidence 3) [23A8670D] (AR v2)
Track 21 accurately ripped (confidence 3) [12CA8F5D] (AR v2)
Track 22 accurately ripped (confidence 3) [E6084B34] (AR v2)
Track 23 accurately ripped (confidence 3) [903DEE36] (AR v2)
Track 24 accurately ripped (confidence 3) [A6C412F2] (AR v2)
Track 25 accurately ripped (confidence 3) [2820FBCF] (AR v2)
Track 26 accurately ripped (confidence 3) [D89FB27A] (AR v2)
Track 27 accurately ripped (confidence 3) [D8ECA756] (AR v2)
Track 28 accurately ripped (confidence 3) [0F058C62] (AR v2)
Track 29 accurately ripped (confidence 3) [6437F247] (AR v2)
Track 30 accurately ripped (confidence 3) [7096C71A] (AR v2)
Track 31 accurately ripped (confidence 3) [9B4F132D] (AR v2)
Track 32 accurately ripped (confidence 3) [D2F5A618] (AR v2)
Track 33 accurately ripped (confidence 3) [228DAB45] (AR v2)
Track 34 accurately ripped (confidence 3) [A58641A6] (AR v2)
Track 35 accurately ripped (confidence 3) [28C7749E] (AR v2)
Track 36 accurately ripped (confidence 3) [BDF37A11] (AR v2)
Track 37 not present in database
36 track(s) accurately ripped
1 track(s) not present in the AccurateRip database
Some tracks could not be verified as accurate
End of status report
EAC CD3

скрытый текст

Exact Audio Copy V1.0 beta 3 from 29. August 2011
EAC extraction logfile from 19. July 2014, 8:06
Handel, G. F. / Serse - CD3
Used drive : LITE-ON DVDRW LH-20A1H Adapter: 4 ID: 1
Read mode : Secure
Utilize accurate stream : Yes
Defeat audio cache : Yes
Make use of C2 pointers : Yes
Read offset correction : 6
Overread into Lead-In and Lead-Out : No
Fill up missing offset samples with silence : Yes
Delete leading and trailing silent blocks : No
Null samples used in CRC calculations : Yes
Used interface : Native Win32 interface for Win NT & 2000
Used output format : User Defined Encoder
Selected bitrate : 896 kBit/s
Quality : High
Add ID3 tag : No
Command line compressor : C:\Program Files\Exact Audio Copy\FLAC\FLAC.EXE
Additional command line options : -6 -V -T "ARTIST=%artist%" -T "TITLE=%title%" -T "ALBUM=%albumtitle%" -T "DATE=%year%" -T "TRACKNUMBER=%tracknr%" -T "GENRE=%genre%" -T "COMMENT=%comment%" -T "BAND=%albuminterpret%" -T "ALBUMARTIST=%albuminterpret%" -T "COMPOSER=%composer%" %haslyrics%--tag-from-file=LYRICS="%lyricsfile%"%haslyrics% -T "DISCNUMBER=%cdnumber%" -T "TOTALDISCS=%totalcds%" -T "TOTALTRACKS=%numtracks%" %hascover%--picture="%coverfile%"%hascover% %source% -o %dest%
TOC of the extracted CD
Track | Start | Length | Start sector | End sector
---------------------------------------------------------
1 | 0:00.00 | 2:53.54 | 0 | 13028
2 | 2:53.54 | 1:36.38 | 13029 | 20266
3 | 4:30.17 | 1:01.48 | 20267 | 24889
4 | 5:31.65 | 1:13.28 | 24890 | 30392
5 | 6:45.18 | 3:51.02 | 30393 | 47719
6 | 10:36.20 | 0:52.42 | 47720 | 51661
7 | 11:28.62 | 4:20.23 | 51662 | 71184
8 | 15:49.10 | 0:41.23 | 71185 | 74282
9 | 16:30.33 | 2:01.57 | 74283 | 83414
10 | 18:32.15 | 2:38.60 | 83415 | 95324
11 | 21:11.00 | 2:43.25 | 95325 | 107574
12 | 23:54.25 | 0:16.55 | 107575 | 108829
13 | 24:11.05 | 2:33.43 | 108830 | 120347
14 | 26:44.48 | 0:30.34 | 120348 | 122631
15 | 27:15.07 | 1:11.03 | 122632 | 127959
16 | 28:26.10 | 0:31.15 | 127960 | 130299
17 | 28:57.25 | 2:13.47 | 130300 | 140321
18 | 31:10.72 | 3:36.38 | 140322 | 156559
19 | 34:47.35 | 2:02.00 | 156560 | 165709
20 | 36:49.35 | 1:52.67 | 165710 | 174176
21 | 38:42.27 | 1:41.03 | 174177 | 181754
22 | 40:23.30 | 0:04.29 | 181755 | 182083
Range status and errors
Selected range
Filename G:\Xerxes\Handel, G. F. - Serse - CD3.wav
Peak level 98.8 %
Extraction speed 4.2 X
Range quality 100.0 %
Copy CRC 4046C847
Copy OK
No errors occurred
AccurateRip summary
Track 1 accurately ripped (confidence 3) [4F043D46] (AR v2)
Track 2 accurately ripped (confidence 3) [3D75C7AF] (AR v2)
Track 3 accurately ripped (confidence 3) [A5744C22] (AR v2)
Track 4 accurately ripped (confidence 3) [D6518FFF] (AR v2)
Track 5 accurately ripped (confidence 3) [8978990D] (AR v2)
Track 6 accurately ripped (confidence 3) [8EFE77D0] (AR v2)
Track 7 accurately ripped (confidence 3) [2BB2DB28] (AR v2)
Track 8 accurately ripped (confidence 3) [81A8A324] (AR v2)
Track 9 accurately ripped (confidence 3) [2AE6A3B1] (AR v2)
Track 10 accurately ripped (confidence 3) [DF658324] (AR v2)
Track 11 accurately ripped (confidence 3) [96DEA0C3] (AR v2)
Track 12 accurately ripped (confidence 3) [F55F7C98] (AR v2)
Track 13 accurately ripped (confidence 3) [F1E61D32] (AR v2)
Track 14 accurately ripped (confidence 3) [15628545] (AR v2)
Track 15 accurately ripped (confidence 3) [B233516C] (AR v2)
Track 16 accurately ripped (confidence 3) [6F529344] (AR v2)
Track 17 accurately ripped (confidence 3) [DA6D6221] (AR v2)
Track 18 accurately ripped (confidence 3) [C7AA5016] (AR v2)
Track 19 accurately ripped (confidence 3) [269DE7E9] (AR v2)
Track 20 accurately ripped (confidence 3) [F1B23EEA] (AR v2)
Track 21 accurately ripped (confidence 3) [B5D9FA15] (AR v2)
Track 22 not present in database
21 track(s) accurately ripped
1 track(s) not present in the AccurateRip database
Some tracks could not be verified as accurate
End of status report



Показать сообщения:    

Текущее время: 10-Дек 17:45

Часовой пояс: UTC + 3


Вы не можете начинать темы
Вы не можете отвечать на сообщения
Вы не можете редактировать свои сообщения
Вы не можете удалять свои сообщения
Вы не можете голосовать в опросах
Вы не можете прикреплять файлы к сообщениям
Вы не можете скачивать файлы