(opera) Vincenzo Bellini - Norma - Grace Bumbry, Lella Cuberli, Giuseppe Giacomini, Robert Lloyd - Michael Halasz 1977 - 2004, FLAC (tracks+.cue) lossless


 

[Цитировать]

Vincenzo Bellini - Norma - Grace Bumbry, Lella Cuberli, Giuseppe Giacomini, Robert Lloyd - Michael Halasz 1977
Жанр: opera
Страна-производитель диска: Italy
Год издания диска: 2004
Издатель (лейбл): Dynamic
Дата записи: 12,14 august 1977
Аудиокодек: FLAC
Тип рипа: tracks+.cue
Битрейт аудио: lossless
Продолжительность: CD1-76'27" CD2-76'06"
Источник: собственный рип
Наличие сканов в содержимом раздачи: да
Исполнители:
Norma by Vincenzo Bellini performed in Italian
(1831 original edition for two sopranos)
Conductor Michael Halasz - 1977(LI)
Orchestra - Orchestra Sinfonica di Bari
Chorus - Amici della Polifonia - Voce per la Musica
Norma - Grace Bumbry
Adalgisa - Lella Cuberli
Pollione - Giuseppe Giacomini
Oroveso - Robert Lloyd
Clotilde - Eugenia Cardano
Flavio - Paolo Todisco

Треклист

Disc: 1 76'27"
1. Sinfonia
Act 1
2. Ite sul colle, o Druidi
3. Svanir le voci!
4. Meco all'altar di Venere
5. Me protegge, me difende
6. Norma viene
7. Sediziose voci
8. Casta diva
9. Fine al rito
10. Ah! bello a me ritorna
11. Sgombra e la sacra selva
12. Va, crudele, al dio spietato
13. Vieni in Roma, ah! vieni, o cara
14. Vanne, e li cela entrambi
15. Oh! rimembranza!
16. Oh, non tremare, o perfido
Disc: 2 76'06"
1. Oh! Di qual sei tu vittima
2. Perfido!
Act 2
3. Dormono entrambi...
4. Teneri figli...
5. Deh! con te, con te li prendi
6. Mira, o Norma
7. Cedi... deh! cedi!
8. Non parti?
9. Guerrieri!
10. Ah! del Tebro al giogo indegno
11. Ei tornera
12. Squilla il bronzo del Dio!
13. Ne compi il rito, o Norma?
14. Guerra!Guerra!
15. In mia mano alfin tu sei
16. Dammi quel ferro!
17. Qual cor tradisti
18. Norma! deh! Norma, scolpati!...
19. Deh! non volerli vittime

Лог создания рипа

Norma - Michael Halasz 1977 CD 1.log

Exact Audio Copy V1.0 beta 3 from 29. August 2011
EAC extraction logfile from 13. June 2014, 21:23
Grace Bumbry, Lella Cuberli, Giuseppe Giacomini, Robert Lloyd / Norma - Michael Halasz 1977 CD 1
Used drive : hp DVDRAM GT50N Adapter: 0 ID: 0
Read mode : Secure
Utilize accurate stream : Yes
Defeat audio cache : Yes
Make use of C2 pointers : No
Read offset correction : 103
Overread into Lead-In and Lead-Out : No
Fill up missing offset samples with silence : Yes
Delete leading and trailing silent blocks : No
Null samples used in CRC calculations : Yes
Used interface : Native Win32 interface for Win NT & 2000
Gap handling : Appended to previous track
Used output format : User Defined Encoder
Selected bitrate : 128 kBit/s
Quality : High
Add ID3 tag : No
Command line compressor : C:\Program Files\Exact Audio Copy\Flac\flac.exe
Additional command line options : -V -8 -T "Genre=%genre%" -T "Artist=%artist%" -T "Title=%title%" -T "Album=%albumtitle%" -T "Date=%year%" -T "Tracknumber=%tracknr%" -T "Comment=%comment%" %source%
TOC of the extracted CD
Track | Start | Length | Start sector | End sector
---------------------------------------------------------
1 | 0:00.00 | 5:43.02 | 0 | 25726
2 | 5:43.02 | 7:22.01 | 25727 | 58877
3 | 13:05.03 | 2:46.59 | 58878 | 71386
4 | 15:51.62 | 4:15.57 | 71387 | 90568
5 | 20:07.44 | 1:49.70 | 90569 | 98813
6 | 21:57.39 | 4:18.38 | 98814 | 118201
7 | 26:16.02 | 3:47.47 | 118202 | 135273
8 | 30:03.49 | 6:59.32 | 135274 | 166730
9 | 37:03.06 | 1:33.20 | 166731 | 173725
10 | 38:36.26 | 3:04.20 | 173726 | 187545
11 | 41:40.46 | 7:25.66 | 187546 | 220986
12 | 49:06.37 | 5:23.65 | 220987 | 245276
13 | 54:30.27 | 3:41.69 | 245277 | 261920
14 | 58:12.21 | 7:56.70 | 261921 | 297690
15 | 66:09.16 | 9:01.08 | 297691 | 338273
16 | 75:10.24 | 1:15.50 | 338274 | 343948
Track 1
Filename D:\Temp\Беллини - Norma - Halasz 1977\Norma - Michael Halasz 1977 CD 1\01 Sinfonia.wav
Pre-gap length 0:00:02.00
Peak level 72.7 %
Extraction speed 2.7 X
Track quality 100.0 %
Test CRC 2C3385F8
Copy CRC 2C3385F8
Cannot be verified as accurate (confidence 5) [5EAD5E83], AccurateRip returned [41642F5C] (AR v2)
Copy OK
Track 2
Filename D:\Temp\Беллини - Norma - Halasz 1977\Norma - Michael Halasz 1977 CD 1\02 Act 1. Ite sul colle, o Druidi.wav
Peak level 66.1 %
Extraction speed 3.1 X
Track quality 100.0 %
Test CRC 99EAC437
Copy CRC 99EAC437
Cannot be verified as accurate (confidence 5) [766C9D4A], AccurateRip returned [9DFBE071] (AR v2)
Copy OK
Track 3
Filename D:\Temp\Беллини - Norma - Halasz 1977\Norma - Michael Halasz 1977 CD 1\03 Act 1. Svanir le voci!.wav
Peak level 66.0 %
Extraction speed 3.0 X
Track quality 100.0 %
Test CRC 35078B7E
Copy CRC 35078B7E
Cannot be verified as accurate (confidence 5) [20993416], AccurateRip returned [3B86F447] (AR v2)
Copy OK
Track 4
Filename D:\Temp\Беллини - Norma - Halasz 1977\Norma - Michael Halasz 1977 CD 1\04 Act 1. Meco all'altar di Venere.wav
Peak level 48.2 %
Extraction speed 3.4 X
Track quality 100.0 %
Test CRC 527AEC6F
Copy CRC 527AEC6F
Cannot be verified as accurate (confidence 5) [77547350], AccurateRip returned [3C34F223] (AR v2)
Copy OK
Track 5
Filename D:\Temp\Беллини - Norma - Halasz 1977\Norma - Michael Halasz 1977 CD 1\05 Act 1. Me protegge, me difende.wav
Peak level 49.8 %
Extraction speed 3.0 X
Track quality 100.0 %
Test CRC EB00BE3F
Copy CRC EB00BE3F
Cannot be verified as accurate (confidence 5) [0124688F], AccurateRip returned [181066BD] (AR v2)
Copy OK
Track 6
Filename D:\Temp\Беллини - Norma - Halasz 1977\Norma - Michael Halasz 1977 CD 1\06 Act 1. Norma viene.wav
Peak level 61.5 %
Extraction speed 3.6 X
Track quality 100.0 %
Test CRC 3A08FF89
Copy CRC 3A08FF89
Cannot be verified as accurate (confidence 5) [7E14E7AA], AccurateRip returned [F24CB837] (AR v2)
Copy OK
Track 7
Filename D:\Temp\Беллини - Norma - Halasz 1977\Norma - Michael Halasz 1977 CD 1\07 Act 1. Sediziose voci.wav
Peak level 61.1 %
Extraction speed 3.7 X
Track quality 100.0 %
Test CRC EA9AE2C2
Copy CRC EA9AE2C2
Cannot be verified as accurate (confidence 5) [C455327E], AccurateRip returned [F8E788E1] (AR v2)
Copy OK
Track 8
Filename D:\Temp\Беллини - Norma - Halasz 1977\Norma - Michael Halasz 1977 CD 1\08 Act 1. Casta diva.wav
Peak level 74.2 %
Extraction speed 4.2 X
Track quality 100.0 %
Test CRC 456BB8FC
Copy CRC 456BB8FC
Cannot be verified as accurate (confidence 5) [F5EA54FD], AccurateRip returned [FB10680C] (AR v2)
Copy OK
Track 9
Filename D:\Temp\Беллини - Norma - Halasz 1977\Norma - Michael Halasz 1977 CD 1\09 Act 1. Fine al rito.wav
Peak level 73.2 %
Extraction speed 2.6 X
Track quality 99.8 %
Test CRC E264729E
Copy CRC E264729E
Cannot be verified as accurate (confidence 5) [3A9EF346], AccurateRip returned [C49EAFE6] (AR v2)
Copy OK
Track 10
Filename D:\Temp\Беллини - Norma - Halasz 1977\Norma - Michael Halasz 1977 CD 1\10 Act 1. Ah! bello a me ritorna.wav
Peak level 69.8 %
Extraction speed 3.4 X
Track quality 99.9 %
Test CRC 888FFDE0
Copy CRC 888FFDE0
Cannot be verified as accurate (confidence 5) [5B3CADB0], AccurateRip returned [BB9BD338] (AR v2)
Copy OK
Track 11
Filename D:\Temp\Беллини - Norma - Halasz 1977\Norma - Michael Halasz 1977 CD 1\11 Act 1. Sgombra e la sacra selva.wav
Peak level 43.5 %
Extraction speed 4.3 X
Track quality 99.9 %
Test CRC E10AFC96
Copy CRC E10AFC96
Cannot be verified as accurate (confidence 5) [1E1F7303], AccurateRip returned [E1B1523D] (AR v2)
Copy OK
Track 12
Filename D:\Temp\Беллини - Norma - Halasz 1977\Norma - Michael Halasz 1977 CD 1\12 Act 1. Va, crudele, al dio spietato.wav
Peak level 50.1 %
Extraction speed 4.7 X
Track quality 100.0 %
Test CRC 8F81BB90
Copy CRC 8F81BB90
Cannot be verified as accurate (confidence 5) [681B063C], AccurateRip returned [24C5B88F] (AR v2)
Copy OK
Track 13
Filename D:\Temp\Беллини - Norma - Halasz 1977\Norma - Michael Halasz 1977 CD 1\13 Act 1. Vieni in Roma, ah! vieni, o cara.wav
Peak level 51.3 %
Extraction speed 3.8 X
Track quality 100.0 %
Test CRC 728451D4
Copy CRC 728451D4
Cannot be verified as accurate (confidence 5) [846C6A5F], AccurateRip returned [B680369B] (AR v2)
Copy OK
Track 14
Filename D:\Temp\Беллини - Norma - Halasz 1977\Norma - Michael Halasz 1977 CD 1\14 Act 1. Vanne, e li cela entrambi.wav
Peak level 43.7 %
Extraction speed 2.7 X
Track quality 100.0 %
Test CRC 712B59F1
Copy CRC 712B59F1
Cannot be verified as accurate (confidence 5) [188F1C86], AccurateRip returned [DE550FA5] (AR v2)
Copy OK
Track 15
Filename D:\Temp\Беллини - Norma - Halasz 1977\Norma - Michael Halasz 1977 CD 1\15 Act 1. Oh! rimembranza!.wav
Peak level 34.2 %
Extraction speed 2.8 X
Track quality 100.0 %
Test CRC 5601E63B
Copy CRC 5601E63B
Cannot be verified as accurate (confidence 5) [4CDDA254], AccurateRip returned [4734EC39] (AR v2)
Copy OK
Track 16
Filename D:\Temp\Беллини - Norma - Halasz 1977\Norma - Michael Halasz 1977 CD 1\16 Act 1. Oh, non tremare, o perfido.wav
Peak level 36.1 %
Extraction speed 1.5 X
Track quality 99.8 %
Test CRC D31BC413
Copy CRC D31BC413
Cannot be verified as accurate (confidence 5) [23CA76E3], AccurateRip returned [FF4D2B48] (AR v2)
Copy OK
No tracks could be verified as accurate
You may have a different pressing from the one(s) in the database
No errors occurred
End of status report
==== Log checksum 3985B156D8EAF285A9F15FBDD8773400263D77ED329E26A80560FCA308712E2A ====

Norma - Michael Halasz 1977 CD 2

Exact Audio Copy V1.0 beta 3 from 29. August 2011
EAC extraction logfile from 13. June 2014, 22:40
Grace Bumbry, Lella Cuberli, Giuseppe Giacomini, Robert Lloyd / Norma - Michael Halasz 1977 CD 2
Used drive : hp DVDRAM GT50N Adapter: 0 ID: 0
Read mode : Secure
Utilize accurate stream : Yes
Defeat audio cache : Yes
Make use of C2 pointers : No
Read offset correction : 103
Overread into Lead-In and Lead-Out : No
Fill up missing offset samples with silence : Yes
Delete leading and trailing silent blocks : No
Null samples used in CRC calculations : Yes
Used interface : Native Win32 interface for Win NT & 2000
Gap handling : Appended to previous track
Used output format : User Defined Encoder
Selected bitrate : 128 kBit/s
Quality : High
Add ID3 tag : No
Command line compressor : C:\Program Files\Exact Audio Copy\Flac\flac.exe
Additional command line options : -V -8 -T "Genre=%genre%" -T "Artist=%artist%" -T "Title=%title%" -T "Album=%albumtitle%" -T "Date=%year%" -T "Tracknumber=%tracknr%" -T "Comment=%comment%" %source%
TOC of the extracted CD
Track | Start | Length | Start sector | End sector
---------------------------------------------------------
1 | 0:00.00 | 3:51.42 | 0 | 17366
2 | 3:51.42 | 3:23.53 | 17367 | 32644
3 | 7:15.20 | 6:52.48 | 32645 | 63592
4 | 14:07.68 | 5:15.66 | 63593 | 87283
5 | 19:23.59 | 4:04.72 | 87284 | 105655
6 | 23:28.56 | 4:08.43 | 105656 | 124298
7 | 27:37.24 | 3:03.33 | 124299 | 138056
8 | 30:40.57 | 6:03.32 | 138057 | 165313
9 | 36:44.14 | 1:40.19 | 165314 | 172832
10 | 38:24.33 | 3:17.47 | 172833 | 187654
11 | 41:42.05 | 4:08.25 | 187655 | 206279
12 | 45:50.30 | 1:49.63 | 206280 | 214517
13 | 47:40.18 | 1:17.39 | 214518 | 220331
14 | 48:57.57 | 3:34.30 | 220332 | 236411
15 | 52:32.12 | 7:16.69 | 236412 | 269180
16 | 59:49.06 | 3:18.21 | 269181 | 284051
17 | 63:07.27 | 5:20.03 | 284052 | 308054
18 | 68:27.30 | 2:29.06 | 308055 | 319235
19 | 70:56.36 | 5:08.24 | 319236 | 342359
Track 1
Filename D:\Temp\Беллини - Norma - Halasz 1977\Norma - Michael Halasz 1977 CD 2\01 Act 1. Oh! Di qual sei tu vittima.wav
Pre-gap length 0:00:02.00
Peak level 34.6 %
Extraction speed 2.5 X
Track quality 100.0 %
Test CRC 7D858941
Copy CRC 7D858941
Cannot be verified as accurate (confidence 5) [CB1A4C67], AccurateRip returned [42E5508E] (AR v2)
Copy OK
Track 2
Filename D:\Temp\Беллини - Norma - Halasz 1977\Norma - Michael Halasz 1977 CD 2\02 Act 1. Perfido!.wav
Peak level 40.7 %
Extraction speed 2.6 X
Track quality 100.0 %
Test CRC 4AB975FA
Copy CRC 4AB975FA
Cannot be verified as accurate (confidence 5) [F0918974], AccurateRip returned [CA4EDA3E] (AR v2)
Copy OK
Track 3
Filename D:\Temp\Беллини - Norma - Halasz 1977\Norma - Michael Halasz 1977 CD 2\03 Act 2. Dormono entrambi....wav
Peak level 66.1 %
Extraction speed 2.9 X
Track quality 99.9 %
Test CRC B8CEF897
Copy CRC B8CEF897
Cannot be verified as accurate (confidence 5) [BAA027B2], AccurateRip returned [6055CB41] (AR v2)
Copy OK
Track 4
Filename D:\Temp\Беллини - Norma - Halasz 1977\Norma - Michael Halasz 1977 CD 2\04 Act 2. Teneri figli....wav
Peak level 67.0 %
Extraction speed 3.4 X
Track quality 100.0 %
Test CRC 92AAAF2A
Copy CRC 92AAAF2A
Cannot be verified as accurate (confidence 5) [DA331CDD], AccurateRip returned [93588ADB] (AR v2)
Copy OK
Track 5
Filename D:\Temp\Беллини - Norma - Halasz 1977\Norma - Michael Halasz 1977 CD 2\05 Act 2. Deh! con te, con te li prendi.wav
Peak level 58.4 %
Extraction speed 3.5 X
Track quality 100.0 %
Test CRC 2A9F84BB
Copy CRC 2A9F84BB
Cannot be verified as accurate (confidence 5) [76962438], AccurateRip returned [BA47B16F] (AR v2)
Copy OK
Track 6
Filename D:\Temp\Беллини - Norma - Halasz 1977\Norma - Michael Halasz 1977 CD 2\06 Act 2. Mira, o Norma.wav
Peak level 57.0 %
Extraction speed 3.5 X
Track quality 100.0 %
Test CRC B8B7DEB6
Copy CRC B8B7DEB6
Cannot be verified as accurate (confidence 5) [264BC8EC], AccurateRip returned [A3BB4B46] (AR v2)
Copy OK
Track 7
Filename D:\Temp\Беллини - Norma - Halasz 1977\Norma - Michael Halasz 1977 CD 2\07 Act 2. Cedi... deh! cedi!.wav
Peak level 59.5 %
Extraction speed 3.6 X
Track quality 100.0 %
Test CRC 3417E508
Copy CRC 3417E508
Cannot be verified as accurate (confidence 5) [0FA4D763], AccurateRip returned [33E4A558] (AR v2)
Copy OK
Track 8
Filename D:\Temp\Беллини - Norma - Halasz 1977\Norma - Michael Halasz 1977 CD 2\08 Act 2. Non parti.wav
Peak level 43.2 %
Extraction speed 4.1 X
Track quality 100.0 %
Test CRC BA8A40D2
Copy CRC BA8A40D2
Cannot be verified as accurate (confidence 5) [83D5D875], AccurateRip returned [74787F01] (AR v2)
Copy OK
Track 9
Filename D:\Temp\Беллини - Norma - Halasz 1977\Norma - Michael Halasz 1977 CD 2\09 Act 2. Guerrieri!.wav
Peak level 45.6 %
Extraction speed 2.6 X
Track quality 99.8 %
Test CRC EC63D4F0
Copy CRC EC63D4F0
Cannot be verified as accurate (confidence 5) [7D203938], AccurateRip returned [055CAB35] (AR v2)
Copy OK
Track 10
Filename D:\Temp\Беллини - Norma - Halasz 1977\Norma - Michael Halasz 1977 CD 2\10 Act 2. Ah! del Tebro al giogo indegno.wav
Peak level 42.4 %
Extraction speed 4.1 X
Track quality 100.0 %
Test CRC DFE5CC9D
Copy CRC DFE5CC9D
Cannot be verified as accurate (confidence 5) [8AA20D4D], AccurateRip returned [8CC6FBE8] (AR v2)
Copy OK
Track 11
Filename D:\Temp\Беллини - Norma - Halasz 1977\Norma - Michael Halasz 1977 CD 2\11 Act 2. Ei tornera.wav
Peak level 59.7 %
Extraction speed 3.8 X
Track quality 99.9 %
Test CRC 661062EB
Copy CRC 661062EB
Cannot be verified as accurate (confidence 5) [9F2026E7], AccurateRip returned [045C055E] (AR v2)
Copy OK
Track 12
Filename D:\Temp\Беллини - Norma - Halasz 1977\Norma - Michael Halasz 1977 CD 2\12 Act 2. Squilla il bronzo del Dio!.wav
Peak level 71.3 %
Extraction speed 3.7 X
Track quality 100.0 %
Test CRC AC20EDE9
Copy CRC AC20EDE9
Cannot be verified as accurate (confidence 5) [061E7048], AccurateRip returned [13F3EC40] (AR v2)
Copy OK
Track 13
Filename D:\Temp\Беллини - Norma - Halasz 1977\Norma - Michael Halasz 1977 CD 2\13 Act 2. Guerra! Guerra!.wav
Peak level 60.9 %
Extraction speed 3.5 X
Track quality 100.0 %
Test CRC 8BA0934F
Copy CRC 8BA0934F
Cannot be verified as accurate (confidence 5) [DB6836EC], AccurateRip returned [127DF1CC] (AR v2)
Copy OK
Track 14
Filename D:\Temp\Беллини - Norma - Halasz 1977\Norma - Michael Halasz 1977 CD 2\14 Act 2. Ne compi il rito, o Norma.wav
Peak level 58.3 %
Extraction speed 4.4 X
Track quality 100.0 %
Test CRC 355F43AD
Copy CRC 355F43AD
Cannot be verified as accurate (confidence 5) [AE47FD7C], AccurateRip returned [4F1B902D] (AR v2)
Copy OK
Track 15
Filename D:\Temp\Беллини - Norma - Halasz 1977\Norma - Michael Halasz 1977 CD 2\15 Act 2. In mia mano alfin tu sei.wav
Peak level 51.2 %
Extraction speed 4.6 X
Track quality 99.9 %
Test CRC D0485160
Copy CRC D0485160
Cannot be verified as accurate (confidence 5) [C94BD660], AccurateRip returned [AFF978B1] (AR v2)
Copy OK
Track 16
Filename D:\Temp\Беллини - Norma - Halasz 1977\Norma - Michael Halasz 1977 CD 2\16 Act 2. Dammi quel ferro!.wav
Peak level 58.3 %
Extraction speed 4.7 X
Track quality 100.0 %
Test CRC 2837C3DA
Copy CRC 2837C3DA
Cannot be verified as accurate (confidence 5) [03B561F4], AccurateRip returned [5B98A722] (AR v2)
Copy OK
Track 17
Filename D:\Temp\Беллини - Norma - Halasz 1977\Norma - Michael Halasz 1977 CD 2\17 Act 2. Qual cor tradisti.wav
Peak level 50.1 %
Extraction speed 4.7 X
Track quality 99.9 %
Test CRC 436035A2
Copy CRC 436035A2
Cannot be verified as accurate (confidence 5) [85FE4111], AccurateRip returned [DD1E3635] (AR v2)
Copy OK
Track 18
Filename D:\Temp\Беллини - Norma - Halasz 1977\Norma - Michael Halasz 1977 CD 2\18 Act 2. Norma! deh! Norma, scolpati!....wav
Peak level 55.3 %
Extraction speed 3.8 X
Track quality 99.9 %
Test CRC 2FFD7ED9
Copy CRC 2FFD7ED9
Cannot be verified as accurate (confidence 5) [D515DF60], AccurateRip returned [FC9DDC03] (AR v2)
Copy OK
Track 19
Filename D:\Temp\Беллини - Norma - Halasz 1977\Norma - Michael Halasz 1977 CD 2\19 Act 2. Deh! non volerli vittime.wav
Peak level 43.5 %
Extraction speed 5.4 X
Track quality 100.0 %
Test CRC 50BB39B5
Copy CRC 50BB39B5
Cannot be verified as accurate (confidence 5) [57327C5E], AccurateRip returned [0D074208] (AR v2)
Copy OK
No tracks could be verified as accurate
You may have a different pressing from the one(s) in the database
No errors occurred
End of status report
==== Log checksum 894C5415D40AE55CD0B4AE2CF0C5C0B96E38B8D87A02133C3B5C716292717749 ====

Содержание индексной карты (.CUE)

Norma - Michael Halasz 1977 CD 1.cue

REM DISCID ED11E910
REM COMMENT "ExactAudioCopy v1.0b3"
PERFORMER "Grace Bumbry, Lella Cuberli, Giuseppe Giacomini, Robert Lloyd"
TITLE "Norma - Michael Halasz 1977 CD 1"
FILE "01 Sinfonia.wav" WAVE
TRACK 01 AUDIO
TITLE "Sinfonia"
PERFORMER "Grace Bumbry, Lella Cuberli, Giuseppe Giacomini, Robert Lloyd"
INDEX 01 00:00:00
FILE "02 Act 1. Ite sul colle, o Druidi.wav" WAVE
TRACK 02 AUDIO
TITLE "Act 1. Ite sul colle, o Druidi"
PERFORMER "Grace Bumbry, Lella Cuberli, Giuseppe Giacomini, Robert Lloyd"
INDEX 01 00:00:00
FILE "03 Act 1. Svanir le voci!.wav" WAVE
TRACK 03 AUDIO
TITLE "Act 1. Svanir le voci!"
PERFORMER "Grace Bumbry, Lella Cuberli, Giuseppe Giacomini, Robert Lloyd"
INDEX 01 00:00:00
FILE "04 Act 1. Meco all'altar di Venere.wav" WAVE
TRACK 04 AUDIO
TITLE "Act 1. Meco all'altar di Venere"
PERFORMER "Grace Bumbry, Lella Cuberli, Giuseppe Giacomini, Robert Lloyd"
INDEX 01 00:00:00
FILE "05 Act 1. Me protegge, me difende.wav" WAVE
TRACK 05 AUDIO
TITLE "Act 1. Me protegge, me difende"
PERFORMER "Grace Bumbry, Lella Cuberli, Giuseppe Giacomini, Robert Lloyd"
INDEX 01 00:00:00
FILE "06 Act 1. Norma viene.wav" WAVE
TRACK 06 AUDIO
TITLE "Act 1. Norma viene"
PERFORMER "Grace Bumbry, Lella Cuberli, Giuseppe Giacomini, Robert Lloyd"
INDEX 01 00:00:00
FILE "07 Act 1. Sediziose voci.wav" WAVE
TRACK 07 AUDIO
TITLE "Act 1. Sediziose voci"
PERFORMER "Grace Bumbry, Lella Cuberli, Giuseppe Giacomini, Robert Lloyd"
INDEX 01 00:00:00
FILE "08 Act 1. Casta diva.wav" WAVE
TRACK 08 AUDIO
TITLE "Act 1. Casta diva"
PERFORMER "Grace Bumbry, Lella Cuberli, Giuseppe Giacomini, Robert Lloyd"
INDEX 01 00:00:00
FILE "09 Act 1. Fine al rito.wav" WAVE
TRACK 09 AUDIO
TITLE "Act 1. Fine al rito"
PERFORMER "Grace Bumbry, Lella Cuberli, Giuseppe Giacomini, Robert Lloyd"
INDEX 01 00:00:00
FILE "10 Act 1. Ah! bello a me ritorna.wav" WAVE
TRACK 10 AUDIO
TITLE "Act 1. Ah! bello a me ritorna"
PERFORMER "Grace Bumbry, Lella Cuberli, Giuseppe Giacomini, Robert Lloyd"
INDEX 01 00:00:00
FILE "11 Act 1. Sgombra e la sacra selva.wav" WAVE
TRACK 11 AUDIO
TITLE "Act 1. Sgombra e la sacra selva"
PERFORMER "Grace Bumbry, Lella Cuberli, Giuseppe Giacomini, Robert Lloyd"
INDEX 01 00:00:00
FILE "12 Act 1. Va, crudele, al dio spietato.wav" WAVE
TRACK 12 AUDIO
TITLE "Act 1. Va, crudele, al dio spietato"
PERFORMER "Grace Bumbry, Lella Cuberli, Giuseppe Giacomini, Robert Lloyd"
INDEX 01 00:00:00
FILE "13 Act 1. Vieni in Roma, ah! vieni, o cara.wav" WAVE
TRACK 13 AUDIO
TITLE "Act 1. Vieni in Roma, ah! vieni, o cara"
PERFORMER "Grace Bumbry, Lella Cuberli, Giuseppe Giacomini, Robert Lloyd"
INDEX 01 00:00:00
FILE "14 Act 1. Vanne, e li cela entrambi.wav" WAVE
TRACK 14 AUDIO
TITLE "Act 1. Vanne, e li cela entrambi"
PERFORMER "Grace Bumbry, Lella Cuberli, Giuseppe Giacomini, Robert Lloyd"
INDEX 01 00:00:00
FILE "15 Act 1. Oh! rimembranza!.wav" WAVE
TRACK 15 AUDIO
TITLE "Act 1. Oh! rimembranza!"
PERFORMER "Grace Bumbry, Lella Cuberli, Giuseppe Giacomini, Robert Lloyd"
INDEX 01 00:00:00
FILE "16 Act 1. Oh, non tremare, o perfido.wav" WAVE
TRACK 16 AUDIO
TITLE "Act 1. Oh, non tremare, o perfido"
PERFORMER "Grace Bumbry, Lella Cuberli, Giuseppe Giacomini, Robert Lloyd"
INDEX 01 00:00:00

Norma - Michael Halasz 1977 CD 2

REM GENRE Opera
REM DISCID 1911D413
REM COMMENT "ExactAudioCopy v1.0b3"
PERFORMER "Grace Bumbry, Lella Cuberli, Giuseppe Giacomini, Robert Lloyd"
TITLE "Norma - Michael Halasz 1977 CD 2"
FILE "01 Act 1. Oh! Di qual sei tu vittima.wav" WAVE
TRACK 01 AUDIO
TITLE "Act 1. Oh! Di qual sei tu vittima"
PERFORMER "Grace Bumbry, Lella Cuberli, Giuseppe Giacomini, Robert Lloyd"
INDEX 01 00:00:00
FILE "02 Act 1. Perfido!.wav" WAVE
TRACK 02 AUDIO
TITLE "Act 1. Perfido!"
PERFORMER "Grace Bumbry, Lella Cuberli, Giuseppe Giacomini, Robert Lloyd"
INDEX 01 00:00:00
FILE "03 Act 2. Dormono entrambi....wav" WAVE
TRACK 03 AUDIO
TITLE "Act 2. Dormono entrambi..."
PERFORMER "Grace Bumbry, Lella Cuberli, Giuseppe Giacomini, Robert Lloyd"
INDEX 01 00:00:00
FILE "04 Act 2. Teneri figli....wav" WAVE
TRACK 04 AUDIO
TITLE "Act 2. Teneri figli..."
PERFORMER "Grace Bumbry, Lella Cuberli, Giuseppe Giacomini, Robert Lloyd"
INDEX 01 00:00:00
FILE "05 Act 2. Deh! con te, con te li prendi.wav" WAVE
TRACK 05 AUDIO
TITLE "Act 2. Deh! con te, con te li prendi"
PERFORMER "Grace Bumbry, Lella Cuberli, Giuseppe Giacomini, Robert Lloyd"
INDEX 01 00:00:00
FILE "06 Act 2. Mira, o Norma.wav" WAVE
TRACK 06 AUDIO
TITLE "Act 2. Mira, o Norma"
PERFORMER "Grace Bumbry, Lella Cuberli, Giuseppe Giacomini, Robert Lloyd"
INDEX 01 00:00:00
FILE "07 Act 2. Cedi... deh! cedi!.wav" WAVE
TRACK 07 AUDIO
TITLE "Act 2. Cedi... deh! cedi!"
PERFORMER "Grace Bumbry, Lella Cuberli, Giuseppe Giacomini, Robert Lloyd"
INDEX 01 00:00:00
FILE "08 Act 2. Non parti.wav" WAVE
TRACK 08 AUDIO
TITLE "Act 2. Non parti?"
PERFORMER "Grace Bumbry, Lella Cuberli, Giuseppe Giacomini, Robert Lloyd"
INDEX 01 00:00:00
FILE "09 Act 2. Guerrieri!.wav" WAVE
TRACK 09 AUDIO
TITLE "Act 2. Guerrieri!"
PERFORMER "Grace Bumbry, Lella Cuberli, Giuseppe Giacomini, Robert Lloyd"
INDEX 01 00:00:00
FILE "10 Act 2. Ah! del Tebro al giogo indegno.wav" WAVE
TRACK 10 AUDIO
TITLE "Act 2. Ah! del Tebro al giogo indegno"
PERFORMER "Grace Bumbry, Lella Cuberli, Giuseppe Giacomini, Robert Lloyd"
INDEX 01 00:00:00
FILE "11 Act 2. Ei tornera.wav" WAVE
TRACK 11 AUDIO
TITLE "Act 2. Ei tornera"
PERFORMER "Grace Bumbry, Lella Cuberli, Giuseppe Giacomini, Robert Lloyd"
INDEX 01 00:00:00
FILE "12 Act 2. Squilla il bronzo del Dio!.wav" WAVE
TRACK 12 AUDIO
TITLE "Act 2. Squilla il bronzo del Dio!"
PERFORMER "Grace Bumbry, Lella Cuberli, Giuseppe Giacomini, Robert Lloyd"
INDEX 01 00:00:00
FILE "13 Act 2. Guerra! Guerra!.wav" WAVE
TRACK 13 AUDIO
TITLE "Act 2. Guerra! Guerra!"
PERFORMER "Grace Bumbry, Lella Cuberli, Giuseppe Giacomini, Robert Lloyd"
INDEX 01 00:00:00
FILE "14 Act 2. Ne compi il rito, o Norma.wav" WAVE
TRACK 14 AUDIO
TITLE "Act 2. Ne compi il rito, o Norma?"
PERFORMER "Grace Bumbry, Lella Cuberli, Giuseppe Giacomini, Robert Lloyd"
INDEX 01 00:00:00
FILE "15 Act 2. In mia mano alfin tu sei.wav" WAVE
TRACK 15 AUDIO
TITLE "Act 2. In mia mano alfin tu sei"
PERFORMER "Grace Bumbry, Lella Cuberli, Giuseppe Giacomini, Robert Lloyd"
INDEX 01 00:00:00
FILE "16 Act 2. Dammi quel ferro!.wav" WAVE
TRACK 16 AUDIO
TITLE "Act 2. Dammi quel ferro!"
PERFORMER "Grace Bumbry, Lella Cuberli, Giuseppe Giacomini, Robert Lloyd"
INDEX 01 00:00:00
FILE "17 Act 2. Qual cor tradisti.wav" WAVE
TRACK 17 AUDIO
TITLE "Act 2. Qual cor tradisti"
PERFORMER "Grace Bumbry, Lella Cuberli, Giuseppe Giacomini, Robert Lloyd"
INDEX 01 00:00:00
FILE "18 Act 2. Norma! deh! Norma, scolpati!....wav" WAVE
TRACK 18 AUDIO
TITLE "Act 2. Norma! deh! Norma, scolpati!..."
PERFORMER "Grace Bumbry, Lella Cuberli, Giuseppe Giacomini, Robert Lloyd"
INDEX 01 00:00:00
FILE "19 Act 2. Deh! non volerli vittime.wav" WAVE
TRACK 19 AUDIO
TITLE "Act 2. Deh! non volerli vittime "
PERFORMER "Grace Bumbry, Lella Cuberli, Giuseppe Giacomini, Robert Lloyd"
INDEX 01 00:00:00



Показать сообщения:    

Текущее время: 05-Дек 13:33

Часовой пояс: UTC + 3


Вы не можете начинать темы
Вы не можете отвечать на сообщения
Вы не можете редактировать свои сообщения
Вы не можете удалять свои сообщения
Вы не можете голосовать в опросах
Вы не можете прикреплять файлы к сообщениям
Вы не можете скачивать файлы