(Opera) Rossini - Armida (Antonini, Bottazzo, Maddalena, Trotta, Deutekom - Teatro La Fenice, Franci ) - 1998, APE (image+.cue) lossless


 

[Цитировать]

Gioachino Rossini - Armida
Жанр: Opera
Страна-производитель диска: Germany
Год издания диска: 1998
Издатель (лейбл): Mondo Musica
Номер по каталогу: MFOH 10291
Дата записи: 1970
Аудиокодек: APE
Тип рипа: image+.cue
Битрейт аудио: lossless
Продолжительность: 61'02 + 73'59
Источник: собственный рип
Наличие сканов в содержимом раздачи: да
Треклист:

CD1

1. Overture
2. Atto Primo: Lieto Ridente/Ah No! Sia Questo Di Tregua Il Giorno.../Arditi All'ire/Si...
3. Atto Primo: Germano, A Te Richiede...
4. Atto Primo: Signor, Tanto Il Tuo Nome...
5. Atto Primo: Sventurata! Or Che Mi Resta?
6. Atto Primo: Or Che Faro...
7. Atto Primo: German Se Togli Al Campo
8. Atto Primo: Per Me Propizio Il Fato
9. Atto Primo: Cedei Guerrieri E Ver.../Opportuna E La Scelta
10. Atto Primo: Come A Dudon Costui Succede
11. Atto Primo: Non Soffriro L'offesa/E Questi Son Gli Allori/Ah Tutti V'unite
12. Atto Primo: Grata Quest' Alma!/Amor! Possente Nome!
13. Atto Primo: Vacilla A Quegli Accenti
14. Atto Primo: Ah! Non Poss' Io Resistere!
15. Atto Primo: Ecco Il Guerrier
16. Atto Primo: Se Pari Agli Accenti
17. Atto Primo: Che Terribile Momento
18. Atto Primo: Vieni O Duce, Punisci L'errore/Amicia La Sorte..

CD2

1. Atto Secondo: Alla Voce D'Armida Possente
2. Atto Secondo: Sovrumano Potere/Di Ferro E Fiamma Cinti/Ebben, L'istante E Giuntoi
3. Atto Secondo: Dove Son Io?
4. Atto Secondo: Mio Ben, Questo Che Premi...
5. Atto Secondo: No! D'amor La Reggia E Questa
6. Atto Secondo: Ballo
7. Atto Secondo: D'amor Al Dolce Impero
8. Atto Terzo: Come L'aurette Placide/Ah, Quanto Amico... T'inganni
9. Atto Terzo: Qui Tutto E Calma/Fuggite Inferni Mostri/Soavi Catene/O Mio Rinaldo
10. Atto Terzo: In Quale Aspetto Imbelle..
11. Atto Terzo: Unitevi A Gara
12. Atto Terzo: Interludio
13. Atto Terzo: Sia Lode Al Ciel...
14. Atto Terzo: Ed E Pur Vero... E Abbandonarmi Vuoi
15. Atto Terzo: Se Al Mio Crudel Tormento
16. Atto Terzo: Dove Son Io?
17. Atto Terzo: E Ver, Gode Quest'anima
Исполнители:
Gioachino Rossini - Armida
Cristina Deutekom - Armida
Giovanni Antonini - Astarotte
Pietro Bottazzo - Rinaldo
Alessandro Maddalena - Idraote
Berardino Trotta - Eustacio
Edoardo Gimenez - Cernando / Ubaldo
Ottavio Caraventa - Goffredo
Chor Del Teatro La Fenice
Orchestra Del Teatro La Fenice
Carlo Franci

Лог создания рипа

CD1

Exact Audio Copy V1.0 beta 3 from 29. August 2011
EAC extraction logfile from 11. July 2014, 17:42
Rossini / Armida, Franci CD1
Used drive : HL-DT-STDVDRAM GH22NS50 Adapter: 0 ID: 2
Read mode : Secure
Utilize accurate stream : Yes
Defeat audio cache : Yes
Make use of C2 pointers : No
Read offset correction : 667
Overread into Lead-In and Lead-Out : No
Fill up missing offset samples with silence : Yes
Delete leading and trailing silent blocks : No
Null samples used in CRC calculations : Yes
Used interface : Native Win32 interface for Win NT & 2000
Used output format : Monkey's Audio Lossless Encoder
Selected bitrate : High Lossless Compression
Quality : High
Add ID3 tag : No
Command line compressor : C:\Program Files (x86)\Exact Audio Copy\MAC\MAC.exe
TOC of the extracted CD
Track | Start | Length | Start sector | End sector
---------------------------------------------------------
1 | 0:00.00 | 7:24.55 | 0 | 33354
2 | 7:24.55 | 6:50.17 | 33355 | 64121
3 | 14:14.72 | 1:15.63 | 64122 | 69809
4 | 15:30.60 | 2:53.22 | 69810 | 82806
5 | 18:24.07 | 3:50.15 | 82807 | 100071
6 | 22:14.22 | 2:44.50 | 100072 | 112421
7 | 24:58.72 | 1:13.25 | 112422 | 117921
8 | 26:12.22 | 1:41.58 | 117922 | 125554
9 | 27:54.05 | 1:35.15 | 125555 | 132694
10 | 29:29.20 | 0:46.05 | 132695 | 136149
11 | 30:15.25 | 5:13.45 | 136150 | 159669
12 | 35:28.70 | 4:52.42 | 159670 | 181611
13 | 40:21.37 | 4:11.45 | 181612 | 200481
14 | 44:33.07 | 1:55.05 | 200482 | 209111
15 | 46:28.12 | 1:03.00 | 209112 | 213836
16 | 47:31.12 | 3:16.43 | 213837 | 228579
17 | 50:47.55 | 5:05.20 | 228580 | 251474
18 | 55:53.00 | 5:07.05 | 251475 | 274504
Range status and errors
Selected range
Filename D:\EAC\Rossini - Armida, Franci CD1.wav
Peak level 99.9 %
Extraction speed 2.0 X
Range quality 100.0 %
Test CRC D832E2DA
Copy CRC 39C6F558
Copy OK
No errors occurred
AccurateRip summary
Track 1 accurately ripped (confidence 1) [57EE62D0] (AR v1)
Track 2 accurately ripped (confidence 1) [178402ED] (AR v1)
Track 3 accurately ripped (confidence 1) [3CF5424D] (AR v1)
Track 4 accurately ripped (confidence 1) [12C302A6] (AR v1)
Track 5 accurately ripped (confidence 1) [201437D6] (AR v1)
Track 6 accurately ripped (confidence 1) [695FD8E2] (AR v1)
Track 7 accurately ripped (confidence 1) [22250799] (AR v1)
Track 8 accurately ripped (confidence 1) [ED0920EA] (AR v1)
Track 9 accurately ripped (confidence 1) [CC03D3B8] (AR v1)
Track 10 accurately ripped (confidence 1) [9363A44C] (AR v1)
Track 11 accurately ripped (confidence 1) [27950320] (AR v1)
Track 12 accurately ripped (confidence 1) [FC748152] (AR v1)
Track 13 accurately ripped (confidence 1) [3CE00429] (AR v1)
Track 14 accurately ripped (confidence 1) [2F00D5FA] (AR v1)
Track 15 cannot be verified as accurate (confidence 1) [7EE434F5], AccurateRip returned [D54C13B4] (AR v2)
Track 16 accurately ripped (confidence 1) [433E0CD0] (AR v1)
Track 17 accurately ripped (confidence 1) [6F4B19FA] (AR v1)
Track 18 accurately ripped (confidence 1) [C144279A] (AR v1)
17 track(s) accurately ripped
1 track(s) could not be verified as accurate
Some tracks could not be verified as accurate
End of status report
---- CUETools DB Plugin V2.1.3
[CTDB TOCID: iKip4NQHnan.91w_JhrGkEwxA6A-] disk not present in database, Submit result: insufficient quality
==== Log checksum CC1EBEE95C7B2346278EF4EFC25C81F572C942206DB9583B245EC206AC6621FD ====

CD2

Exact Audio Copy V1.0 beta 3 from 29. August 2011
EAC extraction logfile from 11. July 2014, 17:15
Rossini / Armida, Franci CD2
Used drive : TSSTcorpCDDVDW SE-208AB Adapter: 1 ID: 0
Read mode : Secure
Utilize accurate stream : Yes
Defeat audio cache : Yes
Make use of C2 pointers : No
Read offset correction : 6
Overread into Lead-In and Lead-Out : No
Fill up missing offset samples with silence : Yes
Delete leading and trailing silent blocks : No
Null samples used in CRC calculations : Yes
Used interface : Native Win32 interface for Win NT & 2000
Used output format : Monkey's Audio Lossless Encoder
Selected bitrate : High Lossless Compression
Quality : High
Add ID3 tag : No
Command line compressor : C:\Program Files (x86)\Exact Audio Copy\MAC\MAC.exe
TOC of the extracted CD
Track | Start | Length | Start sector | End sector
---------------------------------------------------------
1 | 0:00.00 | 4:37.55 | 0 | 20829
2 | 4:37.55 | 4:36.27 | 20830 | 41556
3 | 9:14.07 | 4:13.53 | 41557 | 60584
4 | 13:27.60 | 2:20.02 | 60585 | 71086
5 | 15:47.62 | 1:33.67 | 71087 | 78128
6 | 17:21.54 | 15:14.61 | 78129 | 146739
7 | 32:36.40 | 6:21.60 | 146740 | 175374
8 | 38:58.25 | 4:38.35 | 175375 | 196259
9 | 43:36.60 | 8:47.17 | 196260 | 235801
10 | 52:24.02 | 4:06.38 | 235802 | 254289
11 | 56:30.40 | 1:20.32 | 254290 | 260321
12 | 57:50.72 | 2:21.15 | 260322 | 270911
13 | 60:12.12 | 0:59.00 | 270912 | 275336
14 | 61:11.12 | 0:41.55 | 275337 | 278466
15 | 61:52.67 | 4:16.65 | 278467 | 297731
16 | 66:09.57 | 4:46.68 | 297732 | 319249
17 | 70:56.50 | 3:00.72 | 319250 | 332821
Range status and errors
Selected range
Filename D:\EAC\Rossini - Armida, Franci CD2.wav
Peak level 100.0 %
Extraction speed 5.1 X
Range quality 100.0 %
Test CRC 40B6EA2B
Copy CRC 40B6EA2B
Copy OK
No errors occurred
AccurateRip summary
Track 1 accurately ripped (confidence 1) [B2C8CDD0] (AR v1)
Track 2 accurately ripped (confidence 1) [5F174F63] (AR v1)
Track 3 accurately ripped (confidence 1) [9B7C9AE4] (AR v1)
Track 4 accurately ripped (confidence 1) [38E4A220] (AR v1)
Track 5 accurately ripped (confidence 1) [DD648CA0] (AR v1)
Track 6 accurately ripped (confidence 1) [1073A1DB] (AR v1)
Track 7 accurately ripped (confidence 1) [5771BDF1] (AR v1)
Track 8 accurately ripped (confidence 1) [CC7F6A7B] (AR v1)
Track 9 accurately ripped (confidence 1) [3899C28A] (AR v1)
Track 10 accurately ripped (confidence 1) [23D88F23] (AR v1)
Track 11 accurately ripped (confidence 1) [B3FD149D] (AR v1)
Track 12 accurately ripped (confidence 1) [9BC8DE9C] (AR v1)
Track 13 accurately ripped (confidence 1) [57A42C40] (AR v1)
Track 14 accurately ripped (confidence 1) [86440FFA] (AR v1)
Track 15 accurately ripped (confidence 1) [42C998B4] (AR v1)
Track 16 accurately ripped (confidence 1) [6F87E961] (AR v1)
Track 17 accurately ripped (confidence 1) [4C03FB9A] (AR v1)
All tracks accurately ripped
End of status report
---- CUETools DB Plugin V2.1.3
[CTDB TOCID: iMrDJVInh0_aS0ExPGSzguAMQvY-] disk not present in database, Submit result: iMrDJVInh0_aS0ExPGSzguAMQvY- has been uploaded
==== Log checksum 418BFBA6A2AA90F9772E9DB09D7DAD12AEB5D11A7A34067C2AFEF694280F7B6C ====

Содержание индексной карты (.CUE)

CD1

REM GENRE Opera
REM DATE 1970
REM DISCID FB0E4C12
REM COMMENT "ExactAudioCopy v1.0b3"
CATALOG 0000000000000
PERFORMER "Rossini"
TITLE "Armida, Franci CD1"
FILE "Rossini - Armida, Franci CD1.ape" WAVE
TRACK 01 AUDIO
TITLE "Overture"
PERFORMER "Rossini"
INDEX 01 00:00:00
TRACK 02 AUDIO
TITLE "Atto Primo: Lieto Ridente/Ah No! Sia Questo Di Tregua Il Giorno.../Arditi All..."
PERFORMER "Rossini"
INDEX 01 07:24:55
TRACK 03 AUDIO
TITLE "Atto Primo: Germano, A Te Richiede..."
PERFORMER "Rossini"
INDEX 01 14:14:72
TRACK 04 AUDIO
TITLE "Atto Primo: Signor, Tanto Il Tuo Nome..."
PERFORMER "Rossini"
INDEX 01 15:30:60
TRACK 05 AUDIO
TITLE "Atto Primo: Sventurata! Or Che Mi Resta?"
PERFORMER "Rossini"
INDEX 01 18:24:07
TRACK 06 AUDIO
TITLE "Atto Primo: Or Che Faro..."
PERFORMER "Rossini"
INDEX 01 22:14:22
TRACK 07 AUDIO
TITLE "Atto Primo: German Se Togli Al Campo "
PERFORMER "Rossini"
INDEX 01 24:58:72
TRACK 08 AUDIO
TITLE "Atto Primo: Per Me Propizio Il Fato"
PERFORMER "Rossini"
INDEX 01 26:12:22
TRACK 09 AUDIO
TITLE "Atto Primo: Cedei Guerrieri E Ver.../Opportuna E La Scelta"
PERFORMER "Rossini"
INDEX 01 27:54:05
TRACK 10 AUDIO
TITLE "Atto Primo: Come A Dudon Costui Succede"
PERFORMER "Rossini"
INDEX 01 29:29:20
TRACK 11 AUDIO
TITLE "Atto Primo: Non Soffriro L'offesa/E Questi Son Gli Allori/Ah Tutti V'unite "
PERFORMER "Rossini"
INDEX 01 30:15:25
TRACK 12 AUDIO
TITLE "Atto Primo: Grata Quest' Alma!/Amor! Possente Nome!"
PERFORMER "Rossini"
INDEX 01 35:28:70
TRACK 13 AUDIO
TITLE "Atto Primo: Vacilla A Quegli Accenti"
PERFORMER "Rossini"
INDEX 01 40:21:37
TRACK 14 AUDIO
TITLE "Atto Primo: Ah! Non Poss' Io Resistere! "
PERFORMER "Rossini"
INDEX 01 44:33:07
TRACK 15 AUDIO
TITLE "Atto Primo: Ecco Il Guerrier"
PERFORMER "Rossini"
INDEX 01 46:28:12
TRACK 16 AUDIO
TITLE "Atto Primo: Se Pari Agli Accenti"
PERFORMER "Rossini"
INDEX 01 47:31:12
TRACK 17 AUDIO
TITLE "Atto Primo: Che Terribile Momento "
PERFORMER "Rossini"
INDEX 01 50:47:55
TRACK 18 AUDIO
TITLE "Atto Primo: Vieni O Duce, Punisci L'errore/Amicia La Sorte.."
PERFORMER "Rossini"
INDEX 01 55:53:00

CD2

REM GENRE Opera
REM DATE 1970
REM DISCID 0B115511
REM COMMENT "ExactAudioCopy v1.0b3"
CATALOG 0000000000000
PERFORMER "Rossini"
TITLE "Armida, Franci CD2"
FILE "Rossini - Armida, Franci CD2.ape" WAVE
TRACK 01 AUDIO
TITLE "Atto Seconodo: Alla Voce D'Armida Possente"
PERFORMER "Rossini"
INDEX 01 00:00:00
TRACK 02 AUDIO
TITLE "Atto Seconodo: Sovrumano Potere/Di Ferro E Fiamma Cinti/Ebben, L'istante E Gi..."
PERFORMER "Rossini"
INDEX 01 04:37:55
TRACK 03 AUDIO
TITLE "Atto Seconodo: Dove Son Io?"
PERFORMER "Rossini"
INDEX 01 09:14:07
TRACK 04 AUDIO
TITLE "Atto Seconodo: Mio Ben, Questo Che Premi..."
PERFORMER "Rossini"
INDEX 01 13:27:60
TRACK 05 AUDIO
TITLE "Atto Seconodo: No! D'amor La Reggia E Questa"
PERFORMER "Rossini"
INDEX 01 15:47:62
TRACK 06 AUDIO
TITLE "Atto Seconodo: Ballo"
PERFORMER "Rossini"
INDEX 01 17:21:54
TRACK 07 AUDIO
TITLE "Atto Seconodo: D'amor Al Dolce Impero"
PERFORMER "Rossini"
INDEX 01 32:36:40
TRACK 08 AUDIO
TITLE "Atto Terzo: Come L'aurette Placide/Ah, Quanto Amico... T'inganni"
PERFORMER "Rossini"
INDEX 00 38:52:62
INDEX 01 38:58:25
TRACK 09 AUDIO
TITLE "Atto Terzo: Qui Tutto E Calma/Fuggite Inferni Mostri/Soavi Catene/O Mio Rinaldo"
PERFORMER "Rossini"
INDEX 01 43:36:60
TRACK 10 AUDIO
TITLE "Atto Terzo: In Quale Aspetto Imbelle.."
PERFORMER "Rossini"
INDEX 01 52:24:02
TRACK 11 AUDIO
TITLE "Atto Terzo: Unitevi A Gara "
PERFORMER "Rossini"
INDEX 01 56:30:40
TRACK 12 AUDIO
TITLE "Atto Terzo: Interludio"
PERFORMER "Rossini"
INDEX 01 57:50:72
TRACK 13 AUDIO
TITLE "Atto Terzo: Sia Lode Al Ciel..."
PERFORMER "Rossini"
INDEX 01 60:12:12
TRACK 14 AUDIO
TITLE "Atto Terzo: Ed E Pur Vero... E Abbandonarmi Vuoi "
PERFORMER "Rossini"
INDEX 01 61:11:12
TRACK 15 AUDIO
TITLE "Atto Terzo: Se Al Mio Crudel Tormento"
PERFORMER "Rossini"
INDEX 01 61:52:67
TRACK 16 AUDIO
TITLE "Atto Terzo: Dove Son Io?"
PERFORMER "Rossini"
INDEX 01 66:09:57
TRACK 17 AUDIO
TITLE "Atto Terzo: E Ver, Gode Quest'anima "
PERFORMER "Rossini"
INDEX 01 70:56:50
Наслаждайтесь!!



Показать сообщения:    

Текущее время: 08-Дек 12:51

Часовой пояс: UTC + 3


Вы не можете начинать темы
Вы не можете отвечать на сообщения
Вы не можете редактировать свои сообщения
Вы не можете удалять свои сообщения
Вы не можете голосовать в опросах
Вы не можете прикреплять файлы к сообщениям
Вы не можете скачивать файлы