(Classical) Puccini - La Boheme (Ileana Cotrubas; Sona Ghazarian; Giacomo Aragall; Jonathan Summers; Carlos Kleiber; Covent Garden; 1979) - 2000, FLAC (image+.cue) lossless


 

[Цитировать]

Puccini - La Boheme (Ileana Cotrubas; Sona Ghazarian; Giacomo Aragall; Jonathan Summers; Carlos Kleiber; Covent Garden; 1979)
Жанр: Classical
Страна-производитель диска: Италия
Год издания диска: 2000
Издатель (лейбл): Golden Melodram
Номер по каталогу: GM 6.0004
Дата записи: 1979
Аудиокодек: FLAC
Тип рипа: image+.cue
Битрейт аудио: lossless
Продолжительность: 49:52 + 48:23
Источник: собственный рип
Наличие сканов в содержимом раздачи: нет

Треклист

CD1
Act 1
1. Cuesto mar rosso [04:01]
2. Pensier profondo! Giusto color! [01:11]
3. Legna! Sigari! Bordo! [03:26]
4. Si puo? [05:44]
5. Non sono in vena [04:04]
6. Che gelida manina [04:48]
7. Mi chiamano Mimi [05:20]
8. O soave fanciulla! [03:59]
Act 2
9. Arranci, datteri! [03:20]
10. Questa e Mimi [04:15]
11. Ch' io beva del tossico! [03:08]
12. Quando men vo [06:30]
CD2
Act 3
1. Ohe, la, le guardie [04:31]
2. Mimi! Speravo di trovarvi qui [04:46]
3. Marcello, finalmente [05:15]
4. Donde lieta usci [02:45]
5. Dunque proprio e finita [04:59]
Act 4
6. In un coupe? [03:57]
7. Che ora sia? [03:40]
8. Musetta! C'e Mimi [05:10]
9. Vecchia zimarra, senti [03:07]
10. Sono andati [07:10]
11. Che ha detto il medico? [02:59]
Исполнители:
Mimi - Ileana Cotrubas
Musetta - Sona Ghazarian
Rodolfo - Giacomo Aragall
Marcello - Jonathan Summers
Schaunard - John Rawnsley
Colline - Gwynne Howell
Alcindoro - John Dobson
Benoit - Eric Garett
Parpignol - Robert Bowman
Chorus & Orchestra of the Royal Opera House Covent Garden
London, November 7, 1979
Conductor - Carlos Kleiber

Лог создания рипа

CD1
Exact Audio Copy V1.0 beta 3 from 29. August 2011
Отчёт EAC об извлечении, выполненном 15. июля 2014, 13:26
Carlos Kleiber - Covent Garden 1979 / Puccini - La Boheme - CD-1
Дисковод: PIONEER BD-RW BDR-208D Adapter: 3 ID: 0
Режим чтения : Достоверность
Использование точного потока : Да
Отключение кэша аудио : Да
Использование указателей C2 : Нет
Коррекция смещения при чтении : 667
Способность читать области Lead-in и Lead-out : Нет
Заполнение пропущенных сэмплов тишиной : Да
Удаление блоков с тишиной в начале и конце : Нет
При вычислениях CRC использовались нулевые сэмплы : Да
Интерфейс : Встроенный Win32-интерфейс для Win NT/2000
Выходной формат : Пользовательский кодировщик
Выбранный битрейт : 768 kBit/s
Качество : Высокий
Добавление ID3-тега : Нет
Утилита сжатия : C:\Program Files (x86)\Exact Audio Copy\FLAC\FLAC.EXE
Дополнительные параметры : -6 -V -T "ARTIST=%artist%" -T "TITLE=%title%" -T "ALBUM=%albumtitle%" -T "DATE=%year%" -T "TRACKNUMBER=%tracknr%" -T "GENRE=%genre%" -T "COMMENT=%comment%" -T "BAND=%albuminterpret%" -T "ALBUMARTIST=%albuminterpret%" -T "COMPOSER=%composer%" %haslyrics%--tag-from-file=LYRICS="%lyricsfile%"%haslyrics% -T "DISCNUMBER=%cdnumber%" -T "TOTALDISCS=%totalcds%" -T "TOTALTRACKS=%numtracks%" %hascover%--picture="%coverfile%"%hascover% %source% -o %dest%
TOC извлечённого CD
Трек | Старт | Длительность | Начальный сектор | Конечный сектор
---------------------------------------------------------------------
1 | 0:00.00 | 4:01.27 | 0 | 18101
2 | 4:01.27 | 1:11.20 | 18102 | 23446
3 | 5:12.47 | 3:26.53 | 23447 | 38949
4 | 8:39.25 | 5:44.50 | 38950 | 64799
5 | 14:24.00 | 4:04.47 | 64800 | 83146
6 | 18:28.47 | 4:48.55 | 83147 | 104801
7 | 23:17.27 | 5:20.55 | 104802 | 128856
8 | 28:38.07 | 3:59.28 | 128857 | 146809
9 | 32:37.35 | 3:20.17 | 146810 | 161826
10 | 35:57.52 | 4:15.23 | 161827 | 180974
11 | 40:13.00 | 3:08.55 | 180975 | 195129
12 | 43:21.55 | 6:30.37 | 195130 | 224416
Характеристики диапазона извлечения и сообщения об ошибках
Выбранный диапазон
Имя файла C:\Users\user\Desktop\Carlos Kleiber - Covent Garden 1979 - Puccini - La Boheme - CD-1.wav
Пиковый уровень 94.4 %
Скорость извлечения 7.3 X
Качество диапазона 100.0 %
CRC теста 7DD1FC7D
CRC копии 7DD1FC7D
Копирование... OK
Ошибок не произошло
AccurateRip: сводка
Трек 1 : извлечено точно (доверие 1) [FAE32C7E] (AR v2)
Трек 2 : извлечено точно (доверие 1) [452C8740] (AR v2)
Трек 3 : извлечено точно (доверие 1) [2CE88254] (AR v2)
Трек 4 : извлечено точно (доверие 1) [EE61D721] (AR v2)
Трек 5 : извлечено точно (доверие 1) [D1A3C724] (AR v2)
Трек 6 : извлечено точно (доверие 1) [D61A56FE] (AR v2)
Трек 7 : извлечено точно (доверие 1) [9F296EBC] (AR v2)
Трек 8 : извлечено точно (доверие 1) [9B64150D] (AR v2)
Трек 9 : извлечено точно (доверие 1) [DFCA1A86] (AR v2)
Трек 10 : извлечено точно (доверие 1) [432FF7AE] (AR v2)
Трек 11 : извлечено точно (доверие 1) [2B0EC851] (AR v2)
Трек 12 : извлечено точно (доверие 1) [C77C3B7E] (AR v2)
Все треки извлечены точно
Конец отчёта
==== Контрольная сумма отчёта CD1EB34FA8E3ED48F9D3BBB5447BE8C3FFBAAF74D16A12E71F29BF8449A6911E ====
CD2
Exact Audio Copy V1.0 beta 3 from 29. August 2011
Отчёт EAC об извлечении, выполненном 15. июля 2014, 12:48
Carlos Kleiber - Covent Garden 1979 / Puccini - La Boheme - CD-2
Дисковод: PIONEER BD-RW BDR-208D Adapter: 3 ID: 0
Режим чтения : Достоверность
Использование точного потока : Да
Отключение кэша аудио : Да
Использование указателей C2 : Нет
Коррекция смещения при чтении : 667
Способность читать области Lead-in и Lead-out : Нет
Заполнение пропущенных сэмплов тишиной : Да
Удаление блоков с тишиной в начале и конце : Нет
При вычислениях CRC использовались нулевые сэмплы : Да
Интерфейс : Встроенный Win32-интерфейс для Win NT/2000
Выходной формат : Пользовательский кодировщик
Выбранный битрейт : 768 kBit/s
Качество : Высокий
Добавление ID3-тега : Нет
Утилита сжатия : C:\Program Files (x86)\Exact Audio Copy\FLAC\FLAC.EXE
Дополнительные параметры : -6 -V -T "ARTIST=%artist%" -T "TITLE=%title%" -T "ALBUM=%albumtitle%" -T "DATE=%year%" -T "TRACKNUMBER=%tracknr%" -T "GENRE=%genre%" -T "COMMENT=%comment%" -T "BAND=%albuminterpret%" -T "ALBUMARTIST=%albuminterpret%" -T "COMPOSER=%composer%" %haslyrics%--tag-from-file=LYRICS="%lyricsfile%"%haslyrics% -T "DISCNUMBER=%cdnumber%" -T "TOTALDISCS=%totalcds%" -T "TOTALTRACKS=%numtracks%" %hascover%--picture="%coverfile%"%hascover% %source% -o %dest%
TOC извлечённого CD
Трек | Старт | Длительность | Начальный сектор | Конечный сектор
---------------------------------------------------------------------
1 | 0:00.00 | 4:31.50 | 0 | 20374
2 | 4:31.50 | 4:46.07 | 20375 | 41831
3 | 9:17.57 | 5:15.05 | 41832 | 65461
4 | 14:32.62 | 2:45.33 | 65462 | 77869
5 | 17:18.20 | 4:59.37 | 77870 | 100331
6 | 22:17.57 | 3:57.68 | 100332 | 118174
7 | 26:15.50 | 3:40.22 | 118175 | 134696
8 | 29:55.72 | 5:10.43 | 134697 | 157989
9 | 35:06.40 | 3:07.12 | 157990 | 172026
10 | 38:13.52 | 7:10.08 | 172027 | 204284
11 | 45:23.60 | 2:59.45 | 204285 | 217754
Характеристики диапазона извлечения и сообщения об ошибках
Выбранный диапазон
Имя файла C:\Users\user\Desktop\Carlos Kleiber - Covent Garden 1979 - Puccini - La Boheme - CD-2.wav
Пиковый уровень 100.0 %
Скорость извлечения 4.6 X
Качество диапазона 100.0 %
CRC теста C5D5E5C4
CRC копии C5D5E5C4
Копирование... OK
Ошибок не произошло
AccurateRip: сводка
Трек 1 : извлечено точно (доверие 1) [F6AD4D50] (AR v2)
Трек 2 : извлечено точно (доверие 1) [21911CB2] (AR v2)
Трек 3 : извлечено точно (доверие 1) [EFCD8ACA] (AR v2)
Трек 4 : извлечено точно (доверие 1) [9A29972E] (AR v2)
Трек 5 : извлечено точно (доверие 1) [F9FFEB93] (AR v2)
Трек 6 : извлечено точно (доверие 1) [80DBB9A6] (AR v2)
Трек 7 : извлечено точно (доверие 1) [B2881605] (AR v2)
Трек 8 : извлечено точно (доверие 1) [6C84C325] (AR v2)
Трек 9 : извлечено точно (доверие 1) [8754FB78] (AR v2)
Трек 10 : извлечено точно (доверие 1) [966D2DC1] (AR v2)
Трек 11 : извлечено точно (доверие 1) [B6330A03] (AR v2)
Все треки извлечены точно
Конец отчёта
==== Контрольная сумма отчёта 378A7D9E0479B17CB9115607BBB4DA2C7C283A4A77E71D9129BBA55402B84142 ====
Доп. информация: Внимание! Качество звука в данной записи отражает плохие условия, при которых она была сделана. Поэтому данная раздача будет интересна в первую очередь тем, кто сможет по достоинству оценить документальную значимость этой записи.



Показать сообщения:    

Текущее время: 05-Дек 11:33

Часовой пояс: UTC + 3


Вы не можете начинать темы
Вы не можете отвечать на сообщения
Вы не можете редактировать свои сообщения
Вы не можете удалять свои сообщения
Вы не можете голосовать в опросах
Вы не можете прикреплять файлы к сообщениям
Вы не можете скачивать файлы