(Opera) Е.Образцова - Operatic Recital (Cilea"Adriana Lecouvreur"; Mascagni"Cavalleria Rusticana"; Verdi"Il Trovatore"; Saint-Saens "Samson et Dalila"; Bizet"Carmen") 2003 FLAC (image+.cue)


 

[Цитировать]

Елена Образцова - Operatic Recital
(Cilea - "Adriana Lecouvreur";Mascagni - "Cavalleria Rusticana"; Verdi - "Il Trovatore", "Don Carlos"; Saint-Saens - "Samson et Dalila";Bizet - "Carmen")
Жанр: Opera
Страна-производитель диска: Россия
Год издания диска: 2003
Издатель (лейбл): Международная Книга Музыка, OLYMPIA
Номер по каталогу: MKM 106
Дата записи: 1978
Аудиокодек: FLAC
Тип рипа: image+.cue
Битрейт аудио: lossless
Продолжительность: 00:45:28
Источник: JVA
Наличие сканов в содержимом раздачи: да
Треклист:
Sing in Italian
F.Cilea «Adriana Lecouvreur»
01. Acerba volutta (4:24)
P.Mascagni «Cavalleria Rusticana»
02. Voi lo sapete, o mamma (3:57)
Conducted by Giuseppe Patane
D.Verdi «Il Trovatore»
03. Stride la vampa (2:46)
04. Condotta ell'era in ceppi (Act II) (5:03)
D.Verdi «Don Carlos»
05. O don fatale (Act IV). (4:21)
Conducted by Robin Stapleton
Sing in French
С.Saint-Saens «Samson et Dalila»
06. Printemps qui commence (Act I) (5;40)
07. Mon coeur s'ouvre a ta voix (Act II) (5:46)
08. Samson, recherchant ma presence (Act II) (3:51)
G.Bizet«Carmen»
09. Habanera: La voila...
L'amour est un oiseau rebelle (Act I) (5:24)
With Ambrosian Opera Chorus. Chorus master John McCarthy
10. Seguidilla: Pres des remparts de Seville (Act I).... (4:11)
Conducted by Giuseppe Patane
Исполнители:
Елена Образцова, меццо-сопрано
Philarmonia Orchestra
Ambrosian Opera Chorus
Chorus master: John McCarthy
Conducted by Giuseppe Patane, Robin Stapleton
Дата записи: Запись 1978 г. EMI Records Ltd (Англия) и Международная Книга (СССР)

Лог создания рипа

Exact Audio Copy V0.99 prebeta 5 from 4. May 2009
Отчёт EAC об извлечении, выполненном 23. июня 2014, 16:54
Elena Obraztsova / Operatic Recital
Дисковод: _NEC DVD_RW ND-4571A Adapter: 0 ID: 0
Режим чтения : ДостоверностьИспользование точного потока : ДаОтключение кэша аудио : ДаИспользование указателей C2 : Нет
Коррекция смещения при чтении : 48Способность читать области Lead-in и Lead-out : НетЗаполнение пропущенных сэмплов тишиной : ДаУдаление блоков с тишиной в начале и конце : НетПри вычислениях CRC использовались нулевые сэмплы : ДаИнтерфейс : Встроенный Win32-интерфейс для Win NT/2000
Выходной формат : Пользовательский кодировщикВыбранный битрейт : 768 kBit/sКачество : ВысокийДобавление ID3-тэга : НетУтилита сжатия : C:\Program Files\Exact Audio Copy\Flac\flac.exeДополнительные параметры : -6 -V -T "ARTIST=%a" -T "TITLE=%t" -T "ALBUM=%g" -T "DATE=%y" -T "TRACKNUMBER=%n" -T "GENRE=%m" -T "COMMENT=%e" %s -o %d
TOC извлечённого CD
Трек | Старт | Длительность | Начальный сектор | Конечный сектор --------------------------------------------------------------------- 1 | 0:00.00 | 4:24.00 | 0 | 19799 2 | 4:24.00 | 3:57.00 | 19800 | 37574 3 | 8:21.00 | 2:46.00 | 37575 | 50024 4 | 11:07.00 | 5:03.00 | 50025 | 72749 5 | 16:10.00 | 4:21.00 | 72750 | 92324 6 | 20:31.00 | 5:40.00 | 92325 | 117824 7 | 26:11.00 | 5:46.00 | 117825 | 143774 8 | 31:57.00 | 3:51.00 | 143775 | 161099 9 | 35:48.00 | 5:24.00 | 161100 | 185399 10 | 41:12.00 | 4:14.00 | 185400 | 204449
Характеристики диапазона извлечения и сообщения об ошибках
Выбранный диапазон
Имя файла D:\EAC\Elena Obraztsova - Operatic Recital\Elena Obraztsova - Operatic Recital.wav
Пиковый уровень 100.0 % Качество диапазона 100.0 % CRC копии E344B653 Копирование... OK
Ошибок не произошло
AccurateRip: сводка
Трек 1 точность не определена (достоверность 1) [DDA57749], AccurateRip вернул [4BBB6B6C]Трек 2 точность не определена (достоверность 1) [4378A06E], AccurateRip вернул [7F37E479]Трек 3 точность не определена (достоверность 1) [D16ED1D5], AccurateRip вернул [5191315C]Трек 4 точность не определена (достоверность 1) [54C1888D], AccurateRip вернул [66F4A0BA]Трек 5 точность не определена (достоверность 1) [1BD22029], AccurateRip вернул [6B7E392A]Трек 6 точность не определена (достоверность 1) [9F174C1D], AccurateRip вернул [B9676367]Трек 7 точность не определена (достоверность 1) [E1F80034], AccurateRip вернул [EAA749FB]Трек 8 точность не определена (достоверность 1) [EB877767], AccurateRip вернул [5F79935C]Трек 9 точность не определена (достоверность 1) [A0209F92], AccurateRip вернул [20782FB0]Трек 10 точность не определена (достоверность 1) [9ED9052D], AccurateRip вернул [5D1E8849]
Ни один трек не прошёл проверки на точностьВ вашей базе может быть иной вариант штамповки диска
Конец отчёта

Лог проверки качества

Скриншот спектра частот




Показать сообщения:    

Текущее время: 07-Дек 11:35

Часовой пояс: UTC + 3


Вы не можете начинать темы
Вы не можете отвечать на сообщения
Вы не можете редактировать свои сообщения
Вы не можете удалять свои сообщения
Вы не можете голосовать в опросах
Вы не можете прикреплять файлы к сообщениям
Вы не можете скачивать файлы