(Opera) Vivaldi - L'incoronazione di Dario (Ottavio Dantone, Anders Dahlin, Sara Mingardo, Delphine Galou) - 2014, APE (image+.cue) lossless


 

[Цитировать]

Vivaldi - L'incoronazione di Dario (Ottavio Dantone, Anders Dahlin, Sara Mingardo, Delphine Galou)
Жанр: Opera
Страна-производитель диска: EU
Год издания диска: 2014
Издатель (лейбл): Naive
Номер по каталогу: OP 30553
Дата записи: 2013
Аудиокодек: APE
Тип рипа: image+.cue
Битрейт аудио: lossless
Продолжительность: 64:34 (CD1), 68:57 (CD2), 43:52 (CD3)
Источник: собственный рип
Наличие сканов в содержимом раздачи: нет

Треклист

CD1
01. Sifonia
02. Atto Primo. Scena 1 - Recitativo accompagnato (Ombra di Ciro)
03. Scena 2 - Recitativo (Statira, Argene, Niceno)
04. Scena 2 - Duetto (Statira, Argene)
05. Scena 3 - Recitativo (Flora, Statira, Argene, Niceno)
06. Scena 4 - Recitativo (Dario, Argene, Statira, Flora)
07. Scena 4 - Aria (Dario)
08. Scena 5 - Recitativo (Argene, Flora)
09. Scena 5 - Aria (Argene)
10. Scena 6 - Recitativo (Statira, Flora)
11. Scena 6 - Aria (Statira)
12. Scena 7 - Recitativo (Flora)
13. Scena 7 - Aria (Flora)
14. Scena 8 - Recitativo (Arpago)
15. Scena 9 - Sinfonia per il combattimento
16. Scena 10 - Recitativo (Dario, Oronte, Arpago)
17. Scena 10 - Aria (Arpago)
18. Scena 11 - Recitativo (Dario)
19. Scena 11 - Aria (Dario)
20. Scena 12 - Recitativo (Oronte, Alinda)
21. Scena 12 - Aria (Oronte)
22. Scena 13 - Recitativo (Alinda)
23. Scena 13 - Aria (Alinda)
24. Scena 14 - Recitativo (Niceno)
25. Scena 15 - Cantata (Statira)
26. Scena 15 - Recitativo (Statiro, Niceno)
27. Scena 15 - Aria (Statira)
28. Scena 16 - Recitativo (Argene, Niceno)
29. Scena 16 - Aria (Argene)
30. Scena 17 - Recitativo (Nicena)
31. Scena 17 - Aria (Niceno)
CD2
01. Atto secondo. Scena 1 - Arioso (Dario)
02. Scena 2 - Recitativo (Flora, Argene, Dario)
03. Scena 2 - Aria (Dario)
04. Scena 3 - Recitativo ( Argene, Flora)
05. Scena 3 - Aria (Argene)
06. Scena 4 - Recitativo-Arioso-Recitativo (Flora, Statira)
07. Scena 5 - Recitativo (Flora)
08. Scena 5 - Aria (Flora)
09. Scena 6 - Terzetto (Dario, Oronte, Arpago)
10. Scena 6 - Aria (Oronte)
11. Scena 7 - Recitativo (Statira, Niceno)
12. Scena 8 - Recitativo (Arpago, Statira, Niceno)
13. Scena 8 - Aria (Arpago)
14. Scena 9 - Recitativo (Oronte, Statira, Niceno)
15. Scena 10 - Recitativo (Alinda, Oronte, Niceno, Statira)
16. Scena 10 - Aria (Statira)
17. Scena 11 - Recitativo (Oronte, Alinda)
18. Scena 11 - Aria (Oronte)
19. Scena 12 - Recitativo (Alinda)
20. Scena 12 - Aria (Alinda)
21. Scena 13-15 - Arioso (Argene)
22. Scena 16 - Recitativo (Argene, Dario)
23. Scena 17 - Aria (Argene)
24. Scena 18 - Recitativo (Statira, Dario)
25. Scena 18 - Aria (Statira)
26. Scena 19 - Recitativo (Dario, Nicena)
27. Scena 19 - Aria (Niceno)
28. Scena 20 - Recitativo (Dario)
29. Scena 20 - Aria (Dario)
CD3
01. Atto Terzo. Scena 1 - Arioso a due (Oronte, Arpago)
02. Scena 1 - Recitativo (Oronte, Arpago, Statira)
03. Scena 1 - Aria (Arpago)
04. Scena 2 - Recitativo (Argene, Niceno, Flora, Statira)
05. Scena 2 - Aria (Statira)
06. Scena 3 - Recitativo (Flora, Argene)
07. Scena 5 - Recitativo (Oronte, Alinda, Argene)
08. Scena 6 - Recitativo (Alinda, Oronte)
09. Scena 6 - Aria (Alinda)
10. Scena 7 - Recitativo (Oronte)
11. Scena 7 - Aria (Oronte)
12. Scena 8 - Recitativo (Statira, Flora, Niceno)
13. Scena 10 - Recitativo (Dario, Statira)
14. Scena 10 - Duetto (Dario, Statira)
15. Scena 11 - Recitativo (Argene)
16. Scena 12 - Aria (Alinda)
17. Scena 13 - Recitativo (Arpago, Oronte, Argene, Alinda)
18. Scena 14 - Aria (Argene)
19. Scena Ultima - Recitativo (Arpago, Oronte, Dario, Alinda, Statira)
20. Scena Ultima - Coro

Исполнители

Dario - Anders Dahlin
Statira - Sara Mingardo
Argene - Delphine Galou
Niceno - Riccardo Navaro
Alinda - Roberta Mameli
Oronte - Lucia Cirilo
Arpago - Sofia Soloviy
Flora - Giuseppina Bridelli
Accademia Bizantina
Direttore - Ottavio Dantone

Лог создания рипаОтчёт EAC CD1

Exact Audio Copy V0.99 prebeta 5 from 4. May 2009
EAC extraction logfile from 25. June 2014, 17:34
Vivaldi / L'incoronazione di Dario - Ottavio Dantone (cd1)
Used drive : HL-DT-STDVDRAM GH24NS95 Adapter: 0 ID: 0
Read mode : SecureUtilize accurate stream : YesDefeat audio cache : YesMake use of C2 pointers : No
Read offset correction : 6Overread into Lead-In and Lead-Out : NoFill up missing offset samples with silence : YesDelete leading and trailing silent blocks : NoNull samples used in CRC calculations : YesUsed interface : Native Win32 interface for Win NT & 2000
Used output format : Internal WAV RoutinesSample format : 44.100 Hz; 16 Bit; Stereo
TOC of the extracted CD
Track | Start | Length | Start sector | End sector --------------------------------------------------------- 1 | 0:00.00 | 4:07.73 | 0 | 18597 2 | 4:07.73 | 1:02.48 | 18598 | 23295 3 | 5:10.46 | 1:15.42 | 23296 | 28962 4 | 6:26.13 | 1:01.74 | 28963 | 33611 5 | 7:28.12 | 0:45.24 | 33612 | 37010 6 | 8:13.36 | 2:15.66 | 37011 | 47201 7 | 10:29.27 | 3:23.60 | 47202 | 62486 8 | 13:53.12 | 1:13.48 | 62487 | 68009 9 | 15:06.60 | 2:49.01 | 68010 | 80685 10 | 17:55.61 | 1:36.35 | 80686 | 87920 11 | 19:32.21 | 3:30.24 | 87921 | 103694 12 | 23:02.45 | 0:23.24 | 103695 | 105443 13 | 23:25.69 | 2:50.31 | 105444 | 118224 14 | 26:16.25 | 1:45.04 | 118225 | 126103 15 | 28:01.29 | 0:41.24 | 126104 | 129202 16 | 28:42.53 | 1:49.38 | 129203 | 137415 17 | 30:32.16 | 3:26.16 | 137416 | 152881 18 | 33:58.32 | 0:15.24 | 152882 | 154030 19 | 34:13.56 | 3:10.48 | 154031 | 168328 20 | 37:24.29 | 1:27.50 | 168329 | 174903 21 | 38:52.04 | 2:04.03 | 174904 | 184206 22 | 40:56.07 | 1:22.50 | 184207 | 190406 23 | 42:18.57 | 3:07.38 | 190407 | 204469 24 | 45:26.20 | 2:52.67 | 204470 | 217436 25 | 48:19.12 | 4:24.05 | 217437 | 237241 26 | 52:43.17 | 1:27.28 | 237242 | 243794 27 | 54:10.45 | 3:10.33 | 243795 | 258077 28 | 57:21.03 | 1:17.70 | 258078 | 263922 29 | 58:38.73 | 2:02.11 | 263923 | 273083 30 | 60:41.09 | 0:22.16 | 273084 | 274749 31 | 61:03.25 | 3:29.37 | 274750 | 290461
Range status and errors
Selected range
Filename C:\Vivaldi - L'incoronazione di Dario - Ottavio Dantone (cd1).wav
Peak level 97.2 % Range quality 100.0 % Test CRC 77731AA2 Copy CRC 77731AA2 Copy OK
No errors occurred
End of status report

Отчёт EAC CD2

Exact Audio Copy V0.99 prebeta 5 from 4. May 2009
EAC extraction logfile from 25. June 2014, 18:04
Vivaldi / L'incoronazione di Dario - Ottavio Dantone (cd2)
Used drive : HL-DT-STDVDRAM GH24NS95 Adapter: 0 ID: 0
Read mode : SecureUtilize accurate stream : YesDefeat audio cache : YesMake use of C2 pointers : No
Read offset correction : 6Overread into Lead-In and Lead-Out : NoFill up missing offset samples with silence : YesDelete leading and trailing silent blocks : NoNull samples used in CRC calculations : YesUsed interface : Native Win32 interface for Win NT & 2000
Used output format : Internal WAV RoutinesSample format : 44.100 Hz; 16 Bit; Stereo
TOC of the extracted CD
Track | Start | Length | Start sector | End sector --------------------------------------------------------- 1 | 0:00.00 | 3:06.16 | 0 | 13965 2 | 3:06.16 | 3:03.37 | 13966 | 27727 3 | 6:09.53 | 2:32.74 | 27728 | 39201 4 | 8:42.52 | 0:38.73 | 39202 | 42124 5 | 9:21.50 | 3:16.56 | 42125 | 56880 6 | 12:38.31 | 4:02.33 | 56881 | 75063 7 | 16:40.64 | 0:22.56 | 75064 | 76769 8 | 17:03.45 | 2:50.43 | 76770 | 89562 9 | 19:54.13 | 2:24.07 | 89563 | 100369 10 | 22:18.20 | 5:32.41 | 100370 | 125310 11 | 27:50.61 | 1:07.55 | 125311 | 130390 12 | 28:58.41 | 1:08.71 | 130391 | 135561 13 | 30:07.37 | 2:58.48 | 135562 | 148959 14 | 33:06.10 | 1:44.30 | 148960 | 156789 15 | 34:50.40 | 0:16.70 | 156790 | 158059 16 | 35:07.35 | 3:24.67 | 158060 | 173426 17 | 38:32.27 | 0:58.18 | 173427 | 177794 18 | 39:30.45 | 3:02.63 | 177795 | 191507 19 | 42:33.33 | 0:58.51 | 191508 | 195908 20 | 43:32.09 | 3:56.74 | 195909 | 213682 21 | 47:29.08 | 1:44.46 | 213683 | 221528 22 | 49:13.54 | 4:04.57 | 221529 | 239885 23 | 53:18.36 | 2:44.31 | 239886 | 252216 24 | 56:02.67 | 0:44.41 | 252217 | 255557 25 | 56:47.33 | 3:59.73 | 255558 | 273555 26 | 60:47.31 | 0:57.37 | 273556 | 277867 27 | 61:44.68 | 4:01.33 | 277868 | 295975 28 | 65:46.26 | 0:42.45 | 295976 | 299170 29 | 66:28.71 | 2:27.02 | 299171 | 310197
Range status and errors
Selected range
Filename C:\Vivaldi - L'incoronazione di Dario - Ottavio Dantone (cd2).wav
Peak level 92.2 % Range quality 100.0 % Test CRC B452160C Copy CRC B452160C Copy OK
No errors occurred
End of status report

Отчёт EAC CD3

Exact Audio Copy V0.99 prebeta 5 from 4. May 2009
EAC extraction logfile from 25. June 2014, 18:24
Vivaldi / L'incoronazione di Dario - Ottavio Dantone (cd3)
Used drive : HL-DT-STDVDRAM GH24NS95 Adapter: 0 ID: 0
Read mode : SecureUtilize accurate stream : YesDefeat audio cache : YesMake use of C2 pointers : No
Read offset correction : 6Overread into Lead-In and Lead-Out : NoFill up missing offset samples with silence : YesDelete leading and trailing silent blocks : NoNull samples used in CRC calculations : YesUsed interface : Native Win32 interface for Win NT & 2000
Used output format : Internal WAV RoutinesSample format : 44.100 Hz; 16 Bit; Stereo
TOC of the extracted CD
Track | Start | Length | Start sector | End sector --------------------------------------------------------- 1 | 0:00.00 | 0:51.38 | 0 | 3862 2 | 0:51.38 | 1:56.14 | 3863 | 12576 3 | 2:47.52 | 3:19.16 | 12577 | 27517 4 | 6:06.68 | 1:24.70 | 27518 | 33887 5 | 7:31.63 | 5:23.46 | 33888 | 58158 6 | 12:55.34 | 2:20.36 | 58159 | 68694 7 | 15:15.70 | 2:33.65 | 68695 | 80234 8 | 17:49.60 | 1:42.50 | 80235 | 87934 9 | 19:32.35 | 2:42.37 | 87935 | 100121 10 | 22:14.72 | 0:36.57 | 100122 | 102878 11 | 22:51.54 | 2:44.30 | 102879 | 115208 12 | 25:36.09 | 3:05.20 | 115209 | 129103 13 | 28:41.29 | 0:32.14 | 129104 | 131517 14 | 29:13.43 | 2:26.00 | 131518 | 142467 15 | 31:39.43 | 1:08.51 | 142468 | 147618 16 | 32:48.19 | 3:51.23 | 147619 | 164966 17 | 36:39.42 | 2:36.62 | 164967 | 176728 18 | 39:16.29 | 1:58.17 | 176729 | 185595 19 | 41:14.46 | 1:43.18 | 185596 | 193338 20 | 42:57.64 | 0:52.39 | 193339 | 197277
Range status and errors
Selected range
Filename C:\Vivaldi - L'incoronazione di Dario - Ottavio Dantone (cd3).wav
Peak level 98.6 % Range quality 100.0 % Test CRC 124552BF Copy CRC 124552BF Copy OK
No errors occurred
End of status report



Показать сообщения:    

Текущее время: 04-Дек 19:22

Часовой пояс: UTC + 3


Вы не можете начинать темы
Вы не можете отвечать на сообщения
Вы не можете редактировать свои сообщения
Вы не можете удалять свои сообщения
Вы не можете голосовать в опросах
Вы не можете прикреплять файлы к сообщениям
Вы не можете скачивать файлы