(Opera) Handel - Tamerlano (Riccardo Minasi, Xavier Sabata, Max Emanuel Cencic) - 2014, APE (image+.cue) lossless


 

[Цитировать]

Handel - Tamerlano (Riccardo Minasi, Xavier Sabata, Max Emanuel Cencic)
Жанр: Opera
Страна-производитель диска: EU
Год издания диска: 2014
Издатель (лейбл): Naive
Номер по каталогу: V 5373
Дата записи: 2013
Аудиокодек: APE
Тип рипа: image+.cue
Битрейт аудио: lossless
Продолжительность: 62:50 (CD1), 61:49 (CD2), 68:35 (CD3)
Источник: собственный рип
Наличие сканов в содержимом раздачи: нет

Треклист

CD1
01.Ouverture
02. Allegro - Adagio
03. Menuet
04. Atto Primo. Scena 1 - Sinfonia/Resitativo (Andronico)
05. Scena 1 - Recitativo (Bajazet, Andronico)
06. Scena 1 - Aria (Bajazet)
07. Scena 2 - Recitativo (Andronico, Tamerlano)
08. Scena 2 - Aria (Tamerlano)
09. Scena 3 - Recitativo (Andronico)
10. Scena 3 - Aria (Andronico)
11. Scena 4 - Recitativo (Tamerlano, Asteria)
12. Scena 4 - Aria (Tamerlano)
13. Scena 5 - Recitativo (Asteria)
14. Scena 5 - Aria (Asteria)
15. Scena 6 - Recitativo (Bajazet, Andronico, Asteria)
16. Scena 6 - Aria (Bajazet)
17. Scena 7 - Recitativo (Andronico, Asteria)
18. Scena 7 - Aria (Asteria)
19. Scena 8 - Recitativo (Irene, Leone, Andronico)
20. Scena 8 - Aria (Irene)
21. Scena 9 - Recitativo (Andronico)
22. Scena 9 - Aria (Andronico)
CD2
01. Atto Secondo. Scena 1 - Recitativo (Tamerlano, Andronico)
02. Scena 1 - Aria (Tamerlano)
03. Scena 2 - Recitativo (Asteria, Andronico)
04. Scena 2 - Aria (Asteria)
05. Scena 3 - Recitativo accompagnato (Andronico)
06. Scena 3 - Aria (Andronico)
07. Scena 4 - Recitativo (Leone, Tamerlano, Irene)
08. Scena 5 - Recitativo (Asteria, Irene, Leone)
09. Scena 6 - Recitativo ( Irene, Leone)
10. Scena 6 - Aria (Irene)
11. Scena 6 - Recitativo (Leone)
12. Scena 6 - Aria (Leone)
13. Scena 7 - Recitativo (Bajazet, Andronico)
14. Scena 7 - Aria (Bajazet)
15. Scena 8 - Recitativo (Andronico)
16. Scena 8 - Aria (Andronico)
17. Scena 9 - Recitativo (Tamerlano, Asteria, Bajazet, Andronico)
18. Scena 10 - Recitativo (Irene, Asteria, Tamerlano, Bajazet, Andronico)
19. Scena 10 - Terzetto (Asteria, Tamerlano, Bajazet)
20. Scena 10 - Recitativo (Asteria)
21. Scena 10 - Arietta (Bajazet)
22. Scena 10 - Recitativo (Asteria)
23. Scena 10 - Arietta (Andronico)
24. Scena 10 - Recitativo (Asteria)
25. Scena 10 - Arietta (Irene)
26. Scena 10 - Recitativo (Asteria)
27. Scena 10 - Aria (Asteria)
CD3
01. Atto Terzo. Scena 1 - Recitativo (Bajazet, Asteria)
02. Scena 1 - Aria (Asteria)
03. Scena 2 - Recitativo (Tamerlano, Andronico, Asteria)
04. Scena 3 - Recitativo (Bajazet, Tamerlano, Andronico)
05. Scena 3 - Aria (Tamerlano)
06. Scena 4 - Recitativo (Bajazet, Asteria, Andronico)
07. Scena 5 - Recitativo (Andronico, Asteria, Leone)
08. Scena 5 - Duetto (Asteria, Andronico)
09. Scena 6 - Recitativo (Leone, Irene)
10. Scena 6 - Aria (Irene)
11. Scena 7 - Recitativo (Leone)
12. Scena 7 - Aria (Leone)
13. Scena 8 - Recitativo (Tamerlano, Bajazet, Andronico)
14. Scena 8 - Aria (Andronico)
15. Scena 9 - Recitativo (Asteria, Tamerlano, Andronico, Bajazet, Irene)
16. Scena 9 - Recitativo accompagnato (Astera)
17. Scena 9 - Arioso e recitativo (Asteria)
18. Scena 9 - Recitativo accompagnato (Bajazet)
19. Scena 9 - Aria (Bajazet)
20. Scena 9 - Recitativo (Irene, Tamerlano)
21. Scena 10 - Recitativo (Leone, Andronico, Tamerlano, Asteria)
22. Scena 11 - Recitativo (Bajazet)
23. Scena 11 - Recitativo accompagnato (Bajazet)
24. Scena 11 - Arioso (Bajazet)
25. Scena 11 - Recitativo accompagnato (Bajazet)
26. Scena Ultima - Recitativo (Asteria, Tamerlano, Andronico)
27. Scena Ultima - Coro (Irene, Andronico, Tamerlano, Leone)

Исполнители

Tamerlano - Xavier Sabata
Andronico - Max Emanuel Cenčić
Bajazet - John Mark Ainsley
Asteria - Karina Gauvin
Irene - Ruxandra Donose
Leone - Pavel Kudinov
Il Pomo d'Oro
Conductor - Riccardo Minasi

Лог создания рипаОтчёт EAC CD1

Exact Audio Copy V0.99 prebeta 5 from 4. May 2009
EAC extraction logfile from 25. June 2014, 15:56
Handel / Tamerlano - Riccardo Minasi (cd1)
Used drive : HL-DT-STDVDRAM GH24NS95 Adapter: 0 ID: 0
Read mode : SecureUtilize accurate stream : YesDefeat audio cache : YesMake use of C2 pointers : No
Read offset correction : 6Overread into Lead-In and Lead-Out : NoFill up missing offset samples with silence : YesDelete leading and trailing silent blocks : NoNull samples used in CRC calculations : YesUsed interface : Native Win32 interface for Win NT & 2000
Used output format : Internal WAV RoutinesSample format : 44.100 Hz; 16 Bit; Stereo
TOC of the extracted CD
Track | Start | Length | Start sector | End sector --------------------------------------------------------- 1 | 0:00.00 | 1:39.43 | 0 | 7467 2 | 1:39.43 | 1:54.43 | 7468 | 16060 3 | 3:34.11 | 1:25.06 | 16061 | 22441 4 | 4:59.17 | 2:01.17 | 22442 | 31533 5 | 7:00.34 | 2:18.48 | 31534 | 41931 6 | 9:19.07 | 3:56.24 | 41932 | 59655 7 | 13:15.31 | 2:00.07 | 59656 | 68662 8 | 15:15.38 | 4:46.40 | 68663 | 90152 9 | 20:02.03 | 0:25.70 | 90153 | 92097 10 | 20:27.73 | 5:39.23 | 92098 | 117545 11 | 26:07.21 | 1:17.61 | 117546 | 123381 12 | 27:25.07 | 4:01.00 | 123382 | 141456 13 | 31:26.07 | 0:23.64 | 141457 | 143245 14 | 31:49.71 | 5:49.28 | 143246 | 169448 15 | 37:39.24 | 2:30.13 | 169449 | 180711 16 | 40:09.37 | 3:29.45 | 180712 | 196431 17 | 43:39.07 | 0:58.25 | 196432 | 200806 18 | 44:37.32 | 6:09.47 | 200807 | 228528 19 | 50:47.04 | 1:54.63 | 228529 | 237141 20 | 52:41.67 | 3:11.27 | 237142 | 251493 21 | 55:53.19 | 1:12.36 | 251494 | 256929 22 | 57:05.55 | 5:43.61 | 256930 | 282715
Range status and errors
Selected range
Filename C:\Handel - Tamerlano - Riccardo Minasi (cd1).wav
Peak level 95.8 % Range quality 100.0 % Test CRC 56198B54 Copy CRC 56198B54 Copy OK
No errors occurred
End of status report

Отчёт EAC CD2

Exact Audio Copy V0.99 prebeta 5 from 4. May 2009
EAC extraction logfile from 25. June 2014, 16:30
Handel / Tamerlano - Riccardo Minasi (cd2)
Used drive : HL-DT-STDVDRAM GH24NS95 Adapter: 0 ID: 0
Read mode : SecureUtilize accurate stream : YesDefeat audio cache : YesMake use of C2 pointers : No
Read offset correction : 6Overread into Lead-In and Lead-Out : NoFill up missing offset samples with silence : YesDelete leading and trailing silent blocks : NoNull samples used in CRC calculations : YesUsed interface : Native Win32 interface for Win NT & 2000
Used output format : Internal WAV RoutinesSample format : 44.100 Hz; 16 Bit; Stereo
TOC of the extracted CD
Track | Start | Length | Start sector | End sector --------------------------------------------------------- 1 | 0:00.00 | 1:11.03 | 0 | 5327 2 | 1:11.03 | 4:48.59 | 5328 | 26986 3 | 5:59.62 | 1:34.13 | 26987 | 34049 4 | 7:34.00 | 2:32.17 | 34050 | 45466 5 | 10:06.17 | 0:56.17 | 45467 | 49683 6 | 11:02.34 | 5:31.55 | 49684 | 74563 7 | 16:34.14 | 1:19.22 | 74564 | 80510 8 | 17:53.36 | 0:37.12 | 80511 | 83297 9 | 18:30.48 | 0:32.28 | 83298 | 85725 10 | 19:03.01 | 5:54.48 | 85726 | 112323 11 | 24:57.49 | 0:26.24 | 112324 | 114297 12 | 25:23.73 | 4:05.23 | 114298 | 132695 13 | 29:29.21 | 1:09.45 | 132696 | 137915 14 | 30:38.66 | 6:36.34 | 137916 | 167649 15 | 37:15.25 | 0:21.48 | 167650 | 169272 16 | 37:36.73 | 3:27.73 | 169273 | 184870 17 | 41:04.71 | 4:36.72 | 184871 | 205642 18 | 45:41.68 | 5:30.66 | 205643 | 230458 19 | 51:12.59 | 1:21.66 | 230459 | 236599 20 | 52:34.50 | 0:05.27 | 236600 | 237001 21 | 52:40.02 | 1:31.59 | 237002 | 243885 22 | 54:11.61 | 0:07.01 | 243886 | 244411 23 | 54:18.62 | 1:02.02 | 244412 | 249063 24 | 55:20.64 | 0:06.71 | 249064 | 249584 25 | 55:27.60 | 1:02.64 | 249585 | 254298 26 | 56:30.49 | 0:23.22 | 254299 | 256045 27 | 56:53.71 | 4:54.56 | 256046 | 278151
Range status and errors
Selected range
Filename C:\Handel - Tamerlano - Riccardo Minasi (cd2).wav
Peak level 95.9 % Range quality 100.0 % Test CRC C232C8E2 Copy CRC C232C8E2 Copy OK
No errors occurred
End of status report

Отчёт EAC CD3

Exact Audio Copy V0.99 prebeta 5 from 4. May 2009
EAC extraction logfile from 25. June 2014, 17:02
Handel / Tamerlano - Riccardo Minasi (cd3)
Used drive : HL-DT-STDVDRAM GH24NS95 Adapter: 0 ID: 0
Read mode : SecureUtilize accurate stream : YesDefeat audio cache : YesMake use of C2 pointers : No
Read offset correction : 6Overread into Lead-In and Lead-Out : NoFill up missing offset samples with silence : YesDelete leading and trailing silent blocks : NoNull samples used in CRC calculations : YesUsed interface : Native Win32 interface for Win NT & 2000
Used output format : Internal WAV RoutinesSample format : 44.100 Hz; 16 Bit; Stereo
TOC of the extracted CD
Track | Start | Length | Start sector | End sector --------------------------------------------------------- 1 | 0:00.00 | 2:47.45 | 0 | 12569 2 | 2:47.45 | 9:20.17 | 12570 | 54586 3 | 12:07.62 | 2:47.41 | 54587 | 67152 4 | 14:55.28 | 1:16.05 | 67153 | 72857 5 | 16:11.33 | 4:22.70 | 72858 | 92577 6 | 20:34.28 | 1:11.21 | 92578 | 97923 7 | 21:45.49 | 0:34.60 | 97924 | 100533 8 | 22:20.34 | 6:41.59 | 100534 | 130667 9 | 29:02.18 | 0:50.02 | 130668 | 134419 10 | 29:52.20 | 2:56.38 | 134420 | 147657 11 | 32:48.58 | 0:43.38 | 147658 | 150920 12 | 33:32.21 | 4:58.08 | 150921 | 173278 13 | 38:30.29 | 1:37.62 | 173279 | 180615 14 | 40:08.16 | 2:32.40 | 180616 | 192055 15 | 42:40.56 | 3:04.00 | 192056 | 205855 16 | 45:44.56 | 0:46.44 | 205856 | 209349 17 | 46:31.25 | 2:57.13 | 209350 | 222637 18 | 49:28.38 | 0:30.39 | 222638 | 224926 19 | 49:59.02 | 3:56.46 | 224927 | 242672 20 | 53:55.48 | 0:42.36 | 242673 | 245858 21 | 54:38.09 | 1:13.54 | 245859 | 251387 22 | 55:51.63 | 0:56.20 | 251388 | 255607 23 | 56:48.08 | 2:46.44 | 255608 | 268101 24 | 59:34.52 | 1:48.36 | 268102 | 276237 25 | 61:23.13 | 3:06.72 | 276238 | 290259 26 | 64:30.10 | 1:07.04 | 290260 | 295288 27 | 65:37.14 | 2:57.67 | 295289 | 308630
Range status and errors
Selected range
Filename C:\Handel - Tamerlano - Riccardo Minasi (cd3).wav
Peak level 96.4 % Range quality 100.0 % Test CRC 7BAE503D Copy CRC 7BAE503D Copy OK
No errors occurred
End of status report



Показать сообщения:    

Текущее время: 10-Дек 13:53

Часовой пояс: UTC + 3


Вы не можете начинать темы
Вы не можете отвечать на сообщения
Вы не можете редактировать свои сообщения
Вы не можете удалять свои сообщения
Вы не можете голосовать в опросах
Вы не можете прикреплять файлы к сообщениям
Вы не можете скачивать файлы