(classical, easy listening, easy baroque) VA - Opera Moderna - 2001, FLAC (image+.cue) lossless


 

[Цитировать]

V.A. - Opera Moderna - 2001
Жанр: classical, easy listening, easy baroque
Носитель: CD
Страна-производитель диска: Germany
Год первого выпуска:
Год настоящего издания:
Издатель (лейбл): BMG Ariola...
Номер по каталогу: VA 1231
Format: CD, Compilation
Аудиокодек: FLAC (*.flac)
Тип рипа: image+.cue
Битрейт аудио: lossless
Продолжительность: 01:15:51
Источник (релизер): CD
Наличие сканов в содержимом раздачи: да
Треклист:
01. Enya - May It Be (4:17)
02. Charlotte Church - The Flover Duet (3:57)
03. Rebecca Semprau - Io Son L'umile Ancella (4:05)
04. Emma Shapplin - Canto XXX (5:11)
05. Julia Bonilla - Un Bel Di (4:42)
06. Sarah Brightman - Anytime, Anywhere (3:20)
07. Charlotte Church & Josh Groban - The Prayer (4:25)
08. Enya - The Council of Elrond (3:49)
09. Cecilia Bartoli - Domine Deus, Rex Caelestis (4:18)
10. Emma Shapplin - The Fifth Heaven (4:52)
11. Sewell Griffith - O Mio Babbino Caro (4:23)
12. Angelica - O Soave Fanciulla (3:00)
13. Charlotte Church - Carrickfergus (4:28)
14. O'Stravaganza - Berceuse De Grainne Pour Diarmait (05:10)
15. Cecilia Bartoli - Panis Angelicus (4:19)
16. Sarah Brightman - Ave Maria (3:01)
17. Emma Shapplin - The Inferno (4:31)

Лог создания рипа

Exact Audio Copy V1.0 beta 3 from 29. August 2011
EAC extraction logfile from 24. July 2015, 17:40
Various / Opera Moderna
Used drive : Optiarc DVD RW AD-7240S Adapter: 3 ID: 0
Read mode : SecureUtilize accurate stream : YesDefeat audio cache : YesMake use of C2 pointers : No
Read offset correction : 48Overread into Lead-In and Lead-Out : NoFill up missing offset samples with silence : YesDelete leading and trailing silent blocks : NoNull samples used in CRC calculations : YesUsed interface : Native Win32 interface for Win NT & 2000
Used output format : User Defined EncoderSelected bitrate : 1024 kBit/sQuality : HighAdd ID3 tag : NoCommand line compressor : C:\Program Files (x86)\Exact Audio Copy\FLAC\FLAC.EXEAdditional command line options : -10 -V -T "ARTIST=%artist%" -T "ALBUM=%albumtitle%" -T "DATE=%year%" -T "GENRE=%genre%" -T "COMMENT=ripped by oparin1954" %source%
TOC of the extracted CD
Track | Start | Length | Start sector | End sector --------------------------------------------------------- 1 | 0:00.00 | 4:17.57 | 0 | 19331 2 | 4:17.57 | 3:57.00 | 19332 | 37106 3 | 8:14.57 | 4:05.33 | 37107 | 55514 4 | 12:20.15 | 5:11.45 | 55515 | 78884 5 | 17:31.60 | 4:41.62 | 78885 | 100021 6 | 22:13.47 | 3:19.59 | 100022 | 115005 7 | 25:33.31 | 4:25.04 | 115006 | 134884 8 | 29:58.35 | 3:49.08 | 134885 | 152067 9 | 33:47.43 | 4:18.00 | 152068 | 171417 10 | 38:05.43 | 4:53.20 | 171418 | 193412 11 | 42:58.63 | 4:23.36 | 193413 | 213173 12 | 47:22.24 | 3:00.28 | 213174 | 226701 13 | 50:22.52 | 4:27.60 | 226702 | 246786 14 | 54:50.37 | 5:09.70 | 246787 | 270031 15 | 60:00.32 | 4:19.00 | 270032 | 289456 16 | 64:19.32 | 3:00.51 | 289457 | 303007 17 | 67:20.08 | 4:31.20 | 303008 | 323352
Range status and errors
Selected range
Filename C:\Users\user\Desktop\V.A. - Opera Moderna - 2001\Various - Opera Moderna.wav
Peak level 100.0 % Extraction speed 4.4 X Range quality 99.9 % Test CRC 4E3B136F Copy CRC 4E3B136F Copy OK
No errors occurred
End of status report
---- CUETools DB Plugin V2.1.3
[CTDB TOCID: wqk89MxriCy_OjtUF7_tE98j5Mw-] disk not present in database, Submit result: wqk89MxriCy_OjtUF7_tE98j5Mw- has been uploaded
==== Log checksum 6B743F720F091CA4607D1DF23099467D3FF52F59985C1222572D6EF19BB13D84 ====

Содержание индексной карты (.CUE)

REM GENRE ClassicalREM DATE 2001REM DISCID DF10D711REM COMMENT "ExactAudioCopy v1.0b3"CATALOG 0000000000000PERFORMER "Various"TITLE "Opera Moderna"FILE "Various - Opera Moderna.flac" WAVE TRACK 01 AUDIO TITLE "Enya - May It Be" PERFORMER "Various" INDEX 01 00:00:00 TRACK 02 AUDIO TITLE "Charlotte Church - The Flover Duet" PERFORMER "Various" INDEX 01 04:17:57 TRACK 03 AUDIO TITLE "Rebecca Semprau - Io Son L'umile Ancella" PERFORMER "Various" INDEX 01 08:14:57 TRACK 04 AUDIO TITLE "Emma Shapplin - Canto XXX" PERFORMER "Various" INDEX 01 12:20:15 TRACK 05 AUDIO TITLE "Julia Bonilla - Un Bel Di" PERFORMER "Various" INDEX 01 17:31:60 TRACK 06 AUDIO TITLE "Sarah Brightman - Anytime, Anywhere" PERFORMER "Various" INDEX 01 22:13:47 TRACK 07 AUDIO TITLE "Charlotte Church & Josh Groban - The Prayer" PERFORMER "Various" INDEX 01 25:33:31 TRACK 08 AUDIO TITLE "Enya - The Council of Elrond" PERFORMER "Various" INDEX 01 29:58:35 TRACK 09 AUDIO TITLE "Cecilia Bartoli - Domine Deus, Rex Caelestis" PERFORMER "Various" INDEX 01 33:47:43 TRACK 10 AUDIO TITLE "Emma Shapplin - The Fifth Heaven" PERFORMER "Various" INDEX 01 38:05:43 TRACK 11 AUDIO TITLE "Sewell Griffith - O Mio Babbino Caro" PERFORMER "Various" INDEX 01 42:58:63 TRACK 12 AUDIO TITLE "Angelica - O Soave Fanciulla" PERFORMER "Various" INDEX 01 47:22:24 TRACK 13 AUDIO TITLE "Charlotte Church - Carrickfergus" PERFORMER "Various" INDEX 01 50:22:52 TRACK 14 AUDIO TITLE "O'Stravaganza - Berceuse De Grainne Pour Diarmait" PERFORMER "Various" INDEX 01 54:50:37 TRACK 15 AUDIO TITLE "Cecilia Bartoli - Panis Angelicus" PERFORMER "Various" INDEX 01 60:00:32 TRACK 16 AUDIO TITLE "Sarah Brightman - Ave Maria" PERFORMER "Various" INDEX 01 64:19:32 TRACK 17 AUDIO TITLE "Emma Shapplin - The Inferno" PERFORMER "Various" INDEX 01 67:20:08

Лог проверки качества

PERFORMER: auCDtect Task Manager, ver. 1.6.0 RC1 build 1.6.0.1Copyright (c) 2008-2010 y-soft. All rights reservedhttp://y-soft.org
ANALYZER: auCDtect: CD records authenticity detector, version 0.8.2Copyright (c) 2004 Oleg Berngardt. All rights reserved.Copyright (c) 2004 Alexander Djourik. All rights reserved.
FILE: Various - Opera Moderna.flac Size: 451475322 Hash: 7D33DAB8BD627D7D99174D0A861AAE6E Accuracy: -m0 Conclusion: CDDA 100% Signature: D7F8DE235A0A2AA4674CB4168B032615433A96DA



Показать сообщения:    

Текущее время: 06-Дек 17:11

Часовой пояс: UTC + 3


Вы не можете начинать темы
Вы не можете отвечать на сообщения
Вы не можете редактировать свои сообщения
Вы не можете удалять свои сообщения
Вы не можете голосовать в опросах
Вы не можете прикреплять файлы к сообщениям
Вы не можете скачивать файлы