(Operatic Pop) Amaury Vassili - Una Parte Di Me - 2012, FLAC (image+.cue) lossless


 

[Цитировать]

Amaury Vassili / Una Parte Di Me
Жанр: Operatic Pop
Страна-производитель диска: France
Год издания диска: 2012
Номер по каталогу: 2564655002
Аудиокодек: FLAC
Тип рипа: image+.cue
Битрейт аудио: lossless
Продолжительность: 49:28
Источник: собственный рип
Наличие сканов в содержимом раздачи: нет
Треклист:
01. Pensiero Mio
02. Il Silenzi Tra Noi
03. Con Te
04. Credimi
05. Una Parte Di Me
06. Siamo Il Futuro Noi
07. La Guerra
08. Amici Noi
09. Il Lago Dei Cigni
10. Sogno D'Autunno
11. Insieme A Lei
12. Chiaro Di Luna
13. Tous Ensemble Pour Demain (Nous On Rкve)

Лог создания рипа

Exact Audio Copy V1.0 beta 4 from 7. December 2014
EAC extraction logfile from 4. July 2015, 13:07
Amaury Vassili / Una Parte Di Me
Used drive : ASUS SDRW-0806T-D Adapter: 1 ID: 1
Read mode : SecureUtilize accurate stream : YesDefeat audio cache : YesMake use of C2 pointers : No
Read offset correction : 704Overread into Lead-In and Lead-Out : NoFill up missing offset samples with silence : YesDelete leading and trailing silent blocks : NoNull samples used in CRC calculations : YesUsed interface : Native Win32 interface for Win NT & 2000
Used output format : Internal WAV RoutinesSample format : 44.100 Hz; 16 Bit; Stereo
TOC of the extracted CD
Track | Start | Length | Start sector | End sector --------------------------------------------------------- 1 | 0:00.00 | 3:43.27 | 0 | 16751 2 | 3:43.27 | 3:56.27 | 16752 | 34478 3 | 7:39.54 | 4:01.51 | 34479 | 52604 4 | 11:41.30 | 3:14.68 | 52605 | 67222 5 | 14:56.23 | 3:32.34 | 67223 | 83156 6 | 18:28.57 | 4:24.14 | 83157 | 102970 7 | 22:52.71 | 3:59.17 | 102971 | 120912 8 | 26:52.13 | 4:02.67 | 120913 | 139129 9 | 30:55.05 | 3:26.21 | 139130 | 154600 10 | 34:21.26 | 3:39.68 | 154601 | 171093 11 | 38:01.19 | 3:12.23 | 171094 | 185516 12 | 41:13.42 | 3:51.29 | 185517 | 202870 13 | 45:04.71 | 4:22.45 | 202871 | 222565
Range status and errors
Selected range
Filename D:\Air Supply - Lossless Discography\[2012] Amaury Vassili - Una Parte Di Me [2564655002]\Amaury Vassili - Una Parte Di Me.wav
Peak level 99.1 % Extraction speed 6.5 X Range quality 100.0 % Copy CRC 3B10C146 Copy OK
No errors occurred
AccurateRip summary
Track 1 accurately ripped (confidence 2) [4A6B492B] (AR v2)Track 2 accurately ripped (confidence 2) [CEA93500] (AR v2)Track 3 accurately ripped (confidence 2) [D65B2B3C] (AR v2)Track 4 accurately ripped (confidence 2) [5DD08A20] (AR v2)Track 5 accurately ripped (confidence 2) [4577E92C] (AR v2)Track 6 accurately ripped (confidence 2) [E59046DB] (AR v2)Track 7 accurately ripped (confidence 2) [E5A06049] (AR v2)Track 8 accurately ripped (confidence 2) [F76CD7B1] (AR v2)Track 9 accurately ripped (confidence 2) [BC5D515F] (AR v2)Track 10 accurately ripped (confidence 2) [7B0A09B6] (AR v2)Track 11 accurately ripped (confidence 2) [892EF21A] (AR v2)Track 12 accurately ripped (confidence 2) [9CFBFF2E] (AR v2)Track 13 accurately ripped (confidence 2) [2351C25E] (AR v2)
All tracks accurately ripped
End of status report
==== Log checksum FD72FDAE6CB04B2B507F624F4194969ED36FF0728690BCE5FFCCC4913767D7BF ====

Содержание индексной карты (.CUE)

REM GENRE "Classical Crossover"REM DATE 2012REM DISCID A70B970DREM COMMENT "ExactAudioCopy v1.0b4"PERFORMER "Amaury Vassili"TITLE "Una Parte Di Me"FILE "Amaury Vassili - Una Parte Di Me.wav" WAVE TRACK 01 AUDIO TITLE "Pensiero Mio" PERFORMER " " INDEX 01 00:00:00 TRACK 02 AUDIO TITLE "Il Silenzi Tra Noi" PERFORMER " " INDEX 00 03:41:39 INDEX 01 03:43:27 TRACK 03 AUDIO TITLE "Con Te" PERFORMER " " INDEX 01 07:39:54 TRACK 04 AUDIO TITLE "Credimi" PERFORMER " " INDEX 00 11:39:50 INDEX 01 11:41:30 TRACK 05 AUDIO TITLE "Una Parte Di Me" PERFORMER " " INDEX 00 14:54:39 INDEX 01 14:56:23 TRACK 06 AUDIO TITLE "Siamo Il Futuro Noi" PERFORMER " " INDEX 00 18:27:57 INDEX 01 18:28:57 TRACK 07 AUDIO TITLE "La Guerra" PERFORMER " " INDEX 00 22:51:12 INDEX 01 22:52:71 TRACK 08 AUDIO TITLE "Amici Noi" PERFORMER " " INDEX 00 26:50:36 INDEX 01 26:52:13 TRACK 09 AUDIO TITLE "Il Lago Dei Cigni" PERFORMER " " INDEX 00 30:54:05 INDEX 01 30:55:05 TRACK 10 AUDIO TITLE "Sogno D'Autunno" PERFORMER " " INDEX 00 34:20:26 INDEX 01 34:21:26 TRACK 11 AUDIO TITLE "Insieme A Lei" PERFORMER " " INDEX 00 38:00:19 INDEX 01 38:01:19 TRACK 12 AUDIO TITLE "Chiaro Di Luna" PERFORMER " " INDEX 00 41:11:55 INDEX 01 41:13:42 TRACK 13 AUDIO TITLE "Tous Ensemble Pour Demain (Nous On Rкve)" PERFORMER " " INDEX 00 45:03:71 INDEX 01 45:04:71



Показать сообщения:    

Текущее время: 04-Дек 02:52

Часовой пояс: UTC + 3


Вы не можете начинать темы
Вы не можете отвечать на сообщения
Вы не можете редактировать свои сообщения
Вы не можете удалять свои сообщения
Вы не можете голосовать в опросах
Вы не можете прикреплять файлы к сообщениям
Вы не можете скачивать файлы