(Operate Pop) Paul Potts - Passione - 2009, FLAC (image+.cue), lossless


 

[Цитировать]

Paul Potts / Passione
Жанр: Operate Pop
Страна-производитель диска (релиза): UK
Год издания: 2009
Издатель (лейбл): SYCO Music, Sony Music
Номер по каталогу: 88697474392
Страна исполнителя (группы): UK
Аудиокодек: FLAC (*.flac)
Тип рипа: image+.cue
Битрейт аудио: lossless
Продолжительность: 37:56
Источник: собственный рип
Наличие сканов в содержимом раздачи: нет
Треклист:
01. La Prima Volta (First Time Ever I Saw Your Face)
02. Sei Con Me (There For Me) [Duet With Hayley Westenra]
03. Un Giorno Per Noi (A Time For Us)
04. Il Canto
05. Senza Luce (A Whiter Shade Of Pale)
06. Piano (Memory)
07. Mamma
08. Tristesse
09. Bellamore
10. E Lucevan Le Stelle

Лог создания рипа

Exact Audio Copy V1.0 beta 4 from 7. December 2014
EAC extraction logfile from 4. July 2015, 13:22
Paul Potts / Passione
Used drive : ASUS SDRW-0806T-D Adapter: 1 ID: 1
Read mode : SecureUtilize accurate stream : YesDefeat audio cache : YesMake use of C2 pointers : No
Read offset correction : 704Overread into Lead-In and Lead-Out : NoFill up missing offset samples with silence : YesDelete leading and trailing silent blocks : NoNull samples used in CRC calculations : YesUsed interface : Native Win32 interface for Win NT & 2000
Used output format : Internal WAV RoutinesSample format : 44.100 Hz; 16 Bit; Stereo
TOC of the extracted CD
Track | Start | Length | Start sector | End sector --------------------------------------------------------- 1 | 0:00.00 | 4:04.15 | 0 | 18314 2 | 4:04.15 | 3:56.64 | 18315 | 36078 3 | 8:01.04 | 3:40.51 | 36079 | 52629 4 | 11:41.55 | 3:32.33 | 52630 | 68562 5 | 15:14.13 | 3:53.38 | 68563 | 86075 6 | 19:07.51 | 4:14.05 | 86076 | 105130 7 | 23:21.56 | 3:51.43 | 105131 | 122498 8 | 27:13.24 | 3:26.19 | 122499 | 137967 9 | 30:39.43 | 4:05.19 | 137968 | 156361 10 | 34:44.62 | 3:11.30 | 156362 | 170716
Range status and errors
Selected range
Filename D:\Air Supply - Lossless Discography\[2009] Paul Potts - Passione [88697474392]\Paul Potts - Passione.wav
Peak level 100.0 % Extraction speed 6.1 X Range quality 99.9 % Copy CRC E1FB4D7E Copy OK
No errors occurred
AccurateRip summary
Track 1 cannot be verified as accurate (confidence 27) [2060245A], AccurateRip returned [1FB4ED28] (AR v2)Track 2 cannot be verified as accurate (confidence 27) [F798F909], AccurateRip returned [30251518] (AR v2)Track 3 cannot be verified as accurate (confidence 27) [DB2B0155], AccurateRip returned [C40386F4] (AR v2)Track 4 cannot be verified as accurate (confidence 27) [81F4C000], AccurateRip returned [3DD22321] (AR v2)Track 5 cannot be verified as accurate (confidence 26) [526BAEFA], AccurateRip returned [943D119C] (AR v2)Track 6 cannot be verified as accurate (confidence 27) [8F591B15], AccurateRip returned [2EEC2D0A] (AR v2)Track 7 cannot be verified as accurate (confidence 27) [973D296B], AccurateRip returned [3C9D0432] (AR v2)Track 8 cannot be verified as accurate (confidence 27) [880E7ECE], AccurateRip returned [2243E2D6] (AR v2)Track 9 cannot be verified as accurate (confidence 27) [97822B93], AccurateRip returned [3BE70BC9] (AR v2)Track 10 cannot be verified as accurate (confidence 27) [1DFC0B3C], AccurateRip returned [88E0EA7E] (AR v2)
No tracks could be verified as accurateYou may have a different pressing from the one(s) in the database
End of status report
==== Log checksum 1AC49C7CAFAADC11B4A743CE6A8BB3497049237EDBD47451D059B34D8048990A ====

Содержание индексной карты (.CUE)

REM GENRE "Classical Crossover"REM DATE 2009REM DISCID 7B08E40AREM COMMENT "ExactAudioCopy v1.0b4"PERFORMER "Paul Potts"TITLE "Passione"FILE "Paul Potts - Passione.wav" WAVE TRACK 01 AUDIO TITLE "La Prima Volta (First Time Ever I Saw Your Face)" PERFORMER "Paul Potts" INDEX 01 00:00:00 TRACK 02 AUDIO TITLE "Sei Con Me (There For Me) [Duet With Hayley Westenra]" PERFORMER "Paul Potts" INDEX 00 04:02:13 INDEX 01 04:04:15 TRACK 03 AUDIO TITLE "Un Giorno Per Noi (A Time For Us)" PERFORMER "Paul Potts" INDEX 00 07:57:74 INDEX 01 08:01:04 TRACK 04 AUDIO TITLE "Il Canto" PERFORMER "Paul Potts" INDEX 00 11:40:41 INDEX 01 11:41:55 TRACK 05 AUDIO TITLE "Senza Luce (A Whiter Shade Of Pale)" PERFORMER "Paul Potts" INDEX 00 15:11:52 INDEX 01 15:14:13 TRACK 06 AUDIO TITLE "Piano (Memory)" PERFORMER "Paul Potts" INDEX 00 19:05:29 INDEX 01 19:07:51 TRACK 07 AUDIO TITLE "Mamma" PERFORMER "Paul Potts" INDEX 00 23:19:57 INDEX 01 23:21:56 TRACK 08 AUDIO TITLE "Tristesse" PERFORMER "Paul Potts" INDEX 00 27:10:52 INDEX 01 27:13:24 TRACK 09 AUDIO TITLE "Bellamore" PERFORMER "Paul Potts" INDEX 00 30:37:13 INDEX 01 30:39:43 TRACK 10 AUDIO TITLE "E Lucevan Le Stelle" PERFORMER "Paul Potts" FLAGS DCP INDEX 00 34:42:74 INDEX 01 34:44:62



Показать сообщения:    

Текущее время: 04-Дек 13:15

Часовой пояс: UTC + 3


Вы не можете начинать темы
Вы не можете отвечать на сообщения
Вы не можете редактировать свои сообщения
Вы не можете удалять свои сообщения
Вы не можете голосовать в опросах
Вы не можете прикреплять файлы к сообщениям
Вы не можете скачивать файлы