(Classical, Orchestral) Royal Philharmonic Orchestra London - Rock Dreams, CD 4, I Will Always Love You - 1993, FLAC (tracks+.cue) lossless


 

[Цитировать]

Royal Philharmonic Orchestra London
Rock Dreams, CD 4, I Will Always Love You
Жанр: Classical, Orchestral
Страна-производитель диска: EU
Год издания диска: 1993
Издатель (лейбл): Angel Recordings
Номер по каталогу: 333604
Дата записи: 1992/1993
Аудиокодек: FLAC
Тип рипа: tracks+.cue
Битрейт аудио: lossless
Продолжительность: 00:52:49
Источник: собственный рип
Наличие сканов в содержимом раздачи: да

.
.
Треклист:
01. Up Where We Belong.
02. I Just Called To Say I Love You.
03. It Must Have Been Love.
04. Tara's Theme.
05. Blue Velvet.
06. When I Fall In Love.
07. Any Dream Will Do.
08. When A Man Loves Woman.
09. I Will Always Love You.
10. Love Changes Everything.
11. Some Enchanted Evening.
12. People.
13. Hopelessly Devoted To You.
14. Everything I Do.

Исполнители:

Главные дирижёры Королевского филармонического оркестра:
Томас Бичем (1946—1961) • Рудольф Кемпе (1961—1975) • Антал Дорати (1975—1978) •
Вальтер Веллер (1980—1985) • Андре Превин (1985—1992) • Владимир Ашкенази (1987—1994) •
Юрий Темирканов (1992—1998) • Даниэле Гатти (1996-2009) • Шарль Дютуа (с 2009) •

Лог создания рипа

Exact Audio Copy V1.0 beta 3 from 29. August 2011
Отчёт EAC об извлечении, выполненном 6. июля 2015, 22:09
Royal Philharmonic Orchestra London / I Will Always Love You - Rock Dreams CD 4
Дисковод: TEAC DV-W518GM Adapter: 5 ID: 0
Режим чтения : ДостоверностьИспользование точного потока : ДаОтключение кэша аудио : ДаИспользование указателей C2 : Нет
Коррекция смещения при чтении : 6Способность читать области Lead-in и Lead-out : НетЗаполнение пропущенных сэмплов тишиной : ДаУдаление блоков с тишиной в начале и конце : НетПри вычислениях CRC использовались нулевые сэмплы : ДаИнтерфейс : Установленный внешний ASPI-интерфейсОбработка зазоров : Добавлено к предыдущему треку
Выходной формат : Пользовательский кодировщикВыбранный битрейт : 128 kBit/sКачество : ВысокийДобавление ID3-тега : НетУтилита сжатия : C:\Program Files\Exact Audio Copy\Flac\flac.exeДополнительные параметры : -V -8 -T "Genre=%genre%" -T "Artist=%artist%" -T "Title=%title%" -T "Album=%albumtitle%" -T "Date=%year%" -T "Tracknumber=%tracknr%" -T "Comment=%comment%" %source%
TOC извлечённого CD
Трек | Старт | Длительность | Начальный сектор | Конечный сектор --------------------------------------------------------------------- 1 | 0:00.00 | 4:08.30 | 0 | 18629 2 | 4:08.30 | 3:45.55 | 18630 | 35559 3 | 7:54.10 | 4:02.00 | 35560 | 53709 4 | 11:56.10 | 3:50.25 | 53710 | 70984 5 | 15:46.35 | 2:06.70 | 70985 | 80504 6 | 17:53.30 | 3:04.55 | 80505 | 94359 7 | 20:58.10 | 2:41.70 | 94360 | 106504 8 | 23:40.05 | 3:44.65 | 106505 | 123369 9 | 27:24.70 | 4:45.35 | 123370 | 144779 10 | 32:10.30 | 3:18.55 | 144780 | 159684 11 | 35:29.10 | 3:05.25 | 159685 | 173584 12 | 38:34.35 | 3:56.00 | 173585 | 191284 13 | 42:30.35 | 2:48.50 | 191285 | 203934 14 | 45:19.10 | 5:25.17 | 203935 | 228326
Трек 1
Имя файла I:\MOI_RAZDACI\Royal Philharmonic Orchestra London\Royal.Philharmonic.Orchestra_Rock.Dreams_4_1993\01 Up Where We Belong.wav
Длина предзазора 0:00:02.00
Пиковый уровень 87.6 % Скорость извлечения 1.8 X Качество трека 100.0 % CRC теста 1A967EBD CRC копии 1A967EBD Копирование... OK
Трек 2
Имя файла I:\MOI_RAZDACI\Royal Philharmonic Orchestra London\Royal.Philharmonic.Orchestra_Rock.Dreams_4_1993\02 I Just Called To Say I Love You.wav
Длина предзазора 0:00:01.60
Пиковый уровень 95.9 % Скорость извлечения 1.7 X Качество трека 99.9 % CRC теста 6E085E0D CRC копии 6E085E0D Копирование... OK
Трек 3
Имя файла I:\MOI_RAZDACI\Royal Philharmonic Orchestra London\Royal.Philharmonic.Orchestra_Rock.Dreams_4_1993\03 It Must Have Been Love.wav
Длина предзазора 0:00:01.00
Пиковый уровень 91.8 % Скорость извлечения 1.9 X Качество трека 99.9 % CRC теста 2B4BD63E CRC копии 2B4BD63E Копирование... OK
Трек 4
Имя файла I:\MOI_RAZDACI\Royal Philharmonic Orchestra London\Royal.Philharmonic.Orchestra_Rock.Dreams_4_1993\04 Tara's Theme.wav
Длина предзазора 0:00:01.00
Пиковый уровень 66.5 % Скорость извлечения 2.3 X Качество трека 100.0 % CRC теста C8328876 CRC копии C8328876 Копирование... OK
Трек 5
Имя файла I:\MOI_RAZDACI\Royal Philharmonic Orchestra London\Royal.Philharmonic.Orchestra_Rock.Dreams_4_1993\05 Blue Velvet.wav
Длина предзазора 0:00:01.40
Пиковый уровень 54.7 % Скорость извлечения 2.2 X Качество трека 100.0 % CRC теста E7097E89 CRC копии E7097E89 Копирование... OK
Трек 6
Имя файла I:\MOI_RAZDACI\Royal Philharmonic Orchestra London\Royal.Philharmonic.Orchestra_Rock.Dreams_4_1993\06 When I Fall In Love.wav
Длина предзазора 0:00:01.38
Пиковый уровень 70.6 % Скорость извлечения 2.5 X Качество трека 100.0 % CRC теста 609852CF CRC копии 609852CF Копирование... OK
Трек 7
Имя файла I:\MOI_RAZDACI\Royal Philharmonic Orchestra London\Royal.Philharmonic.Orchestra_Rock.Dreams_4_1993\07 Any Dream Will Do.wav
Длина предзазора 0:00:02.00
Пиковый уровень 77.9 % Скорость извлечения 2.5 X Качество трека 100.0 % CRC теста D38ED8B4 CRC копии D38ED8B4 Копирование... OK
Трек 8
Имя файла I:\MOI_RAZDACI\Royal Philharmonic Orchestra London\Royal.Philharmonic.Orchestra_Rock.Dreams_4_1993\08 When A Man Loves Woman.wav
Длина предзазора 0:00:01.30
Пиковый уровень 100.0 % Скорость извлечения 2.8 X Качество трека 100.0 % CRC теста 378A6ED8 CRC копии 378A6ED8 Копирование... OK
Трек 9
Имя файла I:\MOI_RAZDACI\Royal Philharmonic Orchestra London\Royal.Philharmonic.Orchestra_Rock.Dreams_4_1993\09 I Will Always Love You.wav
Длина предзазора 0:00:01.13
Пиковый уровень 98.7 % Скорость извлечения 3.0 X Качество трека 100.0 % CRC теста 2671AB69 CRC копии 2671AB69 Копирование... OK
Трек 10
Имя файла I:\MOI_RAZDACI\Royal Philharmonic Orchestra London\Royal.Philharmonic.Orchestra_Rock.Dreams_4_1993\10 Love Changes Everything.wav
Длина предзазора 0:00:01.33
Пиковый уровень 81.9 % Скорость извлечения 3.0 X Качество трека 100.0 % CRC теста F10DF764 CRC копии F10DF764 Копирование... OK
Трек 11
Имя файла I:\MOI_RAZDACI\Royal Philharmonic Orchestra London\Royal.Philharmonic.Orchestra_Rock.Dreams_4_1993\11 Some Enchanted Evening.wav
Длина предзазора 0:00:01.50
Пиковый уровень 74.2 % Скорость извлечения 3.1 X Качество трека 100.0 % CRC теста 4CB9BC90 CRC копии 4CB9BC90 Копирование... OK
Трек 12
Имя файла I:\MOI_RAZDACI\Royal Philharmonic Orchestra London\Royal.Philharmonic.Orchestra_Rock.Dreams_4_1993\12 People.wav
Длина предзазора 0:00:01.10
Пиковый уровень 66.2 % Скорость извлечения 3.3 X Качество трека 100.0 % CRC теста 63014700 CRC копии 63014700 Копирование... OK
Трек 13
Имя файла I:\MOI_RAZDACI\Royal Philharmonic Orchestra London\Royal.Philharmonic.Orchestra_Rock.Dreams_4_1993\13 Hopelessly Devoted To You.wav
Длина предзазора 0:00:01.40
Пиковый уровень 78.4 % Скорость извлечения 2.7 X Качество трека 99.9 % CRC теста 5037E73D CRC копии 5037E73D Копирование... OK
Трек 14
Имя файла I:\MOI_RAZDACI\Royal Philharmonic Orchestra London\Royal.Philharmonic.Orchestra_Rock.Dreams_4_1993\14 Everything I Do.wav
Длина предзазора 0:00:01.43
Пиковый уровень 100.0 % Скорость извлечения 3.6 X Качество трека 100.0 % CRC теста 9EBE1FC2 CRC копии 9EBE1FC2 Копирование... OK
Ошибок не произошло
Конец отчёта
==== Контрольная сумма отчёта 37298B1C1B971433F627DE3C33825F9C6B59AFA0182037AE4BFA30BB7699422E ====

Содержание индексной карты (.CUE)

REM GENRE "Classic Rock"REM DISCID AB0BE40EREM COMMENT "ExactAudioCopy v1.0b3"PERFORMER "Royal Philharmonic Orchestra London"TITLE "I Will Always Love You - Rock Dreams CD 4"FILE "01 Up Where We Belong.wav" WAVE TRACK 01 AUDIO TITLE "Up Where We Belong" PERFORMER "Royal Philharmonic Orchestra London" INDEX 01 00:00:00 TRACK 02 AUDIO TITLE "I Just Called To Say I Love You" PERFORMER "Royal Philharmonic Orchestra London" INDEX 00 04:06:45FILE "02 I Just Called To Say I Love You.wav" WAVE INDEX 01 00:00:00 TRACK 03 AUDIO TITLE "It Must Have Been Love" PERFORMER "Royal Philharmonic Orchestra London" INDEX 00 03:44:55FILE "03 It Must Have Been Love.wav" WAVE INDEX 01 00:00:00 TRACK 04 AUDIO TITLE "Tara's Theme" PERFORMER "Royal Philharmonic Orchestra London" INDEX 00 04:01:00FILE "04 Tara's Theme.wav" WAVE INDEX 01 00:00:00 TRACK 05 AUDIO TITLE "Blue Velvet" PERFORMER "Royal Philharmonic Orchestra London" INDEX 00 03:48:60FILE "05 Blue Velvet.wav" WAVE INDEX 01 00:00:00 TRACK 06 AUDIO TITLE "When I Fall In Love" PERFORMER "Royal Philharmonic Orchestra London" INDEX 00 02:05:32FILE "06 When I Fall In Love.wav" WAVE INDEX 01 00:00:00 TRACK 07 AUDIO TITLE "Any Dream Will Do" PERFORMER "Royal Philharmonic Orchestra London" INDEX 00 03:02:55FILE "07 Any Dream Will Do.wav" WAVE INDEX 01 00:00:00 TRACK 08 AUDIO TITLE "When A Man Loves Woman" PERFORMER "Royal Philharmonic Orchestra London" INDEX 00 02:40:40FILE "08 When A Man Loves Woman.wav" WAVE INDEX 01 00:00:00 TRACK 09 AUDIO TITLE "I Will Always Love You" PERFORMER "Royal Philharmonic Orchestra London" INDEX 00 03:43:52FILE "09 I Will Always Love You.wav" WAVE INDEX 01 00:00:00 TRACK 10 AUDIO TITLE "Love Changes Everything" PERFORMER "Royal Philharmonic Orchestra London" INDEX 00 04:44:02FILE "10 Love Changes Everything.wav" WAVE INDEX 01 00:00:00 TRACK 11 AUDIO TITLE "Some Enchanted Evening" PERFORMER "Royal Philharmonic Orchestra London" INDEX 00 03:17:05FILE "11 Some Enchanted Evening.wav" WAVE INDEX 01 00:00:00 TRACK 12 AUDIO TITLE "People" PERFORMER "Royal Philharmonic Orchestra London" INDEX 00 03:04:15FILE "12 People.wav" WAVE INDEX 01 00:00:00 TRACK 13 AUDIO TITLE "Hopelessly Devoted To You" PERFORMER "Royal Philharmonic Orchestra London" INDEX 00 03:54:35FILE "13 Hopelessly Devoted To You.wav" WAVE INDEX 01 00:00:00 TRACK 14 AUDIO TITLE "Everything I Do" PERFORMER "Royal Philharmonic Orchestra London" INDEX 00 02:47:07FILE "14 Everything I Do.wav" WAVE INDEX 01 00:00:00

Лог проверки качества

-----------------------
DON'T MODIFY THIS FILE
-----------------------
PERFORMER: auCDtect Task Manager, ver. 1.5.1RC6 build 1.5.1.7Copyright (c) 2008-2010 y-soft. All rights reservedhttp://y-soft.org
ANALYZER: auCDtect: CD records authenticity detector, version 0.8.2Copyright (c) 2004 Oleg Berngardt. All rights reserved.Copyright (c) 2004 Alexander Djourik. All rights reserved.
FILE: 14 Everything I Do.flac Size: 33482727 Hash: 3B591168E4B5BE8013BF736E6762D223 Accuracy: -m0 Conclusion: CDDA 100% Signature: 29DB196BCEEC7156EECC955468F03CCA13779E5BFILE: 13 Hopelessly Devoted To You.flac Size: 19086527 Hash: 6A5A611F83E291753C1DBF570355CD4D Accuracy: -m0 Conclusion: CDDA 100% Signature: 099BE0D220540A400703B5FC1F9EF6843C5D0508FILE: 12 People.flac Size: 24582822 Hash: 41CA8C155D70AB94060C8006957A7F14 Accuracy: -m0 Conclusion: CDDA 100% Signature: 3CA9BDFC4671FAFE46126B90CB7153F4B7E23857FILE: 11 Some Enchanted Evening.flac Size: 18596794 Hash: 8FBCFBBD41A1BD7E7BA225F4E91B7661 Accuracy: -m0 Conclusion: CDDA 100% Signature: 281E6611EECDB2A7712D9120AD05EBC047BEB98FFILE: 10 Love Changes Everything.flac Size: 22738052 Hash: 94A7BB5A7FE520885BBF2028711A67DF Accuracy: -m0 Conclusion: CDDA 100% Signature: 0C6C8108062315415C2D4F4F38F3577584C44A46FILE: 09 I Will Always Love You.flac Size: 27362818 Hash: 72D1AAAB55E2FAEDB04F8D7BFFFF3920 Accuracy: -m0 Conclusion: CDDA 100% Signature: 194063211B8F1E57868E0B811CDCEC22AB13474DFILE: 08 When A Man Loves Woman.flac Size: 24466780 Hash: A8B6B9827D0AB4CC3566FE17DDD7F56C Accuracy: -m0 Conclusion: MPEG 79% Signature: 946ED49B7C91C02E7008857C1C594849E7ED7D02FILE: 07 Any Dream Will Do.flac Size: 18351481 Hash: 8EFF62F0724AF9B2AB096332B967816F Accuracy: -m0 Conclusion: CDDA 100% Signature: 690AFED98DD48BA7AAF17D9DF93B471B5F10AD07FILE: 06 When I Fall In Love.flac Size: 20308560 Hash: 21C490A1CF94C0AB7CD22BD0A39B9DB8 Accuracy: -m0 Conclusion: CDDA 100% Signature: C04DD1A27754E18F5DD691CF7858865F8F410B0FFILE: 05 Blue Velvet.flac Size: 12632911 Hash: ACC37E21222BE7B32E3930D0B00C7B6B Accuracy: -m0 Conclusion: CDDA 100% Signature: 052DFE29F2637A2485760F23E57D57706392E401FILE: 04 Tara's Theme.flac Size: 20695747 Hash: 24731DA8A6EEFF6EB03CBED929DC1075 Accuracy: -m0 Conclusion: CDDA 100% Signature: E78B65F4EB461F1794BDD837F3A6C90D74710A40FILE: 03 It Must Have Been Love.flac Size: 25142562 Hash: 7AE383491BD5F22B2BB7C34625FDAB23 Accuracy: -m0 Conclusion: CDDA 100% Signature: B3CE0C7CCDB25BDDB65A90FFB74CF8AFD158C749FILE: 02 I Just Called To Say I Love You.flac Size: 23563278 Hash: 417C90D39E35A6D6A35712FEF25BF512 Accuracy: -m0 Conclusion: CDDA 100% Signature: 93EFA8D80BD643CF6E1D2C0D033D09FBADEAE7D4FILE: 01 Up Where We Belong.flac Size: 26111358 Hash: D0A3B80B44F1E6C5AEB227BE3D5265D4 Accuracy: -m0 Conclusion: CDDA 100% Signature: 22CF76D6A1A794C99E49BBD9F1B68DD158E1BAD6

Скриншот спектра частот




Показать сообщения:    

Текущее время: 07-Дек 17:28

Часовой пояс: UTC + 3


Вы не можете начинать темы
Вы не можете отвечать на сообщения
Вы не можете редактировать свои сообщения
Вы не можете удалять свои сообщения
Вы не можете голосовать в опросах
Вы не можете прикреплять файлы к сообщениям
Вы не можете скачивать файлы