(Classical, Orchestral) Royal Philharmonic Orchestra London - Rock Dreams, CD 2, Moon River - 1993, FLAC (tracks+.cue) lossless


 

[Цитировать]

Royal Philharmonic Orchestra London
Rock Dreams, CD 2, Moon River
Жанр: Classical, Orchestral
Страна-производитель диска: EU
Год издания диска: 1993
Издатель (лейбл): Angel Recordings
Номер по каталогу: 333602
Дата записи: 1992/1993
Аудиокодек: FLAC
Тип рипа: tracks+.cue
Битрейт аудио: lossless
Продолжительность: 00:50:44
Источник: собственный рип
Наличие сканов в содержимом раздачи: да

.
.
Треклист:

01. True Love.
02. Theme From A Summerplace.
03. Summertime.
04. Moon River.
05. Somewhere My Love.
06. The Summer Knows.
07. Somewhere.
08. Evergreen.
09. Maria.
10. Bilitis.
11. Send In The Clowns.
12. Memory.
13. Cavatina.
14. The Way We Were.

Исполнители:

Главные дирижёры Королевского филармонического оркестра:
Томас Бичем (1946—1961) • Рудольф Кемпе (1961—1975) • Антал Дорати (1975—1978) •
Вальтер Веллер (1980—1985) • Андре Превин (1985—1992) • Владимир Ашкенази (1987—1994) •
Юрий Темирканов (1992—1998) • Даниэле Гатти (1996-2009) • Шарль Дютуа (с 2009) •

Лог создания рипа

Exact Audio Copy V1.0 beta 3 from 29. August 2011
Отчёт EAC об извлечении, выполненном 6. июля 2015, 20:33
Royal Philharmonic Orchestra London / Moon River - Rock Dreams CD 2
Дисковод: TEAC DV-W518GM Adapter: 5 ID: 0
Режим чтения : ДостоверностьИспользование точного потока : ДаОтключение кэша аудио : ДаИспользование указателей C2 : Нет
Коррекция смещения при чтении : 6Способность читать области Lead-in и Lead-out : НетЗаполнение пропущенных сэмплов тишиной : ДаУдаление блоков с тишиной в начале и конце : НетПри вычислениях CRC использовались нулевые сэмплы : ДаИнтерфейс : Установленный внешний ASPI-интерфейсОбработка зазоров : Добавлено к предыдущему треку
Выходной формат : Пользовательский кодировщикВыбранный битрейт : 128 kBit/sКачество : ВысокийДобавление ID3-тега : НетУтилита сжатия : C:\Program Files\Exact Audio Copy\Flac\flac.exeДополнительные параметры : -V -8 -T "Genre=%genre%" -T "Artist=%artist%" -T "Title=%title%" -T "Album=%albumtitle%" -T "Date=%year%" -T "Tracknumber=%tracknr%" -T "Comment=%comment%" %source%
TOC извлечённого CD
Трек | Старт | Длительность | Начальный сектор | Конечный сектор --------------------------------------------------------------------- 1 | 0:00.00 | 2:45.70 | 0 | 12444 2 | 2:45.70 | 3:10.15 | 12445 | 26709 3 | 5:56.10 | 3:15.17 | 26710 | 41351 4 | 9:11.27 | 4:11.53 | 41352 | 60229 5 | 13:23.05 | 6:06.40 | 60230 | 87719 6 | 19:29.45 | 3:40.40 | 87720 | 104259 7 | 23:10.10 | 2:36.32 | 104260 | 115991 8 | 25:46.42 | 3:26.18 | 115992 | 131459 9 | 29:12.60 | 4:25.65 | 131460 | 151399 10 | 33:38.50 | 3:34.22 | 151400 | 167471 11 | 37:12.72 | 3:49.13 | 167472 | 184659 12 | 41:02.10 | 3:22.50 | 184660 | 199859 13 | 44:24.60 | 3:44.25 | 199860 | 216684 14 | 48:09.10 | 4:09.60 | 216685 | 235419
Трек 1
Имя файла I:\MOI_RAZDACI\Royal Philharmonic Orchestra London\Royal.Philharmonic.Orchestra_Rock.Dreams_2_1993\01 True Love.wav
Длина предзазора 0:00:02.00
Пиковый уровень 70.0 % Скорость извлечения 1.6 X Качество трека 100.0 % CRC теста FD81BFC7 CRC копии FD81BFC7 Копирование... OK
Трек 2
Имя файла I:\MOI_RAZDACI\Royal Philharmonic Orchestra London\Royal.Philharmonic.Orchestra_Rock.Dreams_2_1993\02 Theme From A Summerplace.wav
Длина предзазора 0:00:01.42
Пиковый уровень 76.4 % Скорость извлечения 1.6 X Качество трека 99.9 % CRC теста 04AF354C CRC копии 04AF354C Копирование... OK
Трек 3
Имя файла I:\MOI_RAZDACI\Royal Philharmonic Orchestra London\Royal.Philharmonic.Orchestra_Rock.Dreams_2_1993\03 Summertime.wav
Длина предзазора 0:00:01.32
Пиковый уровень 68.9 % Скорость извлечения 1.7 X Качество трека 99.9 % CRC теста 1C7CC133 CRC копии 1C7CC133 Копирование... OK
Трек 4
Имя файла I:\MOI_RAZDACI\Royal Philharmonic Orchestra London\Royal.Philharmonic.Orchestra_Rock.Dreams_2_1993\04 Moon River.wav
Длина предзазора 0:00:01.42
Пиковый уровень 60.3 % Скорость извлечения 2.3 X Качество трека 100.0 % CRC теста 7BACF3A0 CRC копии 7BACF3A0 Копирование... OK
Трек 5
Имя файла I:\MOI_RAZDACI\Royal Philharmonic Orchestra London\Royal.Philharmonic.Orchestra_Rock.Dreams_2_1993\05 Somewhere My Love.wav
Длина предзазора 0:00:01.50
Пиковый уровень 88.1 % Скорость извлечения 2.3 X Качество трека 99.9 % CRC теста 769B40AC CRC копии 769B40AC Копирование... OK
Трек 6
Имя файла I:\MOI_RAZDACI\Royal Philharmonic Orchestra London\Royal.Philharmonic.Orchestra_Rock.Dreams_2_1993\06 The Summer Knows.wav
Длина предзазора 0:00:03.05
Пиковый уровень 90.2 % Скорость извлечения 2.6 X Качество трека 100.0 % CRC теста 3C0F3A73 CRC копии 3C0F3A73 Копирование... OK
Трек 7
Имя файла I:\MOI_RAZDACI\Royal Philharmonic Orchestra London\Royal.Philharmonic.Orchestra_Rock.Dreams_2_1993\07 Somewhere.wav
Длина предзазора 0:00:01.50
Пиковый уровень 91.7 % Скорость извлечения 2.6 X Качество трека 100.0 % CRC теста 5FA00792 CRC копии 5FA00792 Копирование... OK
Трек 8
Имя файла I:\MOI_RAZDACI\Royal Philharmonic Orchestra London\Royal.Philharmonic.Orchestra_Rock.Dreams_2_1993\08 Evergreen.wav
Длина предзазора 0:00:02.07
Пиковый уровень 81.4 % Скорость извлечения 2.8 X Качество трека 100.0 % CRC теста CD09CA14 CRC копии CD09CA14 Копирование... OK
Трек 9
Имя файла I:\MOI_RAZDACI\Royal Philharmonic Orchestra London\Royal.Philharmonic.Orchestra_Rock.Dreams_2_1993\09 Maria.wav
Длина предзазора 0:00:01.40
Пиковый уровень 79.8 % Скорость извлечения 3.0 X Качество трека 100.0 % CRC теста 868D2801 CRC копии 868D2801 Копирование... OK
Трек 10
Имя файла I:\MOI_RAZDACI\Royal Philharmonic Orchestra London\Royal.Philharmonic.Orchestra_Rock.Dreams_2_1993\10 Bilitis.wav
Длина предзазора 0:00:02.32
Пиковый уровень 100.0 % Скорость извлечения 3.0 X Качество трека 100.0 % CRC теста 8685A30E CRC копии 8685A30E Копирование... OK
Трек 11
Имя файла I:\MOI_RAZDACI\Royal Philharmonic Orchestra London\Royal.Philharmonic.Orchestra_Rock.Dreams_2_1993\11 Send In The Clowns.wav
Длина предзазора 0:00:01.69
Пиковый уровень 82.8 % Скорость извлечения 3.2 X Качество трека 100.0 % CRC теста A9F11E96 CRC копии A9F11E96 Копирование... OK
Трек 12
Имя файла I:\MOI_RAZDACI\Royal Philharmonic Orchestra London\Royal.Philharmonic.Orchestra_Rock.Dreams_2_1993\12 Memory.wav
Длина предзазора 0:00:02.32
Пиковый уровень 83.6 % Скорость извлечения 3.3 X Качество трека 100.0 % CRC теста 7F456601 CRC копии 7F456601 Копирование... OK
Трек 13
Имя файла I:\MOI_RAZDACI\Royal Philharmonic Orchestra London\Royal.Philharmonic.Orchestra_Rock.Dreams_2_1993\13 Cavatina.wav
Длина предзазора 0:00:01.45
Пиковый уровень 72.7 % Скорость извлечения 3.4 X Качество трека 100.0 % CRC теста 7A74DFEE CRC копии 7A74DFEE Копирование... OK
Трек 14
Имя файла I:\MOI_RAZDACI\Royal Philharmonic Orchestra London\Royal.Philharmonic.Orchestra_Rock.Dreams_2_1993\14 The Way We Were.wav
Длина предзазора 0:00:01.55
Пиковый уровень 68.0 % Скорость извлечения 3.6 X Качество трека 100.0 % CRC теста 488FAE5B CRC копии 488FAE5B Копирование... OK
Ошибок не произошло
Конец отчёта
==== Контрольная сумма отчёта FA10E1676F8EDF5F031A3943D37FA26DEFEA1323B2C14C95A30782618AAFD8D8 ====

Содержание индексной карты (.CUE)

REM GENRE "Classic Rock"REM DISCID BD0C420EREM COMMENT "ExactAudioCopy v1.0b3"PERFORMER "Royal Philharmonic Orchestra London"TITLE "Moon River - Rock Dreams CD 2"FILE "01 True Love.wav" WAVE TRACK 01 AUDIO TITLE "True Love" PERFORMER "Royal Philharmonic Orchestra London" INDEX 01 00:00:00 TRACK 02 AUDIO TITLE "Theme From A Summerplace" PERFORMER "Royal Philharmonic Orchestra London" INDEX 00 02:44:28FILE "02 Theme From A Summerplace.wav" WAVE INDEX 01 00:00:00 TRACK 03 AUDIO TITLE "Summertime" PERFORMER "Royal Philharmonic Orchestra London" INDEX 00 03:08:58FILE "03 Summertime.wav" WAVE INDEX 01 00:00:00 TRACK 04 AUDIO TITLE "Moon River" PERFORMER "Royal Philharmonic Orchestra London" INDEX 00 03:13:50FILE "04 Moon River.wav" WAVE INDEX 01 00:00:00 TRACK 05 AUDIO TITLE "Somewhere My Love" PERFORMER "Royal Philharmonic Orchestra London" INDEX 00 04:10:03FILE "05 Somewhere My Love.wav" WAVE INDEX 01 00:00:00 TRACK 06 AUDIO TITLE "The Summer Knows" PERFORMER "Royal Philharmonic Orchestra London" INDEX 00 06:03:35FILE "06 The Summer Knows.wav" WAVE INDEX 01 00:00:00 TRACK 07 AUDIO TITLE "Somewhere" PERFORMER "Royal Philharmonic Orchestra London" INDEX 00 03:38:65FILE "07 Somewhere.wav" WAVE INDEX 01 00:00:00 TRACK 08 AUDIO TITLE "Evergreen" PERFORMER "Royal Philharmonic Orchestra London" INDEX 00 02:34:25FILE "08 Evergreen.wav" WAVE INDEX 01 00:00:00 TRACK 09 AUDIO TITLE "Maria" PERFORMER "Royal Philharmonic Orchestra London" INDEX 00 03:24:53FILE "09 Maria.wav" WAVE INDEX 01 00:00:00 TRACK 10 AUDIO TITLE "Bilitis" PERFORMER "Royal Philharmonic Orchestra London" INDEX 00 04:23:33FILE "10 Bilitis.wav" WAVE INDEX 01 00:00:00 TRACK 11 AUDIO TITLE "Send In The Clowns" PERFORMER "Royal Philharmonic Orchestra London" INDEX 00 03:32:28FILE "11 Send In The Clowns.wav" WAVE INDEX 01 00:00:00 TRACK 12 AUDIO TITLE "Memory" PERFORMER "Royal Philharmonic Orchestra London" INDEX 00 03:46:56FILE "12 Memory.wav" WAVE INDEX 01 00:00:00 TRACK 13 AUDIO TITLE "Cavatina" PERFORMER "Royal Philharmonic Orchestra London" INDEX 00 03:21:05FILE "13 Cavatina.wav" WAVE INDEX 01 00:00:00 TRACK 14 AUDIO TITLE "The Way We Were" PERFORMER "Royal Philharmonic Orchestra London" INDEX 00 03:42:45FILE "14 The Way We Were.wav" WAVE INDEX 01 00:00:00

Лог проверки качества

-----------------------
DON'T MODIFY THIS FILE
-----------------------
PERFORMER: auCDtect Task Manager, ver. 1.5.1RC6 build 1.5.1.7Copyright (c) 2008-2010 y-soft. All rights reservedhttp://y-soft.org
ANALYZER: auCDtect: CD records authenticity detector, version 0.8.2Copyright (c) 2004 Oleg Berngardt. All rights reserved.Copyright (c) 2004 Alexander Djourik. All rights reserved.
FILE: 14 The Way We Were.flac Size: 26707478 Hash: 5DB0544D5E87E79F5726EDE27D2C9459 Accuracy: -m0 Conclusion: CDDA 100% Signature: 6AD825CF1C67590AAD67A455F1F6CF3F2A0B8259FILE: 13 Cavatina.flac Size: 21798287 Hash: 521B22C43095E03CFCF2FEBFF8D49800 Accuracy: -m0 Conclusion: CDDA 100% Signature: ECBFCD63AC5F41D1C1EB1292F9DC1DFBDEB080BFFILE: 12 Memory.flac Size: 21580371 Hash: B265F6E4792A323BD3A6C22FB0BE2E09 Accuracy: -m0 Conclusion: CDDA 100% Signature: 8523E1770C95766B433AC87DCEEA9EB54D77E082FILE: 11 Send In The Clowns.flac Size: 23133903 Hash: 7F5631E2B75E0B87639F1B63879C513D Accuracy: -m0 Conclusion: CDDA 100% Signature: A49C0C7EEE2CAB13775F5BD0C3EDD3A45C5E2EB0FILE: 10 Bilitis.flac Size: 21829059 Hash: 9918473E496511B3D05558F86527E0E1 Accuracy: -m0 Conclusion: CDDA 100% Signature: DD5407D8C1F095F076B621C191F31361BA885CCDFILE: 09 Maria.flac Size: 24666167 Hash: 6765397AE8CA4457E1DC93F00DD38D8F Accuracy: -m0 Conclusion: CDDA 100% Signature: CFDC58FC654DFABEBF7AC376439141C66B3EE0FCFILE: 08 Evergreen.flac Size: 23673642 Hash: 17748965833C355EAAE1293FDBB0FF1A Accuracy: -m0 Conclusion: CDDA 100% Signature: D5B502B49A979334E1E524E3503E4C497BA9A9F2FILE: 07 Somewhere.flac Size: 18110336 Hash: 4564CBBAF2F1AAA30C361CCAB8B1CEB9 Accuracy: -m0 Conclusion: CDDA 100% Signature: E259D9D43A66B60A61EF10EFBDD668AE6E38219DFILE: 06 The Summer Knows.flac Size: 24697970 Hash: D24DA7692558CBA3A19539F3250ACEE9 Accuracy: -m0 Conclusion: CDDA 100% Signature: 081326F5F1BB5DB43E948FAFC98423E38C6DCB5AFILE: 05 Somewhere My Love.flac Size: 32225304 Hash: 4A21B0D1269BC6EEB67EC95FE3A5ED9A Accuracy: -m0 Conclusion: CDDA 100% Signature: 9B8C4B1A2D6F03DDA059897EF57E50AC00FB1A6CFILE: 04 Moon River.flac Size: 23220195 Hash: 1375A0F64FA36A9951CEF18EBC80A342 Accuracy: -m0 Conclusion: CDDA 100% Signature: F2E34C9931B54FF3614CF00A6CD7CAECE6638C77FILE: 03 Summertime.flac Size: 20949502 Hash: 1D3F27AF9B4A70C44797A1808DF7E13C Accuracy: -m0 Conclusion: CDDA 100% Signature: D058979DDAB5E9CA14066D35731B66CC84C67096FILE: 02 Theme From A Summerplace.flac Size: 21917052 Hash: A8925BBD69429CEA5C1A4BDBE73BE1E5 Accuracy: -m0 Conclusion: CDDA 100% Signature: 625DAE4F08C77A1C34D140EAFB341C3C438E1E04FILE: 01 True Love.flac Size: 18938483 Hash: F76BCF03B43C54761327ACAE9CC91782 Accuracy: -m0 Conclusion: CDDA 100% Signature: F70B8712456DF152DF47EAFFB1B87569EC815AB3



Показать сообщения:    

Текущее время: 06-Дек 22:56

Часовой пояс: UTC + 3


Вы не можете начинать темы
Вы не можете отвечать на сообщения
Вы не можете редактировать свои сообщения
Вы не можете удалять свои сообщения
Вы не можете голосовать в опросах
Вы не можете прикреплять файлы к сообщениям
Вы не можете скачивать файлы