(Classical Crossover, Japanese) Sugitetsu & Sho Asano - Samurai Classical Music - 2014, FLAC (image+.cue), lossless


 

[Цитировать]

Sugitetsu & Sho Asano - Samurai Classical Music
Жанр: Classical Crossover, Japanese
Страна-производитель диска: Тайвань/Япония
Год издания диска: 2014
Издатель (лейбл): Gis Label
Номер по каталогу: GIS-0001
Аудиокодек: FLAC
Тип рипа: image+.cue
Битрейт аудио: lossless
Продолжительность: 44:20
Источник: собственный рип
Наличие сканов в содержимом раздачи: да
Треклист:
01. Buddha, Joy of Man's Desiring {J.S. Bach: Jesus, Joy of Man's Desiring} - 3:44
02. "Hokushin-Itto-Ryu" Dance {Khachaturian: Sabre Dance} - 3:10
03. The "Samurai" Typewriter {Anderson: Typewriter} - 1:49
04. The Girl with the Black Hair {Debussy: The Girl with the Flaxen Hair} - 2:52
05. Japanese Dance No.5 {Brahms: Hungarian Dance No.5} - 3:30
06. Oitono Kirare - 5:20
07. "Ukiyoe" at an Exhibition {Mussorgsky: Pictures at an Exhibition} - 3:08
08. Wedding "Etenraku" March {Wagner/Mendelssohn: Wedding March; Trad.: Etenraku} - 4:33
09. La Tsugaru Jonganella {Paganini: La Campanella} - 2:22
10. Japanese Bolero {Ravel: Bolero} - 5:12
11. Yoake no Ato - 1:25
12. Csardas (Monti) - 4:29
13. Libertango (Piazzolla) - 2:48
Исполнители:
Teppei Okada - violin
Tetsuro Sugiura - piano
Sho Asano - tsugaru-shamisen
Composed & arranged by Tetsuro Sugiura.
Recorded at Studio Jake/Studio 246.

Лог создания рипа

Exact Audio Copy V1.0 beta 6 from 9. April 2015
EAC extraction logfile from 17. June 2015, 23:48
Sugitetsu & Sho Asano / Samurai Classical Music
Used drive : ASUS DRW-24B1LT Adapter: 1 ID: 1
Read mode : SecureUtilize accurate stream : YesDefeat audio cache : YesMake use of C2 pointers : No
Read offset correction : 6Overread into Lead-In and Lead-Out : NoFill up missing offset samples with silence : YesDelete leading and trailing silent blocks : NoNull samples used in CRC calculations : YesUsed interface : Native Win32 interface for Win NT & 2000
Used output format : User Defined EncoderSelected bitrate : 768 kBit/sQuality : HighAdd ID3 tag : NoCommand line compressor : C:\Program Files\Exact Audio Copy\Flac\flac.exeAdditional command line options : -8 -V -T "ARTIST=%artist%" -T "TITLE=%title%" -T "ALBUM=%albumtitle%" -T "DATE=%year%" -T "TRACKNUMBER=%tracknr%" -T "TOTALTRACKS=%numtracks%" -T "GENRE=%genre%" -T "ALBUMARTIST=%albumartist%" -T "ALBUM ARTIST=%albumartist%" -T "COMMENT=EAC Secure Mode, Test & Copy, AccurateRip, FLAC -8" %source%
TOC of the extracted CD
Track | Start | Length | Start sector | End sector --------------------------------------------------------- 1 | 0:00.00 | 3:43.46 | 0 | 16770 2 | 3:43.46 | 3:09.38 | 16771 | 30983 3 | 6:53.09 | 1:48.66 | 30984 | 39149 4 | 8:42.00 | 2:52.00 | 39150 | 52049 5 | 11:34.00 | 3:29.51 | 52050 | 67775 6 | 15:03.51 | 5:19.53 | 67776 | 91753 7 | 20:23.29 | 3:07.61 | 91754 | 105839 8 | 23:31.15 | 4:33.32 | 105840 | 126346 9 | 28:04.47 | 2:21.72 | 126347 | 136993 10 | 30:26.44 | 5:12.03 | 136994 | 160396 11 | 35:38.47 | 1:24.48 | 160397 | 166744 12 | 37:03.20 | 4:28.59 | 166745 | 186903 13 | 41:32.04 | 2:48.27 | 186904 | 199530
Range status and errors
Selected range
Filename F:\audio\Sugitetsu & Sho Asano - Samurai Classical Music.wav
Peak level 100.0 % Extraction speed 5.3 X Range quality 100.0 % Test CRC 2EA22D43 Copy CRC 2EA22D43 Copy OK
No errors occurred
AccurateRip summary
Track 1 not present in databaseTrack 2 not present in databaseTrack 3 not present in databaseTrack 4 not present in databaseTrack 5 not present in databaseTrack 6 not present in databaseTrack 7 not present in databaseTrack 8 not present in databaseTrack 9 not present in databaseTrack 10 not present in databaseTrack 11 not present in databaseTrack 12 not present in databaseTrack 13 not present in database
None of the tracks are present in the AccurateRip database
End of status report
---- CUETools DB Plugin V2.1.6
[CTDB TOCID: Rn2KBHfrbgeBMMsxBZb_O.sOSLY-] foundSubmit result: Rn2KBHfrbgeBMMsxBZb_O.sOSLY- has been confirmedTrack | CTDB Status 1 | (1/1) Accurately ripped 2 | (1/1) Accurately ripped 3 | (1/1) Accurately ripped 4 | (1/1) Accurately ripped 5 | (1/1) Accurately ripped 6 | (1/1) Accurately ripped 7 | (1/1) Accurately ripped 8 | (1/1) Accurately ripped 9 | (1/1) Accurately ripped 10 | (1/1) Accurately ripped 11 | (1/1) Accurately ripped 12 | (1/1) Accurately ripped 13 | (1/1) Accurately ripped
==== Log checksum 69EABA661C31CAC4B55C206A214BE1289706C7A83777DC6059A799588CF439EE ====

Содержание индексной карты (.CUE)

REM GENRE ClassicalREM DATE 2014REM DISCID A30A640DREM COMMENT "ExactAudioCopy v1.0b6"PERFORMER "Sugitetsu & Sho Asano"TITLE "Samurai Classical Music"FILE "Sugitetsu & Sho Asano - Samurai Classical Music.wav" WAVE TRACK 01 AUDIO TITLE "Buddha, Joy of Man's Desiring" PERFORMER "Sugitetsu & Sho Asano" INDEX 01 00:00:00 TRACK 02 AUDIO TITLE "'Hokushin-Itto-Ryu' Dance" PERFORMER "Sugitetsu & Sho Asano" INDEX 00 03:41:47 INDEX 01 03:43:46 TRACK 03 AUDIO TITLE "The 'Samurai' Typewriter" PERFORMER "Sugitetsu & Sho Asano" INDEX 01 06:53:09 TRACK 04 AUDIO TITLE "The Girl with the Black Hair" PERFORMER "Sugitetsu & Sho Asano" INDEX 01 08:42:00 TRACK 05 AUDIO TITLE "Japanese Dance No.5" PERFORMER "Sugitetsu & Sho Asano" INDEX 01 11:34:00 TRACK 06 AUDIO TITLE "Oitono Kirare" PERFORMER "Sugitetsu & Sho Asano" INDEX 01 15:03:51 TRACK 07 AUDIO TITLE "'Ukiyoe' at an Exhibition" PERFORMER "Sugitetsu & Sho Asano" INDEX 01 20:23:29 TRACK 08 AUDIO TITLE "Wedding 'Etenraku' March" PERFORMER "Sugitetsu & Sho Asano" INDEX 01 23:31:15 TRACK 09 AUDIO TITLE "La Tsugaru Jonganella" PERFORMER "Sugitetsu & Sho Asano" INDEX 01 28:04:47 TRACK 10 AUDIO TITLE "Japanese Bolero" PERFORMER "Sugitetsu & Sho Asano" INDEX 01 30:26:44 TRACK 11 AUDIO TITLE "Yoake no Ato" PERFORMER "Sugitetsu & Sho Asano" INDEX 01 35:38:47 TRACK 12 AUDIO TITLE "Csardas" PERFORMER "Sugitetsu & Sho Asano" INDEX 01 37:03:20 TRACK 13 AUDIO TITLE "Libertango" PERFORMER "Sugitetsu & Sho Asano" INDEX 01 41:32:04

Отчет CUETools

[CUETools log; Date: 18.06.2015 1:11:01; Version: 2.1.5][CTDB TOCID: Rn2KBHfrbgeBMMsxBZb_O.sOSLY-] found.Track | CTDB Status 1 | (2/2) Accurately ripped 2 | (2/2) Accurately ripped 3 | (2/2) Accurately ripped 4 | (2/2) Accurately ripped 5 | (2/2) Accurately ripped 6 | (2/2) Accurately ripped 7 | (2/2) Accurately ripped 8 | (2/2) Accurately ripped 9 | (2/2) Accurately ripped 10 | (2/2) Accurately ripped 11 | (2/2) Accurately ripped 12 | (2/2) Accurately ripped 13 | (2/2) Accurately ripped[AccurateRip ID: 0015137b-00d49fdb-a30a640d] disk not present in database.
Track Peak [ CRC32 ] [W/O NULL] [ LOG ] -- 100,0 [2EA22D43] [BFB3BAFD] CRC32 01 100,0 [4BBF326C] [F44CC2BC] 02 100,0 [E6C026BE] [7049AC56] 03 100,0 [06267AC2] [69DE22EA] 04 99,1 [46B4CBEB] [24699F3F] 05 100,0 [F5CDBA79] [8B8E5A1A] 06 100,0 [DC36FFC4] [E6A132AF] 07 98,8 [8AAA06C9] [42B7E5B2] 08 100,0 [C3A0EF48] [E8C9744E] 09 100,0 [C1CF408C] [E2CAE0A8] 10 100,0 [B2CD66C1] [D7D61C79] 11 99,2 [1249D237] [56256F56] 12 100,0 [4B461CF9] [CDF3EA9F] 13 100,0 [B9D2CEAA] [46AA91FE]

Об альбоме (сборнике)

Three samurai virtuoso musicians play western classical music in traditional Japanese music style.
A Japanese piano and violin duo "Sugi-Tetsu"(Tetsuro Sugiura & Teppei Okada) perform classical music with a humorous twist to it.
Sho Asano began playing shamisen at age five, influenced by his grandfather. At age seven, he made his first appearance at the All-Japan Tsugaru Shamisen Championship (Hirosaki), and became the youngest player ever to participate.



Показать сообщения:    

Текущее время: 04-Дек 17:19

Часовой пояс: UTC + 3


Вы не можете начинать темы
Вы не можете отвечать на сообщения
Вы не можете редактировать свои сообщения
Вы не можете удалять свои сообщения
Вы не можете голосовать в опросах
Вы не можете прикреплять файлы к сообщениям
Вы не можете скачивать файлы