(Classical, Cello, Piano) Julian Lloyd Webber - Lullaby: Sweet Dreams for Children of All Ages - 1995, FLAC (tracks+.cue), lossless


 

[Цитировать]

Julian Lloyd Webber - Lullaby: Sweet Dreams for Children of All Ages
Жанр: Classical, Cello, Piano
Страна-производитель диска: Германия
Год издания диска: 1995
Издатель (лейбл): Philips
Номер по каталогу: 442 426-2
Аудиокодек: FLAC
Тип рипа: tracks+.cue
Битрейт аудио: lossless
Продолжительность: 57:15
Источник (релизер): la_mode (what)
Наличие сканов в содержимом раздачи: нет
Треклист:
01. Julian Lloyd Webber: Song for Baba (2:45)
02. Robert Schumann: Kinderszenen, Op.15 No.7: Traumerei (3:26)
03. Robert Schumann: Wiegenlied, D.498 (1:34)
04. Xavier Montsalvatge: Cancion de cuna para dormir a un negrito (Cradle Song) (2:10)
05. Thomas J. Hewitt: Shepherd's Lullaby (3:10)
06. Antonin Dvorak: Wiegenlied (1:48)
07. Antonin Dvorak: Gipsy Melodies, Op.55 No.4: Songs My Mother Taught Me (3:13)
08. Dream Sequence: Baby Let Me Take You Dreaming (Sylvia Fine/Sammy Cahn) / Sleepyhead (Lorenz Hart/Richard Rodgers) / Welcome to My Dream (Johnny Burke/Jimmy van Heusen) (6:46)
09. Roger Quilter: Slumber Song (1:44)
10. Cyril Scott: Lullaby, Op.57 No.2 (2:37)
11. William Lloyd Webber: Slumber Song (2:50)
12. Roger Quilter: Where Go the Boats (2:07)
13. Joseph Canteloube: Chants d'Auvergne: Brezairola (2:32)
14. Aram Khachaturian: A Little Song (1:28)
15. John Lenehan: Alice (2:48)
16. Francis Poulenc: Histoire de Babar le Petit Elephant: Lent et melancolique (2:01)
17. Dave Heath: Gentle Dreams (3:11)
18. John Rutter: Mary's Lullaby (1:55)
19. Gabriel Faure: Dolly Suite: Berceuse (3:14)
20. Johannes Brahms: Wiegenlied, Op.49 No.4 (2:36)
21. Nursery Suite (Traditional): Rock-A-Bye, Baby / Rocking Carol / Golden Slumbers (3:20)
Исполнители:
Julian Lloyd Webber - cello
John Lenehan (#2-4,6,7,9-20), Pam Chowhan (#1,5,21), Richard Rodney Bennett (#8) - piano
Recorded at Henry Wood Hall, London in October 1993.

Лог создания рипа

Exact Audio Copy V0.99 prebeta 5 from 4. May 2009
EAC extraction logfile from 11. August 2010, 9:45
Julian Lloyd Webber / Lullaby
Used drive : JLMS XJ-HD166S Adapter: 3 ID: 0
Read mode : SecureUtilize accurate stream : YesDefeat audio cache : YesMake use of C2 pointers : No
Read offset correction : 12Overread into Lead-In and Lead-Out : NoFill up missing offset samples with silence : YesDelete leading and trailing silent blocks : NoNull samples used in CRC calculations : YesUsed interface : Installed external ASPI interfaceGap handling : Not detected, thus appended to previous track
Used output format : User Defined EncoderSelected bitrate : 320 kBit/sQuality : HighAdd ID3 tag : NoCommand line compressor : C:\Program Files\Exact Audio Copy\Flac\flac.exeAdditional command line options : -4 -T "artist=%a" -T "title=%t" -T "album=%g" -T "date=%y" -T "tracknumber=%n" -T "genre=%m" %s
TOC of the extracted CD
Track | Start | Length | Start sector | End sector --------------------------------------------------------- 1 | 0:00.32 | 2:45.00 | 32 | 12406 2 | 2:45.32 | 3:26.00 | 12407 | 27856 3 | 6:11.32 | 1:34.00 | 27857 | 34906 4 | 7:45.32 | 2:10.00 | 34907 | 44656 5 | 9:55.32 | 3:10.00 | 44657 | 58906 6 | 13:05.32 | 1:48.00 | 58907 | 67006 7 | 14:53.32 | 3:13.00 | 67007 | 81481 8 | 18:06.32 | 6:46.00 | 81482 | 111931 9 | 24:52.32 | 1:44.00 | 111932 | 119731 10 | 26:36.32 | 2:37.00 | 119732 | 131506 11 | 29:13.32 | 2:50.00 | 131507 | 144256 12 | 32:03.32 | 2:07.00 | 144257 | 153781 13 | 34:10.32 | 2:32.00 | 153782 | 165181 14 | 36:42.32 | 1:28.00 | 165182 | 171781 15 | 38:10.32 | 2:48.00 | 171782 | 184381 16 | 40:58.32 | 2:01.00 | 184382 | 193456 17 | 42:59.32 | 3:11.00 | 193457 | 207781 18 | 46:10.32 | 1:55.00 | 207782 | 216406 19 | 48:05.32 | 3:14.00 | 216407 | 230956 20 | 51:19.32 | 2:36.00 | 230957 | 242656 21 | 53:55.32 | 3:20.00 | 242657 | 257656
Track 1
Filename G:\My Music\Julian Lloyd Webber - - Lullaby\01 - Julian Lloyd Webber,Songs for Baba.wav
Peak level 46.9 % Track quality 100.0 % Test CRC B6A4069F Copy CRC B6A4069F Accurately ripped (confidence 4) [4EDC6072] Copy OK
Track 2
Filename G:\My Music\Julian Lloyd Webber - - Lullaby\02 - Schuman,Kinderszenen, Op.15- No. 7 Traumerei.wav
Peak level 75.9 % Track quality 100.0 % Test CRC 0D9E1865 Copy CRC 0D9E1865 Accurately ripped (confidence 4) [D19AEC47] Copy OK
Track 3
Filename G:\My Music\Julian Lloyd Webber - - Lullaby\03 - Schuman,Wiegenlied, D. 498.wav
Peak level 31.3 % Track quality 100.0 % Test CRC 4F708D99 Copy CRC 4F708D99 Accurately ripped (confidence 4) [BD8ED8C4] Copy OK
Track 4
Filename G:\My Music\Julian Lloyd Webber - - Lullaby\04 - Montsalvatge, Cancion de cuna para dormir a un negrito(Cradel Song).wav
Peak level 77.5 % Track quality 100.0 % Test CRC 4385096E Copy CRC 4385096E Accurately ripped (confidence 4) [4E027897] Copy OK
Track 5
Filename G:\My Music\Julian Lloyd Webber - - Lullaby\05 - Thomas J. Hewitt,Shepherd's Lullaby.wav
Peak level 62.5 % Track quality 100.0 % Test CRC D797D6F7 Copy CRC D797D6F7 Accurately ripped (confidence 4) [A424A3B5] Copy OK
Track 6
Filename G:\My Music\Julian Lloyd Webber - - Lullaby\06 - Dvorak,Wiegenlied.wav
Peak level 44.4 % Track quality 100.0 % Test CRC D678CCDC Copy CRC D678CCDC Accurately ripped (confidence 4) [A4EB7FC3] Copy OK
Track 7
Filename G:\My Music\Julian Lloyd Webber - - Lullaby\07 - Dvorak,Songs My Mother Taught Me.wav
Peak level 60.7 % Track quality 100.0 % Test CRC DE4148B7 Copy CRC DE4148B7 Accurately ripped (confidence 4) [8AD560C4] Copy OK
Track 8
Filename G:\My Music\Julian Lloyd Webber - - Lullaby\08 - Various,Dream Sequence- a. Dreaming, b. Sleepyhead, c. Dream.wav
Peak level 77.4 % Track quality 100.0 % Test CRC EAC78C37 Copy CRC EAC78C37 Accurately ripped (confidence 4) [2B94BB54] Copy OK
Track 9
Filename G:\My Music\Julian Lloyd Webber - - Lullaby\09 - Roger Quilter,Slumber Song.wav
Peak level 71.9 % Track quality 100.0 % Test CRC D8C132C5 Copy CRC D8C132C5 Accurately ripped (confidence 4) [EBD1BEEF] Copy OK
Track 10
Filename G:\My Music\Julian Lloyd Webber - - Lullaby\10 - Cyril Scott,Lullaby, Op.57, No. 2.wav
Peak level 94.1 % Track quality 100.0 % Test CRC 87550C7E Copy CRC 87550C7E Accurately ripped (confidence 4) [38119988] Copy OK
Track 11
Filename G:\My Music\Julian Lloyd Webber - - Lullaby\11 - William Lloyd Weber,Slumber Song.wav
Peak level 49.6 % Track quality 99.9 % Test CRC 2028F039 Copy CRC 2028F039 Accurately ripped (confidence 3) [4FF8F51C] Copy OK
Track 12
Filename G:\My Music\Julian Lloyd Webber - - Lullaby\12 - Roger Quilter,Where Go the Boats.wav
Peak level 53.7 % Track quality 100.0 % Test CRC 1C48582F Copy CRC 1C48582F Accurately ripped (confidence 3) [1A41B4E8] Copy OK
Track 13
Filename G:\My Music\Julian Lloyd Webber - - Lullaby\13 - Joseph Canteloube,Chants d'Auvergne- Brezairola.wav
Peak level 34.9 % Track quality 100.0 % Test CRC 9ED6C572 Copy CRC 9ED6C572 Accurately ripped (confidence 3) [1780EF56] Copy OK
Track 14
Filename G:\My Music\Julian Lloyd Webber - - Lullaby\14 - Aram Khachaturian,A Little Song.wav
Peak level 43.3 % Track quality 99.8 % Test CRC 4D82728D Copy CRC 4D82728D Accurately ripped (confidence 3) [3BBD244B] Copy OK
Track 15
Filename G:\My Music\Julian Lloyd Webber - - Lullaby\15 - John Lenehan,Alice.wav
Peak level 59.3 % Track quality 99.9 % Test CRC 89A4CABE Copy CRC 89A4CABE Accurately ripped (confidence 3) [C3904957] Copy OK
Track 16
Filename G:\My Music\Julian Lloyd Webber - - Lullaby\16 - Francis Poulenc, Histoire de Babar le petit elephant- Lent et Melacolique.wav
Peak level 31.4 % Track quality 100.0 % Test CRC 52216866 Copy CRC 52216866 Accurately ripped (confidence 3) [3B935F15] Copy OK
Track 17
Filename G:\My Music\Julian Lloyd Webber - - Lullaby\17 - Dave Heath,Gentle Dreams.wav
Peak level 44.2 % Track quality 100.0 % Test CRC 4F60E495 Copy CRC 4F60E495 Accurately ripped (confidence 3) [BC77AEEF] Copy OK
Track 18
Filename G:\My Music\Julian Lloyd Webber - - Lullaby\18 - John Rutter,Mary's Lullaby.wav
Peak level 50.2 % Track quality 100.0 % Test CRC A53CFA75 Copy CRC A53CFA75 Accurately ripped (confidence 3) [013ABA13] Copy OK
Track 19
Filename G:\My Music\Julian Lloyd Webber - - Lullaby\19 - Gabriel Faure,Dolly Suite- Berceuse.wav
Peak level 84.8 % Track quality 100.0 % Test CRC 269CC398 Copy CRC 269CC398 Accurately ripped (confidence 3) [6B25F4C9] Copy OK
Track 20
Filename G:\My Music\Julian Lloyd Webber - - Lullaby\20 - Brahms,Wiegenlied, Op. 49 No. 4.wav
Peak level 28.6 % Track quality 100.0 % Test CRC 59106FFD Copy CRC 59106FFD Accurately ripped (confidence 3) [C114346B] Copy OK
Track 21
Filename G:\My Music\Julian Lloyd Webber - - Lullaby\21 - Nursery Suite(traditional),Rock-a-bye, Baby, Rocking Carol, Golden Slumbers.wav
Peak level 61.9 % Track quality 100.0 % Test CRC FB49AD2B Copy CRC FB49AD2B Accurately ripped (confidence 3) [034EDAE4] Copy OK
All tracks accurately ripped
No errors occurred
End of status report

Лог проверки качества

-----------------------
DON'T MODIFY THIS FILE
-----------------------
PERFORMER: auCDtect Task Manager, ver. 1.6.0 RC1 build 1.6.0.1Copyright (c) 2008-2010 y-soft. All rights reservedhttp://y-soft.org
ANALYZER: auCDtect: CD records authenticity detector, version 0.8.2Copyright (c) 2004 Oleg Berngardt. All rights reserved.Copyright (c) 2004 Alexander Djourik. All rights reserved.
FILE: 21 - Nursery Suite (Traditional).flac Size: 11956485 Hash: A5C5E143D5D5A09F43B9DB66495C0F61 Accuracy: -m0 Conclusion: CDDA 100% Signature: 67B80B18B759B2AAA149662A01CBFE9757145E28FILE: 20 - Brahms- Wiegenlied, Op.49 No.4.flac Size: 8628263 Hash: 48DEECF0C1C7831CE5A8EC8FB0997598 Accuracy: -m0 Conclusion: CDDA 100% Signature: 884D8053D73AFF2B4BC749455437934C95F2C2EDFILE: 19 - Faure- Dolly Suite- Berceuse.flac Size: 12323106 Hash: 934361A2446C6F01FD4564C67C80CD56 Accuracy: -m0 Conclusion: CDDA 100% Signature: BF05C5E87A493A147FB5A9A89FBA48252BBAB631FILE: 18 - Rutter- Mary's Lullaby.flac Size: 7022863 Hash: 433C67311770AE48DD05660C953DA20D Accuracy: -m0 Conclusion: CDDA 100% Signature: D0F623D45309480BBA2575BEF0FF4E1C1635A128FILE: 17 - Heath- Gentle Dreams.flac Size: 11372046 Hash: 8E85063ADA33ABB8E5E16DCF5D55522F Accuracy: -m0 Conclusion: CDDA 100% Signature: 97487AEA77CFB9D791FA86C9FF6CA53CEBA5C9E2FILE: 16 - Poulenc- Histoire de Babar le Petit Elephant- Lent et melancolique.flac Size: 6709661 Hash: B7335C77A9738AFF2CF65A4619B6C0C3 Accuracy: -m0 Conclusion: CDDA 99% Signature: 252A807AAE5CF1BAFC46FC0A584C5C938E3D0761FILE: 15 - Lenehan- Alice.flac Size: 10430246 Hash: 7D0DBACA55A391441B6090CA9C711D86 Accuracy: -m0 Conclusion: CDDA 100% Signature: 6AD09FFEA07AA6A4879A102D436C6BB5C2EBD496FILE: 14 - Khachaturian- A Little Song.flac Size: 5626551 Hash: C6B5A751AA45252F516707CC93508825 Accuracy: -m0 Conclusion: CDDA 100% Signature: 21DCF513228AAC416E2BE83FBA93471203D21E3FFILE: 13 - Canteloube- Chants d'Auvergne- Brezairola.flac Size: 9309389 Hash: 850F4370CD8A5E43C11D8B459CC414F8 Accuracy: -m0 Conclusion: CDDA 100% Signature: 16A0C92CFBB7958D0106FB4AF5F5E425483546B4FILE: 12 - Quilter- Where Go the Boats.flac Size: 7259629 Hash: 8ACFD0B9AC55ACC746A4F676095373DE Accuracy: -m0 Conclusion: CDDA 100% Signature: 615F8822D30ABEAE15867304BF8DBB2826CA684FFILE: 11 - W.L. Webber- Slumber Song.flac Size: 10586339 Hash: 5971150B02CA673293802E59BB425D50 Accuracy: -m0 Conclusion: CDDA 100% Signature: 3259124737EB8F031D543EEEA0BC7BBB8C814CEBFILE: 10 - Scott- Lullaby, Op.57 No.2.flac Size: 9449012 Hash: 3871633B7279CA8B189A260FBEA46A4A Accuracy: -m0 Conclusion: CDDA 99% Signature: 417BFF18E6C309BC85C0716E497FE76CF51E8CA9FILE: 09 - Quilter- Slumber Song.flac Size: 6662146 Hash: 52B518875A764EEAE0C9BB8C47011ACF Accuracy: -m0 Conclusion: CDDA 100% Signature: D470F310E26C42232A082F1BB5A52F49D0374957FILE: 08 - Dream Sequence.flac Size: 26060045 Hash: 5605D24FC82C552925023CE8ACBDFA4D Accuracy: -m0 Conclusion: CDDA 100% Signature: F019E31EE21EABB46CA3FFF5E0D8B7DDC4EDD6FAFILE: 07 - Dvorak- Gipsy Melodies, Op.55 No.4- Songs My Mother Taught Me.flac Size: 11067021 Hash: 19D5A30D0E5659EA305F0806A33E2A49 Accuracy: -m0 Conclusion: CDDA 100% Signature: 7B71FFC906B80FCCB7F0EB1826424E777B08CF30FILE: 06 - Dvorak- Wiegenlied.flac Size: 6108120 Hash: 09257ADCF8CC72FB39F4A5FE1E78A5DC Accuracy: -m0 Conclusion: CDDA 100% Signature: 4C796E58BBDAA811563E1BAB23A31A0DE09962DCFILE: 05 - Hewitt- Shepherd's Lullaby.flac Size: 11774744 Hash: 0396C0BB03A8CD02F1802608DCE2BDA1 Accuracy: -m0 Conclusion: CDDA 100% Signature: 824CFCC0E576FEE84FCF701373F7245463A5D977FILE: 04 - Montsalvatge- Cancion de cuna para dormir a un negrito (Cradle Song).flac Size: 8499966 Hash: E6465C4A466047D855D0BFE182F271DA Accuracy: -m0 Conclusion: CDDA 100% Signature: 7E05B5A2BB7FD559A6C8B5DB4B0DE2D6696E0408FILE: 03 - Schumann- Wiegenlied, D.498.flac Size: 5391714 Hash: 0C2C7E08E00E8BE244A74568FF418A0C Accuracy: -m0 Conclusion: CDDA 100% Signature: ADD099F038E97B1F7DAC1ABA153CAB8352B730BEFILE: 02 - Schumann- Kinderszenen, Op.15 No.7- Traumerei.flac Size: 13276319 Hash: 95D543132C0113777215ED33EFD57240 Accuracy: -m0 Conclusion: CDDA 100% Signature: F0924B3C23495282CBFBDEB8FE74B334E73C81DBFILE: 01 - J.L. Webber- Song for Baba.flac Size: 9571514 Hash: 52C0401395216CFE7C3C018460D5202E Accuracy: -m0 Conclusion: CDDA 100% Signature: 31F2D1BC816AEA362689FF4CA92CF1CC6860F183

Об альбоме (сборнике)

This album provides a companion to Julian Lloyd Webber’s much admired “Cello Song” a couple of years ago (10/93), and once again he has skilfully managed to choose a sequence of pieces that retains the same overall mood without monotony – though that consideration may in any case not much worry someone seeking late-night ‘easy listening’. This attractive disc actually begins with a piece by Lloyd Webber – his first ever and written in 1992 for his six-week-old son David. Indeed, the inspiration for this whole album of lullabies is, he tells us, “the innocence of childhood” and the cellist also thinks it his “most personal recording”.
There are 21 tracks here and all are attractive music from, and for, a child’s world, though not everything is strictly speaking a cradle song. Lloyd Webber plays consistently with an ideal intimacy and care, and John Lenehan, who also composed the lullaby called Alice, is an excellent partner – though Richard Rodney Bennett and Pam Chowhan also participate in their own arrangements. The thoughtful and imaginative booklet-essay is on cradle songs generally and doesn’t attempt to deal with the individual pieces, but few purchasers of this disc will mind that. They will also not mind that the recording, close but not distractingly so, favours the lovely sound of Lloyd Webber’s cello. This attractive disc deserves to be very popular.



Показать сообщения:    

Текущее время: 10-Дек 23:29

Часовой пояс: UTC + 3


Вы не можете начинать темы
Вы не можете отвечать на сообщения
Вы не можете редактировать свои сообщения
Вы не можете удалять свои сообщения
Вы не можете голосовать в опросах
Вы не можете прикреплять файлы к сообщениям
Вы не можете скачивать файлы