(Classical) The String Quartet - Tribute To David Gray - 2007, FLAC (tracks+.cue) lossless


 

[Цитировать]

The String Quartet / Tribute To David Gray
Жанр: Classical
Страна-производитель диска: Russia
Год издания диска: 2007
Издатель (лейбл): WWW Records/Первое Музыкальное Издательство
Номер по каталогу: WWW-511CD/07
Страна: USA
Аудиокодек: FLAC
Тип рипа: tracks+.cue
Битрейт аудио: lossless
Продолжительность: 0:40:44
Источник: собственный рип
Наличие сканов в содержимом раздачи: да
Треклист:
01. Wisdom [0:03:18.09]
02. Babylon [0:03:54.35]
03. Sail Away [0:05:16.16]
04. Birds Without Wings [0:04:54.70]
05. Please Forgive Me [0:04:39.12]
06. Gathering Dust [0:04:15.17]
07. The Other Side [0:04:11.15]
08. Dead In The Water [0:03:06.31]
09. Nightblindness [0:04:21.23]
10. Just Dreaming (Original Composition) [0:02:47.68]

Лог создания рипа

Exact Audio Copy V1.0 beta 3 from 29. August 2011
Отчёт EAC об извлечении, выполненном 23. мая 2015, 0:08
The Strng Quartet / Tribute To David Gray
Дисковод: ASUS DRW-1814BLT Adapter: 4 ID: 0
Режим чтения : ДостоверностьИспользование точного потока : ДаОтключение кэша аудио : ДаИспользование указателей C2 : Нет
Коррекция смещения при чтении : 6Способность читать области Lead-in и Lead-out : НетЗаполнение пропущенных сэмплов тишиной : ДаУдаление блоков с тишиной в начале и конце : НетПри вычислениях CRC использовались нулевые сэмплы : ДаИнтерфейс : Встроенный Win32-интерфейс для Win NT/2000Обработка зазоров : Добавлено к предыдущему треку
Выходной формат : Пользовательский кодировщикВыбранный битрейт : 128 kBit/sКачество : ВысокийДобавление ID3-тега : НетУтилита сжатия : C:\Program Files\Exact Audio Copy\Flac\flac.exeДополнительные параметры : -V -8 -T "Genre=%genre%" -T "Artist=%artist%" -T "Title=%title%" -T "Album=%albumtitle%" -T "Date=%year%" -T "Tracknumber=%tracknr%" -T "Comment=EAC1.0b2 FLAC -8" %source%
TOC извлечённого CD
Трек | Старт | Длительность | Начальный сектор | Конечный сектор --------------------------------------------------------------------- 1 | 0:00.00 | 3:18.09 | 0 | 14858 2 | 3:18.09 | 3:54.35 | 14859 | 32443 3 | 7:12.44 | 5:16.16 | 32444 | 56159 4 | 12:28.60 | 4:54.70 | 56160 | 78279 5 | 17:23.55 | 4:39.12 | 78280 | 99216 6 | 22:02.67 | 4:15.17 | 99217 | 118358 7 | 26:18.09 | 4:11.15 | 118359 | 137198 8 | 30:29.24 | 3:06.31 | 137199 | 151179 9 | 33:35.55 | 4:21.23 | 151180 | 170777 10 | 37:57.03 | 2:47.68 | 170778 | 183370
Трек 1
Имя файла R:\Раздача 46\The String Quartet - 2007 - Trbute To David Gray\01 Wisdom.wav
Длина предзазора 0:00:02.00
Пиковый уровень 99.7 % Скорость извлечения 4.8 X Качество трека 100.0 % CRC теста F8DFB43D CRC копии F8DFB43D Точное извлечение (достоверность 1) [D3A21CEA] (AR v1) Копирование... OK
Трек 2
Имя файла R:\Раздача 46\The String Quartet - 2007 - Trbute To David Gray\02 Babylon.wav
Пиковый уровень 99.7 % Скорость извлечения 5.4 X Качество трека 100.0 % CRC теста 85A15EAC CRC копии 85A15EAC Точное извлечение (достоверность 1) [8ADD165E] (AR v1) Копирование... OK
Трек 3
Имя файла R:\Раздача 46\The String Quartet - 2007 - Trbute To David Gray\03 Sail Away.wav
Пиковый уровень 99.7 % Скорость извлечения 6.1 X Качество трека 100.0 % CRC теста D285F3A1 CRC копии D285F3A1 Точное извлечение (достоверность 1) [FAF5CF9D] (AR v1) Копирование... OK
Трек 4
Имя файла R:\Раздача 46\The String Quartet - 2007 - Trbute To David Gray\04 Birds Without Wings.wav
Пиковый уровень 99.7 % Скорость извлечения 6.6 X Качество трека 100.0 % CRC теста 53B92D9B CRC копии 53B92D9B Точное извлечение (достоверность 1) [8037D4CB] (AR v1) Копирование... OK
Трек 5
Имя файла R:\Раздача 46\The String Quartet - 2007 - Trbute To David Gray\05 Please Forgive Me.wav
Пиковый уровень 99.7 % Скорость извлечения 7.1 X Качество трека 100.0 % CRC теста 3758562D CRC копии 3758562D Точное извлечение (достоверность 1) [435C5459] (AR v1) Копирование... OK
Трек 6
Имя файла R:\Раздача 46\The String Quartet - 2007 - Trbute To David Gray\06 Gathering Dust.wav
Пиковый уровень 99.7 % Скорость извлечения 7.3 X Качество трека 100.0 % CRC теста A399953D CRC копии A399953D Точное извлечение (достоверность 1) [5C13CB55] (AR v1) Копирование... OK
Трек 7
Имя файла R:\Раздача 46\The String Quartet - 2007 - Trbute To David Gray\07 The Other Side.wav
Пиковый уровень 99.6 % Скорость извлечения 7.8 X Качество трека 100.0 % CRC теста F82A3198 CRC копии F82A3198 Точное извлечение (достоверность 1) [1D68996F] (AR v1) Копирование... OK
Трек 8
Имя файла R:\Раздача 46\The String Quartet - 2007 - Trbute To David Gray\08 Dead In The Water.wav
Пиковый уровень 99.7 % Скорость извлечения 7.5 X Качество трека 100.0 % CRC теста 0B5C08E5 CRC копии 0B5C08E5 Точное извлечение (достоверность 1) [B436825F] (AR v1) Копирование... OK
Трек 9
Имя файла R:\Раздача 46\The String Quartet - 2007 - Trbute To David Gray\09 Nightblindness.wav
Пиковый уровень 99.7 % Скорость извлечения 8.3 X Качество трека 100.0 % CRC теста A9A41B26 CRC копии A9A41B26 Точное извлечение (достоверность 1) [CD00DB81] (AR v1) Копирование... OK
Трек 10
Имя файла R:\Раздача 46\The String Quartet - 2007 - Trbute To David Gray\10 Just Dreaming (Original Composition).wav
Пиковый уровень 99.7 % Скорость извлечения 7.8 X Качество трека 100.0 % CRC теста 55A6D80A CRC копии 55A6D80A Точное извлечение (достоверность 1) [58101CF7] (AR v1) Копирование... OK
Все треки извлечены точно
Ошибок не произошло
Конец отчёта
==== Контрольная сумма отчёта 241A902A792D23649CE99C265746DEDA084A0BA073D6D472528AA7D338272047 ====

Содержание индексной карты (.CUE)

REM GENRE ClassicalREM DATE 2007REM DISCID 68098C0AREM COMMENT "ExactAudioCopy v1.0b3"PERFORMER "The Strng Quartet"TITLE "Tribute To David Gray"FILE "01 Wisdom.wav" WAVE TRACK 01 AUDIO TITLE "Wisdom" PERFORMER "The Strng Quartet" INDEX 01 00:00:00FILE "02 Babylon.wav" WAVE TRACK 02 AUDIO TITLE "Babylon" PERFORMER "The Strng Quartet" INDEX 01 00:00:00FILE "03 Sail Away.wav" WAVE TRACK 03 AUDIO TITLE "Sail Away" PERFORMER "The Strng Quartet" INDEX 01 00:00:00FILE "04 Birds Without Wings.wav" WAVE TRACK 04 AUDIO TITLE "Birds Without Wings" PERFORMER "The Strng Quartet" INDEX 01 00:00:00FILE "05 Please Forgive Me.wav" WAVE TRACK 05 AUDIO TITLE "Please Forgive Me" PERFORMER "The Strng Quartet" INDEX 01 00:00:00FILE "06 Gathering Dust.wav" WAVE TRACK 06 AUDIO TITLE "Gathering Dust" PERFORMER "The Strng Quartet" INDEX 01 00:00:00FILE "07 The Other Side.wav" WAVE TRACK 07 AUDIO TITLE "The Other Side" PERFORMER "The Strng Quartet" INDEX 01 00:00:00FILE "08 Dead In The Water.wav" WAVE TRACK 08 AUDIO TITLE "Dead In The Water" PERFORMER "The Strng Quartet" INDEX 01 00:00:00FILE "09 Nightblindness.wav" WAVE TRACK 09 AUDIO TITLE "Nightblindness" PERFORMER "The Strng Quartet" INDEX 01 00:00:00FILE "10 Just Dreaming (Original Composition).wav" WAVE TRACK 10 AUDIO TITLE "Just Dreaming (Original Composition)" PERFORMER "The Strng Quartet" INDEX 01 00:00:00

Состав

Sandra Kyung, Alex Wurmbrand, Audrey Solomon - Violin;
Alex Wong - Cello;
Eric Lea - Viola;
Woody Pak - Guitar.



Показать сообщения:    

Текущее время: 22-Янв 04:44

Часовой пояс: UTC + 3


Вы не можете начинать темы
Вы не можете отвечать на сообщения
Вы не можете редактировать свои сообщения
Вы не можете удалять свои сообщения
Вы не можете голосовать в опросах
Вы не можете прикреплять файлы к сообщениям
Вы не можете скачивать файлы