(Modern Classical, Vocal Jazz) VA - В джазе только классика - 2011, FLAC (tracks+.cue) lossless


 

[Цитировать]

В джазе только классика
Серия: Весь этот джаз
Жанр: Modern Classical, Vocal Jazz
Страна-производитель диска: РФ
Год издания диска: 2011
Издатель (лейбл): Би Смарт
Страна: Россия
Аудиокодек: FLAC
Тип рипа: image+.cue
Битрейт аудио: lossless
Продолжительность: 1:12:13.16
Источник: собственный рип
Наличие сканов в содержимом раздачи: да

ТреклистСодержание

01. The Modern Jazz Quartet, 'The Swingle Singers' - Air from Orchestral Suite number 3
02. The Glenn Miller Orchestra - Paraphrase on the choir of Roma from the 2nd act of the opera 'Il Trovatore'
03. Django Reinhardt, Quintette Du Hot Club De France - Norwegian dance from 1 s Notebook 'Lyric Pieces'
04. Duke Ellington And His Orchestra - Solveig's Song from the music to Ibsen's dramatic poem 'Peer Gynt'
05. The Glenn Miller Orchestra - Rhapsody in Blue (Part 2)
06. Duke Ellington And His Orchestra - Overture to the ballet-extravaganza 'The Nutcracker'
07. Ray Eberle, Jazz Orchestra Glenn Miller - Paraphrase on the 2nd part of the Symphony number 5
08. Frank Sinatra - Romance
09. Bing Crosby, John Scott Trotter & His Orchestra - Lullaby
10. Art Tatum - Humoresque, Op. 101 №7
11. Bobby McFerrin, Yo-Yo Ma - 'Flight of the Bumblebee' from the opera 'The Tale of Tsar Saltan'
12. Mark Ledford, Uri Caine Ensemble - 'I'm not angry' from the song cycle 'Poet's Love'
13. Perry Como, Ray Keith Orchestra - Polonaise in A flat major, Op. 53 № 6
14. Raymond Fol Jazz Orchestra - 'Autumn' from 'The Four Seasons', Op. 8 number 3, Part 1-I. Allegro
15. Bobby McFerrin, Yo-Yo Ma - Andante from Concerto for two mandolins in D Minor
16. 'The Swingle Singers' - 'Eine Kleine Nachtmusik' KV 525 Part 1, I, Allegro
17. Quincy Jones & His Orchestra - 'Hallelujah' from the oratorio 'Messiah'
18. Bill Evans, Claus Ogerman - Siciliana from Suite in E-flat Major for Flute and Basso Continuo
19. 'The Swingle Singers' - Largo from Concerto for Harpsichord in F Minor
20. The Modern Jazz Quartet - Prelude number 8 from the 'Well-Tempered Clavier'

Tracklist

CD: Various Artists - Some Like It classics [1:12:13.16]
01. The Modern Jazz Quartet, "The Swingle Singers" / Air from Orchestral Suite number 3 [0:05:39.37]02. The Glenn Miller Orchestra / Paraphrase on the choir of Roma from the 2nd act of the opera "Il Trovatore" [0:03:51.04]03. Django Reinhardt, Quintette Du Hot Club De France / Norwegian dance from 1 s Notebook "Lyric Pieces" [0:02:59.54]04. Duke Ellington And His Orchestra / Solveig's Song from the music to Ibsen's dramatic poem "Peer Gynt" [0:04:00.73]05. The Glenn Miller Orchestra / Rhapsody in Blue (Part 2) [0:03:03.63]06. Duke Ellington And His Orchestra / Overture to the ballet-extravaganza "The Nutcracker" [0:03:23.31]07. Ray Eberle, Jazz Orchestra Glenn Miller / Paraphrase on the 2nd part of the Symphony number 5 [0:02:54.21]08. Frank Sinatra / Romance [0:03:52.40]09. Bing Crosby, John Scott Trotter & His Orchestra / Lullaby [0:02:48.49]10. Art Tatum / Humoresque, Op. 101 №7 [0:03:06.28]11. Bobby McFerrin, Yo-Yo Ma / "Flight of the Bumblebee" from the opera "The Tale of Tsar Saltan" [0:01:07.67]12. Mark Ledford, Uri Caine Ensemble / "I'm not angry" from the song cycle "Poet's Love" [0:02:48.07]13. Perry Como, Ray Keith Orchestra / Polonaise in A flat major, Op. 53 № 6 [0:03:11.03]14. Raymond Fol Jazz Orchestra / "Autumn" from "The Four Seasons", Op. 8 number 3, Part 1-I. Allegro [0:03:02.63]15. Bobby McFerrin, Yo-Yo Ma / Andante from Concerto for two mandolins in D Minor [0:04:01.20]16. "The Swingle Singers" / "Eine Kleine Nachtmusik" KV 525 Part 1, I, Allegro [0:03:23.18]17. Quincy Jones & His Orchestra / "Hallelujah" from the oratorio "Messiah" [0:05:41.48]18. Bill Evans, Claus Ogerman / Siciliana from Suite in E-flat Major for Flute and Basso Continuo [0:05:49.74]19. "The Swingle Singers" / Largo from Concerto for Harpsichord in F Minor [0:03:01.47]20. The Modern Jazz Quartet / Prelude number 8 from the "Well-Tempered Clavier" [0:04:25.19]

Лог создания рипа

Exact Audio Copy V1.0 beta 4 from 7. December 2014
Отчёт EAC об извлечении, выполненном 6. апреля 2015, 13:14
Various Artists / Some Like It classics
Дисковод: HL-DT-STDVDRAM GUA0N Adapter: 1 ID: 0
Режим чтения : ДостоверностьИспользование точного потока : ДаОтключение кэша аудио : ДаИспользование указателей C2 : Нет
Коррекция смещения при чтении : 6Способность читать области Lead-in и Lead-out : НетЗаполнение пропущенных сэмплов тишиной : ДаУдаление блоков с тишиной в начале и конце : НетПри вычислениях CRC использовались нулевые сэмплы : ДаИнтерфейс : Встроенный Win32-интерфейс для Win NT/2000
Выходной формат : Пользовательский кодировщикВыбранный битрейт : 768 kBit/sКачество : ВысокийДобавление ID3-тега : НетУтилита сжатия : C:\Program Files (x86)\Exact Audio Copy\FLAC\FLAC.EXEДополнительные параметры : -6 -V -T "ARTIST=%artist%" -T "TITLE=%title%" -T "ALBUM=%albumtitle%" -T "DATE=%year%" -T "TRACKNUMBER=%tracknr%" -T "GENRE=%genre%" -T "COMMENT=%comment%" -T "BAND=%albuminterpret%" -T "ALBUMARTIST=%albuminterpret%" -T "COMPOSER=%composer%" %haslyrics%--tag-from-file=LYRICS="%lyricsfile%"%haslyrics% -T "DISCNUMBER=%cdnumber%" -T "TOTALDISCS=%totalcds%" -T "TOTALTRACKS=%numtracks%" %hascover%--picture="%coverfile%"%hascover% %source% -o %dest%
TOC извлечённого CD
Трек | Старт | Длительность | Начальный сектор | Конечный сектор --------------------------------------------------------------------- 1 | 0:00.00 | 5:39.37 | 0 | 25461 2 | 5:39.37 | 3:51.04 | 25462 | 42790 3 | 9:30.41 | 2:59.54 | 42791 | 56269 4 | 12:30.20 | 4:00.73 | 56270 | 74342 5 | 16:31.18 | 3:03.63 | 74343 | 88130 6 | 19:35.06 | 3:23.31 | 88131 | 103386 7 | 22:58.37 | 2:54.21 | 103387 | 116457 8 | 25:52.58 | 3:52.40 | 116458 | 133897 9 | 29:45.23 | 2:48.49 | 133898 | 146546 10 | 32:33.72 | 3:06.28 | 146547 | 160524 11 | 35:40.25 | 1:07.67 | 160525 | 165616 12 | 36:48.17 | 2:48.07 | 165617 | 178223 13 | 39:36.24 | 3:11.03 | 178224 | 192551 14 | 42:47.27 | 3:02.63 | 192552 | 206264 15 | 45:50.15 | 4:01.20 | 206265 | 224359 16 | 49:51.35 | 3:23.18 | 224360 | 239602 17 | 53:14.53 | 5:41.48 | 239603 | 265225 18 | 58:56.26 | 5:49.74 | 265226 | 291474 19 | 64:46.25 | 3:01.47 | 291475 | 305096 20 | 67:47.72 | 4:25.19 | 305097 | 324990
Характеристики диапазона извлечения и сообщения об ошибках
Выбранный диапазон
Имя файла E:\EAC\Various Artists - Some Like It classics.wav
Пиковый уровень 98.8 % Скорость извлечения 4.9 X Качество диапазона 100.0 % CRC теста 7D52FD5B CRC копии 7D52FD5B Копирование... OK
Ошибок не произошло
AccurateRip: сводка
Трек 1 отсутствует в базе данныхТрек 2 отсутствует в базе данныхТрек 3 отсутствует в базе данныхТрек 4 отсутствует в базе данныхТрек 5 отсутствует в базе данныхТрек 6 отсутствует в базе данныхТрек 7 отсутствует в базе данныхТрек 8 отсутствует в базе данныхТрек 9 отсутствует в базе данныхТрек 10 отсутствует в базе данныхТрек 11 отсутствует в базе данныхТрек 12 отсутствует в базе данныхТрек 13 отсутствует в базе данныхТрек 14 отсутствует в базе данныхТрек 15 отсутствует в базе данныхТрек 16 отсутствует в базе данныхТрек 17 отсутствует в базе данныхТрек 18 отсутствует в базе данныхТрек 19 отсутствует в базе данныхТрек 20 отсутствует в базе данных
Ни одного трека нет в базе AccurateRip
Конец отчёта
==== Контрольная сумма отчёта BC13693063FFBF6F11195575709C19D5247AC46E532D1F9FD4C97A5D627098B1 ====

Содержание индексной карты (.CUE)

REM GENRE ClassicalREM DATE 2011REM DISCID 4510ED14REM COMMENT "ExactAudioCopy v1.0b4"CATALOG 0000000000000PERFORMER "Various Artists"TITLE "Some Like It classics"FILE "Various Artists - Some Like It classics.flac" WAVE TRACK 01 AUDIO TITLE "Air from Orchestral Suite number 3" PERFORMER "The Modern Jazz Quartet, 'The Swingle Singers'" FLAGS DCP INDEX 01 00:00:00 TRACK 02 AUDIO TITLE "Paraphrase on the choir of Roma from the 2nd act of the opera 'Il Trovatore'" PERFORMER "The Glenn Miller Orchestra" FLAGS DCP INDEX 01 05:39:37 TRACK 03 AUDIO TITLE "Norwegian dance from 1 s Notebook 'Lyric Pieces'" PERFORMER "Django Reinhardt, Quintette Du Hot Club De France" FLAGS DCP INDEX 01 09:30:41 TRACK 04 AUDIO TITLE "Solveig's Song from the music to Ibsen's dramatic poem 'Peer Gynt'" PERFORMER "Duke Ellington And His Orchestra" FLAGS DCP INDEX 01 12:30:20 TRACK 05 AUDIO TITLE "Rhapsody in Blue (Part 2)" PERFORMER "The Glenn Miller Orchestra" FLAGS DCP INDEX 01 16:31:18 TRACK 06 AUDIO TITLE "Overture to the ballet-extravaganza 'The Nutcracker'" PERFORMER "Duke Ellington And His Orchestra" FLAGS DCP INDEX 01 19:35:06 TRACK 07 AUDIO TITLE "Paraphrase on the 2nd part of the Symphony number 5" PERFORMER "Ray Eberle, Jazz Orchestra Glenn Miller" FLAGS DCP INDEX 01 22:58:37 TRACK 08 AUDIO TITLE "Romance" PERFORMER "Frank Sinatra" FLAGS DCP INDEX 01 25:52:58 TRACK 09 AUDIO TITLE "Lullaby" PERFORMER "Bing Crosby, John Scott Trotter & His Orchestra" FLAGS DCP INDEX 01 29:45:23 TRACK 10 AUDIO TITLE "Humoresque, Op. 101 №7" PERFORMER "Art Tatum" FLAGS DCP INDEX 01 32:33:72 TRACK 11 AUDIO TITLE "'Flight of the Bumblebee' from the opera 'The Tale of Tsar Saltan'" PERFORMER "Bobby McFerrin, Yo-Yo Ma" FLAGS DCP INDEX 01 35:40:25 TRACK 12 AUDIO TITLE "'I'm not angry' from the song cycle 'Poet's Love'" PERFORMER "Mark Ledford, Uri Caine Ensemble" FLAGS DCP INDEX 01 36:48:17 TRACK 13 AUDIO TITLE "Polonaise in A flat major, Op. 53 № 6" PERFORMER "Perry Como, Ray Keith Orchestra" FLAGS DCP INDEX 01 39:36:24 TRACK 14 AUDIO TITLE "'Autumn' from 'The Four Seasons', Op. 8 number 3, Part 1-I. Allegro" PERFORMER "Raymond Fol Jazz Orchestra" FLAGS DCP INDEX 01 42:47:27 TRACK 15 AUDIO TITLE "Andante from Concerto for two mandolins in D Minor" PERFORMER "Bobby McFerrin, Yo-Yo Ma" FLAGS DCP INDEX 01 45:50:15 TRACK 16 AUDIO TITLE "'Eine Kleine Nachtmusik' KV 525 Part 1, I, Allegro" PERFORMER "'The Swingle Singers'" FLAGS DCP INDEX 01 49:51:35 TRACK 17 AUDIO TITLE "'Hallelujah' from the oratorio 'Messiah'" PERFORMER "Quincy Jones & His Orchestra" FLAGS DCP INDEX 01 53:14:53 TRACK 18 AUDIO TITLE "Siciliana from Suite in E-flat Major for Flute and Basso Continuo" PERFORMER "Bill Evans, Claus Ogerman" FLAGS DCP INDEX 01 58:56:26 TRACK 19 AUDIO TITLE "Largo from Concerto for Harpsichord in F Minor" PERFORMER "'The Swingle Singers'" FLAGS DCP INDEX 01 64:46:25 TRACK 20 AUDIO TITLE "Prelude number 8 from the 'Well-Tempered Clavier'" PERFORMER "The Modern Jazz Quartet" FLAGS DCP INDEX 01 67:47:72

Лог проверки качества

-----------------------
DON'T MODIFY THIS FILE
-----------------------
PERFORMER: auCDtect Task Manager, ver. 1.6.0 RC1 build 1.6.0.1Copyright (c) 2008-2010 y-soft. All rights reservedhttp://y-soft.org
ANALYZER: auCDtect: CD records authenticity detector, version 0.8.2Copyright (c) 2004 Oleg Berngardt. All rights reserved.Copyright (c) 2004 Alexander Djourik. All rights reserved.
FILE: Various Artists - Some Like It classics.flac Size: 381161647 Hash: 00E444A0041B91CB8E8DE2740EA5C424 Accuracy: -m0 Conclusion: CDDA 100% Signature: 8043619ED27B7D3FB19F7EAA521033356A9C51BC
Состав">

Скриншот спектра частот Состав


С. Кентон, Д. Эллингтон, Г. Миллер, Ф. Синатра, Б. Кросби...



Показать сообщения:    

Текущее время: 03-Дек 05:29

Часовой пояс: UTC + 3


Вы не можете начинать темы
Вы не можете отвечать на сообщения
Вы не можете редактировать свои сообщения
Вы не можете удалять свои сообщения
Вы не можете голосовать в опросах
Вы не можете прикреплять файлы к сообщениям
Вы не можете скачивать файлы