(Celtic, Classical Crossover, New Age, Vocal) Affiniti - A Celtic Awakening - 2014, FLAC (tracks+.cue) lossless


 

[Цитировать]

Affiniti / A Celtic Awakening
Жанр: Celtic, Classical Crossover, New Age, Vocal
Страна-производитель диска: Ireland
Год издания диска: 2014
Страна: Ирландия
Аудиокодек: FLAC
Тип рипа: tracks+.cue
Битрейт аудио: lossless
Продолжительность: 0:48:18
Источник: CD
Треклист:
01 - The Voiсe.flac
02 - Ciablan of the Curling Hair.flac
03 - Suantrai an tEarrach Thiar.flac
04 - Deeper Blue.flac
05 - Goltrai- Caillteanas na hEireann.flac
06 - S-N-N Slip Jig for Shannon.flac
07 - Geanntrai- Shannon`s Steams.flac
08 - Tennessee Waltz.flac
09 - One I had a sweetheart , She Moved Through the Fair.flac
10 - Inisheer.flac
11 - Lake Isle of Inisfree.flac
12 - Caoineadh Luimni.flac
13 - Last Rose of Summer.flac
14 - Falling Slowly.flac

Лог создания рипа

Exact Audio Copy V1.0 beta 3 from 29. August 2011
Отчёт EAC об извлечении, выполненном 17. февраля 2015, 7:45
Affiniti / A Celtic Awakening
Дисковод: HL-DT-STBDDVDRW GGC-H20L Adapter: 3 ID: 0
Режим чтения : ДостоверностьИспользование точного потока : ДаОтключение кэша аудио : ДаИспользование указателей C2 : Нет
Коррекция смещения при чтении : 667Способность читать области Lead-in и Lead-out : НетЗаполнение пропущенных сэмплов тишиной : ДаУдаление блоков с тишиной в начале и конце : НетПри вычислениях CRC использовались нулевые сэмплы : ДаИнтерфейс : Встроенный Win32-интерфейс для Win NT/2000Обработка зазоров : Добавлено к предыдущему треку
Выходной формат : Пользовательский кодировщикВыбранный битрейт : 1024 kBit/sКачество : ВысокийДобавление ID3-тега : НетУтилита сжатия : C:\Program Files (x86)\Exact Audio Copy\FLAC\FLAC.EXEДополнительные параметры : -V -8 -T "Date=%year%" -T "Genre=%genre%" %source%
TOC извлечённого CD
Трек | Старт | Длительность | Начальный сектор | Конечный сектор --------------------------------------------------------------------- 1 | 0:00.00 | 3:30.10 | 0 | 15759 2 | 3:30.10 | 3:02.71 | 15760 | 29480 3 | 6:33.06 | 3:32.62 | 29481 | 45442 4 | 10:05.68 | 1:40.23 | 45443 | 52965 5 | 11:46.16 | 3:42.10 | 52966 | 69625 6 | 15:28.26 | 3:06.10 | 69626 | 83585 7 | 18:34.36 | 3:04.34 | 83586 | 97419 8 | 21:38.70 | 3:13.13 | 97420 | 111907 9 | 24:52.08 | 4:20.61 | 111908 | 131468 10 | 29:12.69 | 2:46.28 | 131469 | 143946 11 | 31:59.22 | 3:55.49 | 143947 | 161620 12 | 35:54.71 | 3:18.10 | 161621 | 176480 13 | 39:13.06 | 4:08.40 | 176481 | 195120 14 | 43:21.46 | 4:56.10 | 195121 | 217330
Трек 1
Имя файла E:\DOWNLOAD\EAC+Temp\01 - Трек01.wav
Длина предзазора 0:00:02.00
Пиковый уровень 100.0 % Скорость извлечения 3.9 X Качество трека 99.9 % CRC теста AAC5792D CRC копии AAC5792D Трек не обнаружен в базе AccurateRip Копирование... OK
Трек 2
Имя файла E:\DOWNLOAD\EAC+Temp\02 - Трек02.wav
Длина предзазора 0:00:02.00
Пиковый уровень 98.2 % Скорость извлечения 4.0 X Качество трека 99.9 % CRC теста 0E1170F8 CRC копии 0E1170F8 Трек не обнаружен в базе AccurateRip Копирование... OK
Трек 3
Имя файла E:\DOWNLOAD\EAC+Temp\03 - Трек03.wav
Длина предзазора 0:00:02.00
Пиковый уровень 100.0 % Скорость извлечения 4.6 X Качество трека 99.9 % CRC теста 3B14F1FF CRC копии 3B14F1FF Трек не обнаружен в базе AccurateRip Копирование... OK
Трек 4
Имя файла E:\DOWNLOAD\EAC+Temp\04 - Трек04.wav
Длина предзазора 0:00:02.00
Пиковый уровень 100.0 % Скорость извлечения 4.7 X Качество трека 100.0 % CRC теста DB2399BC CRC копии DB2399BC Трек не обнаружен в базе AccurateRip Копирование... OK
Трек 5
Имя файла E:\DOWNLOAD\EAC+Temp\05 - Трек05.wav
Длина предзазора 0:00:02.00
Пиковый уровень 99.3 % Скорость извлечения 5.8 X Качество трека 100.0 % CRC теста C6A14C07 CRC копии C6A14C07 Трек не обнаружен в базе AccurateRip Копирование... OK
Трек 6
Имя файла E:\DOWNLOAD\EAC+Temp\06 - Трек06.wav
Длина предзазора 0:00:02.00
Пиковый уровень 100.0 % Скорость извлечения 5.9 X Качество трека 100.0 % CRC теста 9407B9F4 CRC копии 9407B9F4 Трек не обнаружен в базе AccurateRip Копирование... OK
Трек 7
Имя файла E:\DOWNLOAD\EAC+Temp\07 - Трек07.wav
Длина предзазора 0:00:02.00
Пиковый уровень 100.0 % Скорость извлечения 6.1 X Качество трека 100.0 % CRC теста F19E8076 CRC копии F19E8076 Трек не обнаружен в базе AccurateRip Копирование... OK
Трек 8
Имя файла E:\DOWNLOAD\EAC+Temp\08 - Трек08.wav
Длина предзазора 0:00:02.00
Пиковый уровень 95.1 % Скорость извлечения 5.5 X Качество трека 99.9 % CRC теста 67417015 CRC копии 67417015 Трек не обнаружен в базе AccurateRip Копирование... OK
Трек 9
Имя файла E:\DOWNLOAD\EAC+Temp\09 - Трек09.wav
Длина предзазора 0:00:02.00
Пиковый уровень 99.6 % Скорость извлечения 7.0 X Качество трека 100.0 % CRC теста 5D80036B CRC копии 5D80036B Трек не обнаружен в базе AccurateRip Копирование... OK
Трек 10
Имя файла E:\DOWNLOAD\EAC+Temp\10 - Трек10.wav
Длина предзазора 0:00:02.00
Пиковый уровень 98.7 % Скорость извлечения 6.9 X Качество трека 100.0 % CRC теста 2124CFF2 CRC копии 2124CFF2 Трек не обнаружен в базе AccurateRip Копирование... OK
Трек 11
Имя файла E:\DOWNLOAD\EAC+Temp\11 - Трек11.wav
Длина предзазора 0:00:02.00
Пиковый уровень 100.0 % Скорость извлечения 7.4 X Качество трека 100.0 % CRC теста 2DD08366 CRC копии 2DD08366 Трек не обнаружен в базе AccurateRip Копирование... OK
Трек 12
Имя файла E:\DOWNLOAD\EAC+Temp\12 - Трек12.wav
Длина предзазора 0:00:02.00
Пиковый уровень 85.5 % Скорость извлечения 7.4 X Качество трека 100.0 % CRC теста F0841BD3 CRC копии F0841BD3 Трек не обнаружен в базе AccurateRip Копирование... OK
Трек 13
Имя файла E:\DOWNLOAD\EAC+Temp\13 - Трек13.wav
Длина предзазора 0:00:02.00
Пиковый уровень 92.1 % Скорость извлечения 7.8 X Качество трека 100.0 % CRC теста 2898818C CRC копии 2898818C Трек не обнаружен в базе AccurateRip Копирование... OK
Трек 14
Имя файла E:\DOWNLOAD\EAC+Temp\14 - Трек14.wav
Длина предзазора 0:00:02.00
Пиковый уровень 99.7 % Скорость извлечения 7.8 X Качество трека 99.9 % CRC теста C25F6D74 CRC копии C25F6D74 Трек не обнаружен в базе AccurateRip Копирование... OK
Ни одного трека нет в базе AccurateRip
Ошибок не произошло
Конец отчёта
==== Контрольная сумма отчёта 57B3956B069E5517ED74186D14ED8E19D054E060EF570A1A2E2F7D4FD0E657DF ====
------------------------------------------------------------
Exact Audio Copy V1.0 beta 3 from 29. August 2011
Отчёт EAC об извлечении, выполненном 17. февраля 2015, 9:13
Affiniti / A Celtic Awakening
Дисковод: HL-DT-STBDDVDRW GGC-H20L Adapter: 3 ID: 0
Режим чтения : ДостоверностьИспользование точного потока : ДаОтключение кэша аудио : ДаИспользование указателей C2 : Нет
Коррекция смещения при чтении : 667Способность читать области Lead-in и Lead-out : НетЗаполнение пропущенных сэмплов тишиной : ДаУдаление блоков с тишиной в начале и конце : НетПри вычислениях CRC использовались нулевые сэмплы : ДаИнтерфейс : Встроенный Win32-интерфейс для Win NT/2000Обработка зазоров : Добавлено к предыдущему треку
Выходной формат : Пользовательский кодировщикВыбранный битрейт : 1024 kBit/sКачество : ВысокийДобавление ID3-тега : НетУтилита сжатия : C:\Program Files (x86)\Exact Audio Copy\FLAC\FLAC.EXEДополнительные параметры : -V -8 -T "Date=%year%" -T "Genre=%genre%" %source%
TOC извлечённого CD
Трек | Старт | Длительность | Начальный сектор | Конечный сектор --------------------------------------------------------------------- 1 | 0:00.00 | 3:30.10 | 0 | 15759 2 | 3:30.10 | 3:02.71 | 15760 | 29480 3 | 6:33.06 | 3:32.62 | 29481 | 45442 4 | 10:05.68 | 1:40.23 | 45443 | 52965 5 | 11:46.16 | 3:42.10 | 52966 | 69625 6 | 15:28.26 | 3:06.10 | 69626 | 83585 7 | 18:34.36 | 3:04.34 | 83586 | 97419 8 | 21:38.70 | 3:13.13 | 97420 | 111907 9 | 24:52.08 | 4:20.61 | 111908 | 131468 10 | 29:12.69 | 2:46.28 | 131469 | 143946 11 | 31:59.22 | 3:55.49 | 143947 | 161620 12 | 35:54.71 | 3:18.10 | 161621 | 176480 13 | 39:13.06 | 4:08.40 | 176481 | 195120 14 | 43:21.46 | 4:56.10 | 195121 | 217330
Трек 1
Имя файла E:\DOWNLOAD\EAC+Temp\01 - The Voiсe.wav
Длина предзазора 0:00:02.00
Пиковый уровень 100.0 % Скорость извлечения 3.9 X Качество трека 99.9 % CRC теста AAC5792D CRC копии AAC5792D Трек не обнаружен в базе AccurateRip Копирование... OK
Трек 2
Имя файла E:\DOWNLOAD\EAC+Temp\02 - Ciablan of the Curling Hair.wav
Длина предзазора 0:00:02.00
Пиковый уровень 98.2 % Скорость извлечения 4.0 X Качество трека 99.9 % CRC теста 0E1170F8 CRC копии 0E1170F8 Трек не обнаружен в базе AccurateRip Копирование... OK
Трек 3
Имя файла E:\DOWNLOAD\EAC+Temp\03 - Suantrai an tEarrach Thiar.wav
Длина предзазора 0:00:02.00
Пиковый уровень 100.0 % Скорость извлечения 4.6 X Качество трека 99.9 % CRC теста 3B14F1FF CRC копии 3B14F1FF Трек не обнаружен в базе AccurateRip Копирование... OK
Трек 4
Имя файла E:\DOWNLOAD\EAC+Temp\04 - Deeper Blue.wav
Длина предзазора 0:00:02.00
Пиковый уровень 100.0 % Скорость извлечения 4.7 X Качество трека 100.0 % CRC теста DB2399BC CRC копии DB2399BC Трек не обнаружен в базе AccurateRip Копирование... OK
Трек 5
Имя файла E:\DOWNLOAD\EAC+Temp\05 - Goltrai- Caillteanas na hEireann.wav
Длина предзазора 0:00:02.00
Пиковый уровень 99.3 % Скорость извлечения 5.8 X Качество трека 100.0 % CRC теста C6A14C07 CRC копии C6A14C07 Трек не обнаружен в базе AccurateRip Копирование... OK
Трек 6
Имя файла E:\DOWNLOAD\EAC+Temp\06 - S-N-N Slip Jig for Shannon.wav
Длина предзазора 0:00:02.00
Пиковый уровень 100.0 % Скорость извлечения 5.9 X Качество трека 100.0 % CRC теста 9407B9F4 CRC копии 9407B9F4 Трек не обнаружен в базе AccurateRip Копирование... OK
Трек 7
Имя файла E:\DOWNLOAD\EAC+Temp\07 - Geanntrai- Shannon`s Steams.wav
Длина предзазора 0:00:02.00
Пиковый уровень 100.0 % Скорость извлечения 6.1 X Качество трека 100.0 % CRC теста F19E8076 CRC копии F19E8076 Трек не обнаружен в базе AccurateRip Копирование... OK
Трек 8
Имя файла E:\DOWNLOAD\EAC+Temp\08 - Tennessee Waltz.wav
Длина предзазора 0:00:02.00
Пиковый уровень 95.1 % Скорость извлечения 5.5 X Качество трека 99.9 % CRC теста 67417015 CRC копии 67417015 Трек не обнаружен в базе AccurateRip Копирование... OK
Трек 9
Имя файла E:\DOWNLOAD\EAC+Temp\09 - One I had a sweetheart , She Moved Through the Fair.wav
Длина предзазора 0:00:02.00
Пиковый уровень 99.6 % Скорость извлечения 7.1 X Качество трека 100.0 % CRC теста 5D80036B CRC копии 5D80036B Трек не обнаружен в базе AccurateRip Копирование... OK
Трек 10
Имя файла E:\DOWNLOAD\EAC+Temp\10 - Inisheer.wav
Длина предзазора 0:00:02.00
Пиковый уровень 98.7 % Скорость извлечения 6.9 X Качество трека 100.0 % CRC теста 2124CFF2 CRC копии 2124CFF2 Трек не обнаружен в базе AccurateRip Копирование... OK
Трек 11
Имя файла E:\DOWNLOAD\EAC+Temp\11 - Lake Isle of Inisfree.wav
Длина предзазора 0:00:02.00
Пиковый уровень 100.0 % Скорость извлечения 7.3 X Качество трека 100.0 % CRC теста 2DD08366 CRC копии 2DD08366 Трек не обнаружен в базе AccurateRip Копирование... OK
Трек 12
Имя файла E:\DOWNLOAD\EAC+Temp\12 - Caoineadh Luimni.wav
Длина предзазора 0:00:02.00
Пиковый уровень 85.5 % Скорость извлечения 7.5 X Качество трека 100.0 % CRC теста F0841BD3 CRC копии F0841BD3 Трек не обнаружен в базе AccurateRip Копирование... OK
Трек 13
Имя файла E:\DOWNLOAD\EAC+Temp\13 - Last Rose of Summer.wav
Длина предзазора 0:00:02.00
Пиковый уровень 92.1 % Скорость извлечения 7.9 X Качество трека 100.0 % CRC теста 2898818C CRC копии 2898818C Трек не обнаружен в базе AccurateRip Копирование... OK
Трек 14
Имя файла E:\DOWNLOAD\EAC+Temp\14 - Falling Slowly.wav
Длина предзазора 0:00:02.00
Пиковый уровень 99.7 % Скорость извлечения 7.8 X Качество трека 99.9 % CRC теста C25F6D74 CRC копии C25F6D74 Трек не обнаружен в базе AccurateRip Копирование... OK
Ни одного трека нет в базе AccurateRip
Ошибок не произошло
Конец отчёта
==== Контрольная сумма отчёта 7F75DFF17959E6D0199C7AE23AEF16125123F63696D6C3F75E5232FFF285E348 ====

Содержание индексной карты (.CUE)

REM GENRE CelticREM DATE 2014REM DISCID A50B510EREM COMMENT "ExactAudioCopy v1.0b3"PERFORMER "Affiniti"TITLE "A Celtic Awakening "FILE "01 - The Voiсe.wav" WAVE TRACK 01 AUDIO TITLE "The Voiсe" PERFORMER "Affiniti" ISRC IEBVO1400015 INDEX 01 00:00:00 TRACK 02 AUDIO TITLE "Ciablan of the Curling Hair" PERFORMER "Affiniti" ISRC IEBVO1400016 INDEX 00 03:28:10FILE "02 - Ciablan of the Curling Hair.wav" WAVE INDEX 01 00:00:00 TRACK 03 AUDIO TITLE "Suantrai an tEarrach Thiar" PERFORMER "Affiniti" ISRC IEBVO1400017 INDEX 00 03:00:71FILE "03 - Suantrai an tEarrach Thiar.wav" WAVE INDEX 01 00:00:00 TRACK 04 AUDIO TITLE "Deeper Blue" PERFORMER "Affiniti" ISRC IEBVO1400018 INDEX 00 03:30:62FILE "04 - Deeper Blue.wav" WAVE INDEX 01 00:00:00 TRACK 05 AUDIO TITLE "Goltrai: Caillteanas na hEireann" PERFORMER "Affiniti" ISRC IEBVO1400019 INDEX 00 01:38:23FILE "05 - Goltrai- Caillteanas na hEireann.wav" WAVE INDEX 01 00:00:00 TRACK 06 AUDIO TITLE "S-N-N Slip Jig for Shannon" PERFORMER "Affiniti" ISRC IEBVO1400020 INDEX 00 03:40:10FILE "06 - S-N-N Slip Jig for Shannon.wav" WAVE INDEX 01 00:00:00 TRACK 07 AUDIO TITLE "Geanntrai: Shannon`s Steams" PERFORMER "Affiniti" ISRC IEBVO1400021 INDEX 00 03:04:10FILE "07 - Geanntrai- Shannon`s Steams.wav" WAVE INDEX 01 00:00:00 TRACK 08 AUDIO TITLE "Tennessee Waltz" PERFORMER "Affiniti" ISRC IEBVO1400022 INDEX 00 03:02:34FILE "08 - Tennessee Waltz.wav" WAVE INDEX 01 00:00:00 TRACK 09 AUDIO TITLE "One I had a sweetheart / She Moved Through the Fair" PERFORMER "Affiniti" ISRC IEBVO1400023 INDEX 00 03:11:13FILE "09 - One I had a sweetheart , She Moved Through the Fair.wav" WAVE INDEX 01 00:00:00 TRACK 10 AUDIO TITLE "Inisheer" PERFORMER "Affiniti" ISRC IEBVO1400024 INDEX 00 04:18:61FILE "10 - Inisheer.wav" WAVE INDEX 01 00:00:00 TRACK 11 AUDIO TITLE "Lake Isle of Inisfree" PERFORMER "Affiniti" ISRC IEBVO1400025 INDEX 00 02:44:28FILE "11 - Lake Isle of Inisfree.wav" WAVE INDEX 01 00:00:00 TRACK 12 AUDIO TITLE "Caoineadh Luimni" PERFORMER "Affiniti" ISRC IEBVO1400026 INDEX 00 03:53:49FILE "12 - Caoineadh Luimni.wav" WAVE INDEX 01 00:00:00 TRACK 13 AUDIO TITLE "Last Rose of Summer" PERFORMER "Affiniti" ISRC IEBVO1400027 INDEX 00 03:16:10FILE "13 - Last Rose of Summer.wav" WAVE INDEX 01 00:00:00 TRACK 14 AUDIO TITLE "Falling Slowly" PERFORMER "Affiniti" ISRC IEBVO1400028 INDEX 00 04:06:40FILE "14 - Falling Slowly.wav" WAVE INDEX 01 00:00:00

Скриншот спектра частот

URL=http://fastpic.ru/] [/URL]

Об исполнителе (группе)

http://www.affinitimusic.com/

Состав

Emer Barry (soprano), Aisling Ennis (harp), Mary McCague (violin)



Показать сообщения:    

Текущее время: 09-Дек 18:26

Часовой пояс: UTC + 3


Вы не можете начинать темы
Вы не можете отвечать на сообщения
Вы не можете редактировать свои сообщения
Вы не можете удалять свои сообщения
Вы не можете голосовать в опросах
Вы не можете прикреплять файлы к сообщениям
Вы не можете скачивать файлы