(Classical Crossover, New Age, Vocal) Laura Wright - Sound Of Strength - 2014, FLAC (tracks+.cue) lossless


 

[Цитировать]

Laura Wright / Sound Of Strength
Жанр: Classical Crossover, New Age, Vocal
Страна-производитель диска: Netherlands
Год издания диска: 2014
Издатель (лейбл): Universal musiс group
Номер по каталогу: 0028948112128
Страна: Великобритания
Аудиокодек: FLAC
Тип рипа: tracks+.cue
Битрейт аудио: lossless
Источник: CD
Наличие сканов в содержимом раздачи: нет
Треклист:
01 - Bingen ! O Euchari In Leta Via.flac
02 - Barber ! Barber's Agnus Dei , The Sound Of Strength.flac
03 - Invincible.flac
04 - Beethoven ! Symphony No. 7 In A Major, Allegretto.flac
05 - Mascagni ! Intermezzo From Cavalleria Rusticana.flac
06 - Puccini ! Nessun Dorma (Dalla Turandot).flac
07 - Dalla ! Caruso.flac
08 - Beethoven ! Moonlight Sonata- Piano Sonata No. 14 In C# Minor ''Quasi Una Fantasia''.flac
09 - Pachabel ! Canon In D.flac
10 - With You.flac
11 - Handel ! Sarabande.flac
12 - Purcell ! Dido's Lament- When I Am Laid In Earth.flac

Лог создания рипа

Exact Audio Copy V1.0 beta 3 from 29. August 2011
Отчёт EAC об извлечении, выполненном 16. февраля 2015, 21:18
Laura Wright / 2014 - Sound Of Strength
Дисковод: HL-DT-STBDDVDRW GGC-H20L Adapter: 3 ID: 0
Режим чтения : ДостоверностьИспользование точного потока : ДаОтключение кэша аудио : ДаИспользование указателей C2 : Нет
Коррекция смещения при чтении : 667Способность читать области Lead-in и Lead-out : НетЗаполнение пропущенных сэмплов тишиной : ДаУдаление блоков с тишиной в начале и конце : НетПри вычислениях CRC использовались нулевые сэмплы : ДаИнтерфейс : Встроенный Win32-интерфейс для Win NT/2000
Выходной формат : Пользовательский кодировщикВыбранный битрейт : 1024 kBit/sКачество : ВысокийДобавление ID3-тега : НетУтилита сжатия : C:\Program Files (x86)\Exact Audio Copy\FLAC\FLAC.EXEДополнительные параметры : -V -8 -T "Date=%year%" -T "Genre=%genre%" %source%
TOC извлечённого CD
Трек | Старт | Длительность | Начальный сектор | Конечный сектор --------------------------------------------------------------------- 1 | 0:00.00 | 1:10.54 | 0 | 5303 2 | 1:10.54 | 2:56.12 | 5304 | 18515 3 | 4:06.66 | 3:44.28 | 18516 | 35343 4 | 7:51.19 | 3:20.67 | 35344 | 50410 5 | 11:12.11 | 3:21.47 | 50411 | 65532 6 | 14:33.58 | 2:52.15 | 65533 | 78447 7 | 17:25.73 | 3:15.66 | 78448 | 93138 8 | 20:41.64 | 3:02.60 | 93139 | 106848 9 | 23:44.49 | 2:47.13 | 106849 | 119386 10 | 26:31.62 | 4:09.50 | 119387 | 138111 11 | 30:41.37 | 3:38.55 | 138112 | 154516 12 | 34:20.17 | 2:22.72 | 154517 | 165238
Характеристики диапазона извлечения и сообщения об ошибках
Выбранный диапазон
Имя файла E:\DOWNLOAD\EAC+Temp\Laura Wright - 2014 - Sound Of Strength.wav
Копирование прервано
Конец отчёта
==== Контрольная сумма отчёта A20085F53DED1C43D67552CB09E209FFE7FEDC430689F642532256C58BFEFD64 ====
------------------------------------------------------------
Exact Audio Copy V1.0 beta 3 from 29. August 2011
Отчёт EAC об извлечении, выполненном 16. февраля 2015, 21:36
Laura Wright / 2014 - Sound Of Strength
Дисковод: HL-DT-STBDDVDRW GGC-H20L Adapter: 3 ID: 0
Режим чтения : ДостоверностьИспользование точного потока : ДаОтключение кэша аудио : ДаИспользование указателей C2 : Нет
Коррекция смещения при чтении : 667Способность читать области Lead-in и Lead-out : НетЗаполнение пропущенных сэмплов тишиной : ДаУдаление блоков с тишиной в начале и конце : НетПри вычислениях CRC использовались нулевые сэмплы : ДаИнтерфейс : Встроенный Win32-интерфейс для Win NT/2000Обработка зазоров : Добавлено к предыдущему треку
Выходной формат : Пользовательский кодировщикВыбранный битрейт : 1024 kBit/sКачество : ВысокийДобавление ID3-тега : НетУтилита сжатия : C:\Program Files (x86)\Exact Audio Copy\FLAC\FLAC.EXEДополнительные параметры : -V -8 -T "Date=%year%" -T "Genre=%genre%" %source%
TOC извлечённого CD
Трек | Старт | Длительность | Начальный сектор | Конечный сектор --------------------------------------------------------------------- 1 | 0:00.00 | 1:10.54 | 0 | 5303 2 | 1:10.54 | 2:56.12 | 5304 | 18515 3 | 4:06.66 | 3:44.28 | 18516 | 35343 4 | 7:51.19 | 3:20.67 | 35344 | 50410 5 | 11:12.11 | 3:21.47 | 50411 | 65532 6 | 14:33.58 | 2:52.15 | 65533 | 78447 7 | 17:25.73 | 3:15.66 | 78448 | 93138 8 | 20:41.64 | 3:02.60 | 93139 | 106848 9 | 23:44.49 | 2:47.13 | 106849 | 119386 10 | 26:31.62 | 4:09.50 | 119387 | 138111 11 | 30:41.37 | 3:38.55 | 138112 | 154516 12 | 34:20.17 | 2:22.72 | 154517 | 165238
Трек 1
Имя файла E:\DOWNLOAD\EAC+Temp\01 - Bingen ! O Euchari In Leta Via.wav
Длина предзазора 0:00:02.00
Пиковый уровень 85.8 % Скорость извлечения 2.4 X Качество трека 99.8 % CRC теста F87A4604 CRC копии F87A4604 Трек не обнаружен в базе AccurateRip Копирование... OK
Трек 2
Имя файла E:\DOWNLOAD\EAC+Temp\02 - Barber ! Barber's Agnus Dei , The Sound Of Strength.wav
Пиковый уровень 97.1 % Скорость извлечения 4.4 X Качество трека 100.0 % CRC теста AC92F5B0 CRC копии AC92F5B0 Трек не обнаружен в базе AccurateRip Копирование... OK
Трек 3
Имя файла E:\DOWNLOAD\EAC+Temp\03 - Invincible.wav
Пиковый уровень 94.6 % Скорость извлечения 5.0 X Качество трека 100.0 % CRC теста 87AD4849 CRC копии 87AD4849 Трек не обнаружен в базе AccurateRip Копирование... OK
Трек 4
Имя файла E:\DOWNLOAD\EAC+Temp\04 - Beethoven ! Symphony No. 7 In A Major, Allegretto.wav
Пиковый уровень 98.9 % Скорость извлечения 5.4 X Качество трека 100.0 % CRC теста 0C41D899 CRC копии 0C41D899 Трек не обнаружен в базе AccurateRip Копирование... OK
Трек 5
Имя файла E:\DOWNLOAD\EAC+Temp\05 - Mascagni ! Intermezzo From Cavalleria Rusticana.wav
Пиковый уровень 97.6 % Скорость извлечения 5.7 X Качество трека 100.0 % CRC теста EF0C880C CRC копии EF0C880C Трек не обнаружен в базе AccurateRip Копирование... OK
Трек 6
Имя файла E:\DOWNLOAD\EAC+Temp\06 - Puccini ! Nessun Dorma (Dalla Turandot).wav
Пиковый уровень 98.8 % Скорость извлечения 5.7 X Качество трека 100.0 % CRC теста 23349064 CRC копии 23349064 Трек не обнаружен в базе AccurateRip Копирование... OK
Трек 7
Имя файла E:\DOWNLOAD\EAC+Temp\07 - Dalla ! Caruso.wav
Пиковый уровень 95.3 % Скорость извлечения 5.3 X Качество трека 99.9 % CRC теста E16D8AEE CRC копии E16D8AEE Трек не обнаружен в базе AccurateRip Копирование... OK
Трек 8
Имя файла E:\DOWNLOAD\EAC+Temp\08 - Beethoven ! Moonlight Sonata- Piano Sonata No. 14 In C# Minor ''Quasi Una Fantasia''.wav
Пиковый уровень 94.1 % Скорость извлечения 6.3 X Качество трека 100.0 % CRC теста 7BD37329 CRC копии 7BD37329 Трек не обнаружен в базе AccurateRip Копирование... OK
Трек 9
Имя файла E:\DOWNLOAD\EAC+Temp\09 - Pachabel ! Canon In D.wav
Пиковый уровень 93.8 % Скорость извлечения 6.3 X Качество трека 100.0 % CRC теста 2006D026 CRC копии 2006D026 Трек не обнаружен в базе AccurateRip Копирование... OK
Трек 10
Имя файла E:\DOWNLOAD\EAC+Temp\10 - With You.wav
Пиковый уровень 94.3 % Скорость извлечения 6.3 X Качество трека 99.9 % CRC теста 13520D98 CRC копии 13520D98 Трек не обнаружен в базе AccurateRip Копирование... OK
Трек 11
Имя файла E:\DOWNLOAD\EAC+Temp\11 - Handel ! Sarabande.wav
Пиковый уровень 97.8 % Скорость извлечения 7.3 X Качество трека 100.0 % CRC теста 38F257E5 CRC копии 38F257E5 Трек не обнаружен в базе AccurateRip Копирование... OK
Трек 12
Имя файла E:\DOWNLOAD\EAC+Temp\12 - Purcell ! Dido's Lament- When I Am Laid In Earth.wav
Пиковый уровень 92.7 % Скорость извлечения 7.0 X Качество трека 100.0 % CRC теста E3792F03 CRC копии E3792F03 Трек не обнаружен в базе AccurateRip Копирование... OK
Ни одного трека нет в базе AccurateRip
Ошибок не произошло
Конец отчёта
==== Контрольная сумма отчёта 4B78650A7082B2B42FE99AD69DDC24698EC7329EE3B211B98C41A2A3F8CDB5DD ====

Содержание индексной карты (.CUE)

REM GENRE ClassicalREM DATE 2014REM DISCID 9B089B0CREM COMMENT "ExactAudioCopy v1.0b3"CATALOG 0028948112128PERFORMER "Laura Wright"TITLE "2014 - Sound Of Strength"FILE "01 - Bingen ! O Euchari In Leta Via.wav" WAVE TRACK 01 AUDIO TITLE "Bingen | O Euchari In Leta Via" PERFORMER "Laura Wright" ISRC GBUM71404194 INDEX 01 00:00:00FILE "02 - Barber ! Barber's Agnus Dei , The Sound Of Strength.wav" WAVE TRACK 02 AUDIO TITLE "Barber | Barber's Agnus Dei / The Sound Of Strength" PERFORMER "Laura Wright" ISRC GBUM71401691 INDEX 01 00:00:00FILE "03 - Invincible.wav" WAVE TRACK 03 AUDIO TITLE "Invincible" PERFORMER "Laura Wright" ISRC GBUM71404186 INDEX 01 00:00:00FILE "04 - Beethoven ! Symphony No. 7 In A Major, Allegretto.wav" WAVE TRACK 04 AUDIO TITLE "Beethoven | Symphony No. 7 In A Major, Allegretto" PERFORMER "Laura Wright" ISRC GBUM71401704 INDEX 01 00:00:00FILE "05 - Mascagni ! Intermezzo From Cavalleria Rusticana.wav" WAVE TRACK 05 AUDIO TITLE "Mascagni | Intermezzo From Cavalleria Rusticana" PERFORMER "Laura Wright" ISRC GBUM71404193 INDEX 01 00:00:00FILE "06 - Puccini ! Nessun Dorma (Dalla Turandot).wav" WAVE TRACK 06 AUDIO TITLE "Puccini | Nessun Dorma (Dalla Turandot)" PERFORMER "Laura Wright" ISRC GBUM71401702 INDEX 01 00:00:00FILE "07 - Dalla ! Caruso.wav" WAVE TRACK 07 AUDIO TITLE "Dalla | Caruso" PERFORMER "Laura Wright" ISRC GBUM71404180 INDEX 01 00:00:00FILE "08 - Beethoven ! Moonlight Sonata- Piano Sonata No. 14 In C# Minor ''Quasi Una Fantasia''.wav" WAVE TRACK 08 AUDIO TITLE "Beethoven | Moonlight Sonata: Piano Sonata No. 14 In C# Minor 'Quasi Una Fant..." PERFORMER "Laura Wright" ISRC GBUM71404181 INDEX 01 00:00:00FILE "09 - Pachabel ! Canon In D.wav" WAVE TRACK 09 AUDIO TITLE "Pachabel | Canon In D" PERFORMER "Laura Wright" ISRC GBUM71404192 INDEX 01 00:00:00FILE "10 - With You.wav" WAVE TRACK 10 AUDIO TITLE "With You" PERFORMER "Laura Wright" ISRC GBUM71404182 INDEX 01 00:00:00FILE "11 - Handel ! Sarabande.wav" WAVE TRACK 11 AUDIO TITLE "Handel | Sarabande" PERFORMER "Laura Wright" ISRC GBUM71401703 INDEX 01 00:00:00FILE "12 - Purcell ! Dido's Lament- When I Am Laid In Earth.wav" WAVE TRACK 12 AUDIO TITLE "Purcell | Dido's Lament: When I Am Laid In Earth" PERFORMER "Laura Wright" ISRC GBUM71404191 INDEX 01 00:00:00

Скриншот спектра частот




Показать сообщения:    

Текущее время: 11-Дек 01:27

Часовой пояс: UTC + 3


Вы не можете начинать темы
Вы не можете отвечать на сообщения
Вы не можете редактировать свои сообщения
Вы не можете удалять свои сообщения
Вы не можете голосовать в опросах
Вы не можете прикреплять файлы к сообщениям
Вы не можете скачивать файлы