(Classical Crossover, Piano) [CD] Gabriela Montero - Baroque: Improvisations {Sanz, Vivaldi, Pachelbel, Handel, Albinoni, Bach, Scarlatti} - 2007, FLAC (tracks+.cue), lossless


 

[Цитировать]

Gabriela Montero - Baroque: Improvisations
Жанр: Classical Crossover, Piano
Год издания диска: 2007
Издатель (лейбл): EMI
Аудиокодек: FLAC
Тип рипа: tracks+.cue
Битрейт аудио: lossless
Продолжительность: 52:30
Источник (релизер): ponch (what)
Наличие сканов в содержимом раздачи: нет
Треклист:
01. Sanz: Canarios (1:39)
02. Vivaldi: Autumn (2:25)
03. Pachelbel: Canon (4:26)
04. Handel: Sarabande (3:51)
05. Montero: "Baroque and me" (3:44)
06. Handel: "Hallelujah" (2:24)
07. Albinoni: Adagio (7:01)
08. Handel: Largo (3:42)
09. J.S. Bach: Prelude (2:01)
10. Vivaldi: Winter (5:10)
11. Handel: Hornpipe (4:48)
12. D. Scarlatti: Sonata (1:29)
13. Vivaldi: Spring (3:46)
14. Vivaldi: Summer and Winter (2:02)
15. Montero: "Continuum" (4:02)
Gabriela Montero - piano

Лог создания рипа

Exact Audio Copy V0.99 prebeta 4 from 23. January 2008
EAC extraction logfile from 2. February 2009, 1:07
Unknown Artist / Unknown Title
Used drive : HL-DT-STDVD-RAM GH22LS30 Adapter: 4 ID: 0
Read mode : SecureUtilize accurate stream : YesDefeat audio cache : YesMake use of C2 pointers : No
Read offset correction : 102Overread into Lead-In and Lead-Out : NoFill up missing offset samples with silence : YesDelete leading and trailing silent blocks : NoNull samples used in CRC calculations : YesUsed interface : Native Win32 interface for Win NT & 2000Gap handling : Appended to previous track
Used output format : Internal WAV RoutinesSample format : 44.100 Hz; 16 Bit; Stereo
TOC of the extracted CD
Track | Start | Length | Start sector | End sector --------------------------------------------------------- 1 | 0:00.00 | 1:38.72 | 0 | 7421 2 | 1:38.72 | 2:24.53 | 7422 | 18274 3 | 4:03.50 | 4:26.37 | 18275 | 38261 4 | 8:30.12 | 3:50.40 | 38262 | 55551 5 | 12:20.52 | 3:43.42 | 55552 | 72318 6 | 16:04.19 | 2:23.74 | 72319 | 83117 7 | 18:28.18 | 7:01.10 | 83118 | 114702 8 | 25:29.28 | 3:41.50 | 114703 | 131327 9 | 29:11.03 | 2:01.09 | 131328 | 140411 10 | 31:12.12 | 5:09.48 | 140412 | 163634 11 | 36:21.60 | 4:48.15 | 163635 | 185249 12 | 41:10.00 | 1:28.53 | 185250 | 191902 13 | 42:38.53 | 3:45.43 | 191903 | 208820 14 | 46:24.21 | 2:02.15 | 208821 | 217985 15 | 48:26.36 | 4:01.46 | 217986 | 236106
Track 1
Filename C:\Rip\01 - Improvisation on Sanz- Canarios.wav
Pre-gap length 0:00:02.00
Peak level 99.6 % Track quality 99.8 % Test CRC 8BDC5692 Copy CRC 8BDC5692 Track not present in AccurateRip database Copy OK
Track 2
Filename C:\Rip\02 - Improvisation on Vivaldi- Autumn ('The Four Seasons', Concerto No 3 'Autumn' mov 1).wav
Peak level 88.5 % Track quality 100.0 % Test CRC AEE6AB69 Copy CRC AEE6AB69 Track not present in AccurateRip database Copy OK
Track 3
Filename C:\Rip\03 - Improvisation on Pachelbel- Canon (Canon & Gigue in D).wav
Pre-gap length 0:00:00.10
Peak level 31.3 % Track quality 100.0 % Test CRC 565213B7 Copy CRC 565213B7 Track not present in AccurateRip database Copy OK
Track 4
Filename C:\Rip\04 - Improvisation on Handel- Sarabande (Suite No 4 in d minor).wav
Pre-gap length 0:00:00.01
Peak level 91.7 % Track quality 100.0 % Test CRC 76BD8888 Copy CRC 76BD8888 Track not present in AccurateRip database Copy OK
Track 5
Filename C:\Rip\05 - Baroque and me.wav
Peak level 58.0 % Track quality 100.0 % Test CRC 91E11A8A Copy CRC 91E11A8A Track not present in AccurateRip database Copy OK
Track 6
Filename C:\Rip\06 - Improvisation on Handel- 'Hallelujah' ('Messiah').wav
Peak level 100.0 % Track quality 100.0 % Test CRC A2647A11 Copy CRC A2647A11 Track not present in AccurateRip database Copy OK
Track 7
Filename C:\Rip\07 - Improvisation on Albinoni- Adagio.wav
Peak level 50.3 % Track quality 100.0 % Test CRC 851BEEA2 Copy CRC 851BEEA2 Track not present in AccurateRip database Copy OK
Track 8
Filename C:\Rip\08 - Improvisation on Handel- Largo ('Ombra Mai Fu', 'Xerxes').wav
Pre-gap length 0:00:00.01
Peak level 69.6 % Track quality 100.0 % Test CRC AF419FEB Copy CRC AF419FEB Track not present in AccurateRip database Copy OK
Track 9
Filename C:\Rip\09 - Improvisation on Bach- Prelude (Violin Solo Partita in E major).wav
Peak level 87.9 % Track quality 100.0 % Test CRC 170A0A67 Copy CRC 170A0A67 Track not present in AccurateRip database Copy OK
Track 10
Filename C:\Rip\10 - Improvisation on Vivaldi- Winter ('The Four Seasons', Concerto No 4 'Winter' mov 2).wav
Pre-gap length 0:00:00.01
Peak level 54.1 % Track quality 100.0 % Test CRC CB7E2A4C Copy CRC CB7E2A4C Track not present in AccurateRip database Copy OK
Track 11
Filename C:\Rip\11 - Improvisation on Handel- Hornpipe (Water Music Suite No 2).wav
Peak level 98.6 % Track quality 99.9 % Test CRC A4437E67 Copy CRC A4437E67 Track not present in AccurateRip database Copy OK
Track 12
Filename C:\Rip\12 - Improvisation on Scarlatti- Sonata in d minor.wav
Pre-gap length 0:00:00.01
Peak level 53.2 % Track quality 100.0 % Test CRC 8D467972 Copy CRC 8D467972 Track not present in AccurateRip database Copy OK
Track 13
Filename C:\Rip\13 - Improvisation on Vivaldi- Spring ('The Four Seasons', Concerto No 1 'Spring' mov 1).wav
Pre-gap length 0:00:00.01
Peak level 55.4 % Track quality 100.0 % Test CRC 4EDED6EB Copy CRC 4EDED6EB Track not present in AccurateRip database Copy OK
Track 14
Filename C:\Rip\14 - Improvisation on Vivaldi- Summer and Winter ('The Four Seasons', Concerto No 2 'Summer' mov 3 & Concerto No 4 'Winter' mov 1).wav
Peak level 94.1 % Track quality 99.9 % Test CRC 2A08BD04 Copy CRC 2A08BD04 Track not present in AccurateRip database Copy OK
Track 15
Filename C:\Rip\15 - Continuum.wav
Pre-gap length 0:00:00.08
Peak level 33.6 % Track quality 100.0 % Test CRC 0C92EEDD Copy CRC 0C92EEDD Track not present in AccurateRip database Copy OK
None of the tracks are present in the AccurateRip database
No errors occurred
End of status report

Содержание индексной карты (.CUE)

REM GENRE ClassicalREM DATE 2007REM DISCID BD0C4C0FREM COMMENT "ExactAudioCopy v0.99pb4"PERFORMER "Gabriela Montero"TITLE "Baroque"FILE "01 - Sanz- Canarios.wav" WAVE TRACK 01 AUDIO TITLE "Sanz: Canarios" PERFORMER "Gabriela Montero" INDEX 01 00:00:00FILE "02 - Vivaldi- Autumn.wav" WAVE TRACK 02 AUDIO TITLE "Vivaldi: Autumn" PERFORMER "Gabriela Montero" INDEX 01 00:00:00 TRACK 03 AUDIO TITLE "Pachelbel: Canon" PERFORMER "Gabriela Montero" INDEX 00 02:24:45FILE "03 - Pachelbel- Canon.wav" WAVE INDEX 01 00:00:00 TRACK 04 AUDIO TITLE "Handel: Sarabande" PERFORMER "Gabriela Montero" INDEX 00 04:26:36FILE "04 - Handel- Sarabande.wav" WAVE INDEX 01 00:00:00FILE "05 - Montero- 'Baroque and me'.wav" WAVE TRACK 05 AUDIO TITLE "Montero: 'Baroque and me'" PERFORMER "Gabriela Montero" INDEX 01 00:00:00FILE "06 - Handel- 'Hallelujah'.wav" WAVE TRACK 06 AUDIO TITLE "Handel: 'Hallelujah'" PERFORMER "Gabriela Montero" INDEX 01 00:00:00FILE "07 - Albinoni- Adagio.wav" WAVE TRACK 07 AUDIO TITLE "Albinoni: Adagio" PERFORMER "Gabriela Montero" INDEX 01 00:00:00 TRACK 08 AUDIO TITLE "Handel: Largo" PERFORMER "Gabriela Montero" INDEX 00 07:01:09FILE "08 - Handel- Largo.wav" WAVE INDEX 01 00:00:00FILE "09 - J.S. Bach- Prelude.wav" WAVE TRACK 09 AUDIO TITLE "J.S. Bach: Prelude" PERFORMER "Gabriela Montero" INDEX 01 00:00:00 TRACK 10 AUDIO TITLE "Vivaldi: Winter" PERFORMER "Gabriela Montero" INDEX 00 02:01:08FILE "10 - Vivaldi- Winter.wav" WAVE INDEX 01 00:00:00FILE "11 - Handel- Hornpipe.wav" WAVE TRACK 11 AUDIO TITLE "Handel: Hornpipe" PERFORMER "Gabriela Montero" INDEX 01 00:00:00 TRACK 12 AUDIO TITLE "D. Scarlatti: Sonata" PERFORMER "Gabriela Montero" INDEX 00 04:48:14FILE "12 - D. Scarlatti- Sonata.wav" WAVE INDEX 01 00:00:00 TRACK 13 AUDIO TITLE "Vivaldi: Spring" PERFORMER "Gabriela Montero" INDEX 00 01:28:52FILE "13 - Vivaldi- Spring.wav" WAVE INDEX 01 00:00:00FILE "14 - Vivaldi- Summer and Winter.wav" WAVE TRACK 14 AUDIO TITLE "Vivaldi: Summer and Winter" PERFORMER "Gabriela Montero" INDEX 01 00:00:00 TRACK 15 AUDIO TITLE "Montero: 'Continuum'" PERFORMER "Gabriela Montero" INDEX 00 02:02:09FILE "15 - Montero- 'Continuum'.wav" WAVE INDEX 01 00:00:00

Отчет CUETools

[CUETools log; Date: 16.02.2015 19:11:56; Version: 2.1.5][CTDB TOCID: yCiGTkl3XKeypxXnH.uO2vrBZNE-] found.Track | CTDB Status 1 | (1/1) Accurately ripped 2 | (1/1) Accurately ripped 3 | (1/1) Accurately ripped 4 | (1/1) Accurately ripped 5 | (1/1) Accurately ripped 6 | (1/1) Accurately ripped 7 | (1/1) Accurately ripped 8 | (1/1) Accurately ripped 9 | (1/1) Accurately ripped 10 | (1/1) Accurately ripped 11 | (1/1) Accurately ripped 12 | (1/1) Accurately ripped 13 | (1/1) Accurately ripped 14 | (1/1) Accurately ripped 15 | (1/1) Accurately ripped[AccurateRip ID: 001c7585-0148321a-bd0c4c0f] found.Track [ CRC | V2 ] Status 01 [873754d8|b44a35e7] (0+1/1) Accurately ripped 02 [dcb977cb|8999822b] (0+1/1) Accurately ripped 03 [3931c5d3|2e71a568] (0+1/1) Accurately ripped 04 [ea788545|e3be01ea] (0+1/1) Accurately ripped 05 [9960bb34|5a2c84aa] (0+1/1) Accurately ripped 06 [01396ad6|766d9ae5] (0+1/1) Accurately ripped 07 [62e3a5f9|8b2269e8] (0+1/1) Accurately ripped 08 [8c27ffe9|21997507] (0+1/1) Accurately ripped 09 [9e86715a|17cae972] (0+1/1) Accurately ripped 10 [91d72fa1|3ae97470] (0+1/1) Accurately ripped 11 [eda03f19|997f22dc] (0+1/1) Accurately ripped 12 [76ce9e4e|330330ca] (0+1/1) Accurately ripped 13 [952ef106|f740c7aa] (0+1/1) Accurately ripped 14 [e300980d|07c0710f] (0+1/1) Accurately ripped 15 [4cf9278b|8ce0b08d] (0+1/1) Accurately ripped
Track Peak [ CRC32 ] [W/O NULL] [ LOG ] -- 100,0 [98B244A1] [6B259CFF] 01 99,6 [8BDC5692] [4D20A949] CRC32 02 88,5 [AEE6AB69] [C1E9B0FC] CRC32 03 31,3 [565213B7] [C0E3C82B] CRC32 04 91,7 [76BD8888] [F9A5D002] CRC32 05 58,0 [91E11A8A] [11838A0D] CRC32 06 100,0 [A2647A11] [6A161CBA] CRC32 07 50,3 [851BEEA2] [D30DA873] CRC32 08 69,6 [AF419FEB] [CAEE0F36] CRC32 09 87,9 [170A0A67] [C59521CB] CRC32 10 54,1 [CB7E2A4C] [88651C31] CRC32 11 98,6 [A4437E67] [083DB88A] CRC32 12 53,2 [8D467972] [F0F556AF] CRC32 13 55,4 [4EDED6EB] [FE4DA5F0] CRC32 14 94,1 [2A08BD04] [2B55B28A] CRC32 15 33,6 [0C92EEDD] [4940881D] CRC32

Review by Eric Schneider

With her 2007 outing, BAROQUE, Venezuelan-born pianist Gabriela Montero enhances her reputation as a bold improviser, taking on, not only all of Vivaldi’s “Four Seasons,” but pieces by Bach, Handel, and Albinoni. The latter composer’s “Adagio” serves as the album’s (relatively) expansive centerpiece, and allows Montero quietly to work her magic on the keys.



Показать сообщения:    

Текущее время: 05-Дек 05:31

Часовой пояс: UTC + 3


Вы не можете начинать темы
Вы не можете отвечать на сообщения
Вы не можете редактировать свои сообщения
Вы не можете удалять свои сообщения
Вы не можете голосовать в опросах
Вы не можете прикреплять файлы к сообщениям
Вы не можете скачивать файлы