(Classical Crossover, Pop, Rock) [CD] Jenny Oaks Baker - Classic: The Rock Album - 2014, FLAC (tracks+.cue), lossless


 

[Цитировать]

Jenny Oaks Baker - Classic: The Rock Album
Жанр: Classical Crossover, Pop, Rock
Носитель: CD
Год издания: 2014
Издатель (лейбл): Shadow Mountain Records
Страна исполнителя (группы): US
Аудиокодек: FLAC (*.flac)
Тип рипа: tracks+.cue
Битрейт аудио: lossless
Продолжительность: 00:44:46
Источник (релизер): IsraBox
Наличие сканов в содержимом раздачи: нет
http://www.jennyoaksbaker.com/
https://www.youtube.com/user/JennyOaksBaker
Треклист:
01. Liverpool Suite (7:15)
02. Everybody Hurts (5:40)
03. Kashmir/Four Seasons (4:25)
04. You Are So Beautiful (3:23)
05. Scarborough Fair (3:40)
06. Stairway to Heaven (5:25)
07. Fields of Gold (3:32)
08. Pinball Wizard (3:19)
09. Sweet Child O'Mine (4:02)
10. Yesterday (4:05)

Лог создания рипа

Exact Audio Copy V1.0 beta 4 from 7. December 2014
EAC extraction logfile from 14. February 2015, 11:46
Jenny Oaks Baker / Classic- The Rock Album
Used drive : PIONEER DVD-RW DVRTD11RS Adapter: 1 ID: 0
Read mode : SecureUtilize accurate stream : YesDefeat audio cache : YesMake use of C2 pointers : No
Read offset correction : 6Overread into Lead-In and Lead-Out : NoFill up missing offset samples with silence : YesDelete leading and trailing silent blocks : NoNull samples used in CRC calculations : YesUsed interface : Native Win32 interface for Win NT & 2000Gap handling : Appended to previous track
Used output format : User Defined EncoderSelected bitrate : 1024 kBit/sQuality : HighAdd ID3 tag : NoCommand line compressor : C:\Program Files (x86)\Exact Audio Copy\Flac\flac.exeAdditional command line options : -8 -V -T "ARTIST=%artist%" -T "TITLE=%title%" -T "ALBUM=%albumtitle%" -T "DATE=%year%" -T "TRACKNUMBER=%tracknr%" -T "GENRE=%genre%" -T "PERFORMER=%albuminterpret%" -T "COMPOSER=%composer%" %haslyrics%--tag-from-file=LYRICS="%lyricsfile%"%haslyrics% -T "ALBUMARTIST=%albumartist%" -T "DISCNUMBER=%cdnumber%" -T "TOTALDISCS=%totalcds%" -T "TOTALTRACKS=%numtracks%" -T "COMMENT=%comment%" %source% -o %dest%
TOC of the extracted CD
Track | Start | Length | Start sector | End sector --------------------------------------------------------- 1 | 0:00.00 | 7:14.67 | 0 | 32616 2 | 7:14.67 | 5:39.65 | 32617 | 58106 3 | 12:54.57 | 4:24.58 | 58107 | 77964 4 | 17:19.40 | 3:23.36 | 77965 | 93225 5 | 20:43.01 | 3:39.71 | 93226 | 109721 6 | 24:22.72 | 5:25.21 | 109722 | 134117 7 | 29:48.18 | 3:32.06 | 134118 | 150023 8 | 33:20.24 | 3:18.44 | 150024 | 164917 9 | 36:38.68 | 4:01.65 | 164918 | 183057 10 | 40:40.58 | 4:05.10 | 183058 | 201442
Track 1
Filename C:\RIP\Jenny Oaks Baker - Classic- The Rock Album\01 - Jenny Oaks Baker - Liverpool Suite.wav
Pre-gap length 0:00:02.00
Peak level 94.4 % Extraction speed 3.0 X Track quality 99.9 % Test CRC D40E6A67 Copy CRC D40E6A67 Accurately ripped (confidence 1) [497ED7E9] (AR v2) Copy OK
Track 2
Filename C:\RIP\Jenny Oaks Baker - Classic- The Rock Album\02 - Jenny Oaks Baker - Everybody Hurts.wav
Pre-gap length 0:00:01.37
Peak level 84.9 % Extraction speed 3.8 X Track quality 100.0 % Test CRC D70BA974 Copy CRC D70BA974 Accurately ripped (confidence 1) [ADB31E32] (AR v2) Copy OK
Track 3
Filename C:\RIP\Jenny Oaks Baker - Classic- The Rock Album\03 - Kashmir - Four Seasons.wav
Pre-gap length 0:00:02.00
Peak level 93.3 % Extraction speed 4.1 X Track quality 100.0 % Test CRC A006E919 Copy CRC A006E919 Accurately ripped (confidence 1) [69805CAE] (AR v2) Copy OK
Track 4
Filename C:\RIP\Jenny Oaks Baker - Classic- The Rock Album\04 - Jenny Oaks Baker - You Are So Beautiful.wav
Pre-gap length 0:00:02.00
Peak level 94.4 % Extraction speed 3.4 X Track quality 99.9 % Test CRC 12972980 Copy CRC 12972980 Accurately ripped (confidence 1) [4C24B1C6] (AR v2) Copy OK
Track 5
Filename C:\RIP\Jenny Oaks Baker - Classic- The Rock Album\05 - Jenny Oaks Baker - Scarborough Fair.wav
Pre-gap length 0:00:01.37
Peak level 82.0 % Extraction speed 4.4 X Track quality 100.0 % Test CRC CB25A17F Copy CRC CB25A17F Accurately ripped (confidence 1) [8DE42B2F] (AR v2) Copy OK
Track 6
Filename C:\RIP\Jenny Oaks Baker - Classic- The Rock Album\06 - Jenny Oaks Baker - Stairway to Heaven.wav
Pre-gap length 0:00:02.00
Peak level 94.4 % Extraction speed 4.9 X Track quality 100.0 % Test CRC 4DEC74FF Copy CRC 4DEC74FF Accurately ripped (confidence 1) [58971B12] (AR v2) Copy OK
Track 7
Filename C:\RIP\Jenny Oaks Baker - Classic- The Rock Album\07 - Jenny Oaks Baker - Fields of Gold.wav
Pre-gap length 0:00:02.00
Peak level 94.2 % Extraction speed 4.9 X Track quality 100.0 % Test CRC 67A7C0EF Copy CRC 67A7C0EF Accurately ripped (confidence 1) [FD999706] (AR v2) Copy OK
Track 8
Filename C:\RIP\Jenny Oaks Baker - Classic- The Rock Album\08 - Jenny Oaks Baker - Pinball Wizard.wav
Pre-gap length 0:00:02.00
Peak level 94.4 % Extraction speed 5.0 X Track quality 100.0 % Test CRC C08889DE Copy CRC C08889DE Accurately ripped (confidence 1) [FC771F76] (AR v2) Copy OK
Track 9
Filename C:\RIP\Jenny Oaks Baker - Classic- The Rock Album\09 - Jenny Oaks Baker - Sweet Child O'Mine.wav
Pre-gap length 0:00:02.00
Peak level 94.4 % Extraction speed 5.3 X Track quality 100.0 % Test CRC 902ABE50 Copy CRC 902ABE50 Accurately ripped (confidence 1) [8771F411] (AR v2) Copy OK
Track 10
Filename C:\RIP\Jenny Oaks Baker - Classic- The Rock Album\10 - Jenny Oaks Baker - Yesterday.wav
Pre-gap length 0:00:02.00
Peak level 80.1 % Extraction speed 5.6 X Track quality 100.0 % Test CRC 8AB0D4EB Copy CRC 8AB0D4EB Accurately ripped (confidence 1) [6856A615] (AR v2) Copy OK
All tracks accurately ripped
No errors occurred
End of status report
---- CUETools DB Plugin V2.1.4
[CTDB TOCID: 16NhPUpbDANnCxNhfoROkeTybf4-] disk not present in databaseSubmit result: 16NhPUpbDANnCxNhfoROkeTybf4- has been uploaded
==== Log checksum 13030AE973E9B62DEFBCE51AD1451D63DF5735833DD63E5A77A53145ECDDF961 ====

Содержание индексной карты (.CUE)

REM GENRE RockREM DATE 2014REM DISCID 690A7D0AREM COMMENT "ExactAudioCopy v1.0b4"PERFORMER "Jenny Oaks Baker"TITLE "Classic- The Rock Album"FILE "01 - Jenny Oaks Baker - Liverpool Suite.wav" WAVE TRACK 01 AUDIO TITLE "Liverpool Suite" PERFORMER "Jenny Oaks Baker" FLAGS DCP INDEX 01 00:00:00 TRACK 02 AUDIO TITLE "Everybody Hurts" PERFORMER "Jenny Oaks Baker" FLAGS DCP INDEX 00 07:13:30FILE "02 - Jenny Oaks Baker - Everybody Hurts.wav" WAVE INDEX 01 00:00:00 TRACK 03 AUDIO TITLE "Four Seasons" PERFORMER "Kashmir" FLAGS DCP INDEX 00 05:37:65FILE "03 - Kashmir - Four Seasons.wav" WAVE INDEX 01 00:00:00 TRACK 04 AUDIO TITLE "You Are So Beautiful" PERFORMER "Jenny Oaks Baker" FLAGS DCP INDEX 00 04:22:58FILE "04 - Jenny Oaks Baker - You Are So Beautiful.wav" WAVE INDEX 01 00:00:00 TRACK 05 AUDIO TITLE "Scarborough Fair" PERFORMER "Jenny Oaks Baker" FLAGS DCP INDEX 00 03:21:74FILE "05 - Jenny Oaks Baker - Scarborough Fair.wav" WAVE INDEX 01 00:00:00 TRACK 06 AUDIO TITLE "Stairway to Heaven" PERFORMER "Jenny Oaks Baker" FLAGS DCP INDEX 00 03:37:71FILE "06 - Jenny Oaks Baker - Stairway to Heaven.wav" WAVE INDEX 01 00:00:00 TRACK 07 AUDIO TITLE "Fields of Gold" PERFORMER "Jenny Oaks Baker" FLAGS DCP INDEX 00 05:23:21FILE "07 - Jenny Oaks Baker - Fields of Gold.wav" WAVE INDEX 01 00:00:00 TRACK 08 AUDIO TITLE "Pinball Wizard" PERFORMER "Jenny Oaks Baker" FLAGS DCP INDEX 00 03:30:06FILE "08 - Jenny Oaks Baker - Pinball Wizard.wav" WAVE INDEX 01 00:00:00 TRACK 09 AUDIO TITLE "Sweet Child O'Mine" PERFORMER "Jenny Oaks Baker" FLAGS DCP INDEX 00 03:16:44FILE "09 - Jenny Oaks Baker - Sweet Child O'Mine.wav" WAVE INDEX 01 00:00:00 TRACK 10 AUDIO TITLE "Yesterday" PERFORMER "Jenny Oaks Baker" FLAGS DCP INDEX 00 03:59:65FILE "10 - Jenny Oaks Baker - Yesterday.wav" WAVE INDEX 01 00:00:00

Лог проверки качества

-----------------------
DON'T MODIFY THIS FILE
-----------------------
PERFORMER: auCDtect Task Manager, ver. 1.5.1RC6 build 1.5.1.7Copyright (c) 2008-2010 y-soft. All rights reservedhttp://y-soft.org
ANALYZER: auCDtect: CD records authenticity detector, version 0.8.2Copyright (c) 2004 Oleg Berngardt. All rights reserved.Copyright (c) 2004 Alexander Djourik. All rights reserved.
FILE: 01 - Liverpool Suite.flac Size: 50777591 Hash: 59CF3BB8730CDE2E79E994E5C209D32C Accuracy: -m8 Conclusion: CDDA 100% Signature: D379F0BB608DD655C49B81E9A0B5DA33C6F13F7EFILE: 02 - Everybody Hurts.flac Size: 39153260 Hash: B1A4F8AF79E28C78483BEC254F379FEF Accuracy: -m8 Conclusion: CDDA 100% Signature: B404CA3B52598F87626D3B79F214DAFA3AF7EED2FILE: 03 - Kashmir-Four Seasons.flac Size: 33455780 Hash: 8CC4C7D0171471FE71FF5761DC6972D9 Accuracy: -m8 Conclusion: CDDA 99% Signature: 1C70E56A1EBD8F79BB7505B8B501098017AE154CFILE: 04 - You Are So Beautiful.flac Size: 21010856 Hash: CDC5FFCFF598E8249E51DABDED987A16 Accuracy: -m8 Conclusion: CDDA 100% Signature: CAE9E38232617394A8E4C0ADE3FB4AD0CAC177DFFILE: 05 - Scarborough Fair.flac Size: 22989483 Hash: 82CAD0F0156B01D380FF6F5FA6A3744C Accuracy: -m8 Conclusion: CDDA 100% Signature: 81879651F8BD8EE744B3455B8318B0A86279DCACFILE: 06 - Stairway to Heaven.flac Size: 36353024 Hash: 4287483830080047B80D185FDF348301 Accuracy: -m8 Conclusion: CDDA 100% Signature: 026C9E20ACB10CADD3043D03AF559666C3579236FILE: 07 - Fields of Gold.flac Size: 21820668 Hash: D2BAC75341B10CA62D1248B4F79CBA06 Accuracy: -m8 Conclusion: CDDA 100% Signature: 805FA164D17CA79AEB888AD7052B7EEDF86FF88DFILE: 08 - Pinball Wizard.flac Size: 23950570 Hash: B3ED9274732F68ECEB40BE323EE0C92B Accuracy: -m8 Conclusion: CDDA 100% Signature: 46BA82775A5730F6371179BDDBE2BE44367CF16BFILE: 09 - Sweet Child O'Mine.flac Size: 26330246 Hash: 0114DD84A51CCF488960933728A0E406 Accuracy: -m8 Conclusion: CDDA 100% Signature: 89518C5432F65BC42E3F7DD39ACA21AF44C26F19FILE: 10 - Yesterday.flac Size: 23096737 Hash: 46DD3309DDE286934813FE3869E11C3B Accuracy: -m8 Conclusion: CDDA 100% Signature: 0AD8261786DDDAA76BE4DEF4490F4E79F4F580FD



Показать сообщения:    

Текущее время: 06-Дек 17:02

Часовой пояс: UTC + 3


Вы не можете начинать темы
Вы не можете отвечать на сообщения
Вы не можете редактировать свои сообщения
Вы не можете удалять свои сообщения
Вы не можете голосовать в опросах
Вы не можете прикреплять файлы к сообщениям
Вы не можете скачивать файлы