(Avant-Garde, Classical) Giovanni Allevi - Love - 2015, FLAC (tracks+.cue) lossless


 

[Цитировать]

Giovanni Allevi - Love
Жанр: Avant-Garde, Classical
Страна-производитель диска: EU
Год издания диска: 2015
Издатель (лейбл): Sony Music
Номер по каталогу: 0888750457622
Страна: Italy
Аудиокодек: FLAC
Тип рипа: tracks+.cue
Битрейт аудио: lossless
Продолжительность: 49:25.200
Источник: CD
Наличие сканов в содержимом раздачи: да
Треклист:
01. Yuzen [4:17]
02. Loving You [3:13]
03. Amor sacro [2:21]
04. Asteroid 111561 [2:26]
05. The Other Side Of Me [5:15]
06. La stanza dei giochi [3:42]
07. It Doesn't Work [3:24]
08. Lovers [4:43]
09. My Family [3:54]
10. Asian Eyes [4:11]
11. Come With Me [2:43]
12. Sweetie Pie [4:34]
13. L'albatros [4:35]

Лог создания рипа

Exact Audio Copy V1.0 beta 3 from 29. August 2011
EAC extraction logfile from 22. January 2015, 16:31
Giovanni Allevi / Love
Used drive : ASUS BC-12D2HT Adapter: 1 ID: 0
Read mode : SecureUtilize accurate stream : YesDefeat audio cache : YesMake use of C2 pointers : No
Read offset correction : 6Overread into Lead-In and Lead-Out : NoFill up missing offset samples with silence : YesDelete leading and trailing silent blocks : NoNull samples used in CRC calculations : YesUsed interface : Installed external ASPI interfaceGap handling : Appended to previous track
Used output format : User Defined EncoderSelected bitrate : 1024 kBit/sQuality : HighAdd ID3 tag : NoCommand line compressor : C:\Program Files (x86)\Exact Audio Copy\FLAC\FLAC.EXEAdditional command line options : -8 -V -T "ARTIST=%artist%" -T "TITLE=%title%" -T "ALBUM=%albumtitle%" -T "DATE=%year%" -T "TRACKNUMBER=%tracknr%" -T "GENRE=%genre%" -T "PERFORMER=%albuminterpret%" -T "COMPOSER=%composer%" %haslyrics%--tag-from-file=LYRICS="%lyricsfile%"%haslyrics% -T "ALBUMARTIST=%albumartist%" -T "DISCNUMBER=%cdnumber%" -T "TOTALDISCS=%totalcds%" -T "TOTALTRACKS=%numtracks%" -T "COMMENT=%comment%" %source% -o %dest%
TOC of the extracted CD
Track | Start | Length | Start sector | End sector --------------------------------------------------------- 1 | 0:00.00 | 4:17.43 | 0 | 19317 2 | 4:17.43 | 3:13.73 | 19318 | 33865 3 | 7:31.41 | 2:21.59 | 33866 | 44499 4 | 9:53.25 | 2:26.53 | 44500 | 55502 5 | 12:20.03 | 5:15.11 | 55503 | 79138 6 | 17:35.14 | 3:42.59 | 79139 | 95847 7 | 21:17.73 | 3:24.54 | 95848 | 111201 8 | 24:42.52 | 4:43.37 | 111202 | 132463 9 | 29:26.14 | 3:54.22 | 132464 | 150035 10 | 33:20.36 | 4:11.11 | 150036 | 168871 11 | 37:31.47 | 2:43.32 | 168872 | 181128 12 | 40:15.04 | 4:34.48 | 181129 | 201726 13 | 44:49.52 | 4:35.38 | 201727 | 222389
Track 1
Filename C:\EAC\01. Giovanni Allevi - Yuzen.wav
Pre-gap length 0:00:02.00
Peak level 90.4 % Extraction speed 3.2 X Track quality 100.0 % Test CRC 61509B67 Copy CRC 61509B67 Track not present in AccurateRip database Copy OK
Track 2
Filename C:\EAC\02. Giovanni Allevi - Loving you.wav
Pre-gap length 0:00:03.85
Peak level 86.4 % Extraction speed 2.0 X Track quality 100.0 % Test CRC AC506EC0 Copy CRC AC506EC0 Track not present in AccurateRip database Copy OK
Track 3
Filename C:\EAC\03. Giovanni Allevi - Amor sacro.wav
Pre-gap length 0:00:03.34
Peak level 98.8 % Extraction speed 1.1 X Track quality 100.0 % Test CRC C07ABB9F Copy CRC C07ABB9F Track not present in AccurateRip database Copy OK
Track 4
Filename C:\EAC\04. Giovanni Allevi - Asteroid 111561.wav
Pre-gap length 0:00:01.05
Peak level 74.1 % Extraction speed 1.0 X Track quality 99.9 % Test CRC 4E11C247 Copy CRC 4E11C247 Track not present in AccurateRip database Copy OK
Track 5
Filename C:\EAC\05. Giovanni Allevi - The other side of me.wav
Pre-gap length 0:00:03.52
Peak level 95.5 % Extraction speed 1.4 X Track quality 100.0 % Test CRC 733E7639 Copy CRC 733E7639 Track not present in AccurateRip database Copy OK
Track 6
Filename C:\EAC\06. Giovanni Allevi - La stanza dei giochi.wav
Pre-gap length 0:00:03.28
Peak level 71.5 % Extraction speed 1.3 X Track quality 99.9 % Test CRC 71940022 Copy CRC 71940022 Track not present in AccurateRip database Copy OK
Track 7
Filename C:\EAC\07. Giovanni Allevi - It doesn't work.wav
Pre-gap length 0:00:04.05
Peak level 98.8 % Extraction speed 1.5 X Track quality 100.0 % Test CRC 5615E5F1 Copy CRC 5615E5F1 Track not present in AccurateRip database Copy OK
Track 8
Filename C:\EAC\08. Giovanni Allevi - Lovers.wav
Pre-gap length 0:00:02.53
Peak level 98.8 % Extraction speed 1.5 X Track quality 99.9 % Test CRC 39F4E5AC Copy CRC 39F4E5AC Track not present in AccurateRip database Copy OK
Track 9
Filename C:\EAC\09. Giovanni Allevi - My family.wav
Pre-gap length 0:00:02.89
Peak level 91.3 % Extraction speed 1.7 X Track quality 100.0 % Test CRC 96B9F6CF Copy CRC 96B9F6CF Track not present in AccurateRip database Copy OK
Track 10
Filename C:\EAC\10. Giovanni Allevi - Asian eyes.wav
Pre-gap length 0:00:04.13
Peak level 96.2 % Extraction speed 1.8 X Track quality 100.0 % Test CRC 42BE863A Copy CRC 42BE863A Track not present in AccurateRip database Copy OK
Track 11
Filename C:\EAC\11. Giovanni Allevi - Come with me.wav
Pre-gap length 0:00:02.52
Peak level 95.7 % Extraction speed 1.7 X Track quality 100.0 % Test CRC 13E8C3F8 Copy CRC 13E8C3F8 Track not present in AccurateRip database Copy OK
Track 12
Filename C:\EAC\12. Giovanni Allevi - Sweetie pie.wav
Pre-gap length 0:00:02.94
Peak level 89.9 % Extraction speed 1.9 X Track quality 100.0 % Test CRC 1D89F0FE Copy CRC 1D89F0FE Track not present in AccurateRip database Copy OK
Track 13
Filename C:\EAC\13. Giovanni Allevi - L'albatros.wav
Pre-gap length 0:00:02.54
Peak level 98.8 % Extraction speed 2.0 X Track quality 100.0 % Test CRC 384D21EE Copy CRC 384D21EE Track not present in AccurateRip database Copy OK
None of the tracks are present in the AccurateRip database
No errors occurred
End of status report
---- CUETools DB Plugin V2.1.4
[CTDB TOCID: WOScMVJL7fS5finqTwdGd8iAfMo-] disk not present in databaseSubmit result: WOScMVJL7fS5finqTwdGd8iAfMo- has been uploaded
==== Log checksum EBEA98326127B756B5850F3DBA3772B3743465FE5235EA3C2C6CD87012CEB870 ====

Содержание индексной карты (.CUE)

REM GENRE ClassicalREM DATE 2015REM DISCID B50B950DREM COMMENT "ExactAudioCopy v1.0b3"CATALOG 0888750457622PERFORMER "Giovanni Allevi"TITLE "Love"FILE "01. Giovanni Allevi - Yuzen.wav" WAVE TRACK 01 AUDIO TITLE "Yuzen" PERFORMER "Giovanni Allevi" ISRC ITAN71400001 INDEX 01 00:00:00 TRACK 02 AUDIO TITLE "Loving you" PERFORMER "Giovanni Allevi" ISRC ITAN71400002 INDEX 00 04:13:54FILE "02. Giovanni Allevi - Loving you.wav" WAVE INDEX 01 00:00:00 TRACK 03 AUDIO TITLE "Amor sacro" PERFORMER "Giovanni Allevi" ISRC ITAN71400003 INDEX 00 03:10:47FILE "03. Giovanni Allevi - Amor sacro.wav" WAVE INDEX 01 00:00:00 TRACK 04 AUDIO TITLE "Asteroid 111561" PERFORMER "Giovanni Allevi" ISRC ITAN71400004 INDEX 00 02:20:55FILE "04. Giovanni Allevi - Asteroid 111561.wav" WAVE INDEX 01 00:00:00 TRACK 05 AUDIO TITLE "The other side of me" PERFORMER "Giovanni Allevi" ISRC ITAN71400005 INDEX 00 02:23:14FILE "05. Giovanni Allevi - The other side of me.wav" WAVE INDEX 01 00:00:00 TRACK 06 AUDIO TITLE "La stanza dei giochi" PERFORMER "Giovanni Allevi" ISRC ITAN71400006 INDEX 00 05:11:65FILE "06. Giovanni Allevi - La stanza dei giochi.wav" WAVE INDEX 01 00:00:00 TRACK 07 AUDIO TITLE "It doesn't work" PERFORMER "Giovanni Allevi" ISRC ITAN71400007 INDEX 00 03:38:55FILE "07. Giovanni Allevi - It doesn't work.wav" WAVE INDEX 01 00:00:00 TRACK 08 AUDIO TITLE "Lovers" PERFORMER "Giovanni Allevi" ISRC ITAN71400008 INDEX 00 03:22:14FILE "08. Giovanni Allevi - Lovers.wav" WAVE INDEX 01 00:00:00 TRACK 09 AUDIO TITLE "My family" PERFORMER "Giovanni Allevi" ISRC ITAN71400009 INDEX 00 04:40:45FILE "09. Giovanni Allevi - My family.wav" WAVE INDEX 01 00:00:00 TRACK 10 AUDIO TITLE "Asian eyes" PERFORMER "Giovanni Allevi" ISRC ITAN71400010 INDEX 00 03:50:12FILE "10. Giovanni Allevi - Asian eyes.wav" WAVE INDEX 01 00:00:00 TRACK 11 AUDIO TITLE "Come with me" PERFORMER "Giovanni Allevi" ISRC ITAN71400011 INDEX 00 04:08:47FILE "11. Giovanni Allevi - Come with me.wav" WAVE INDEX 01 00:00:00 TRACK 12 AUDIO TITLE "Sweetie pie" PERFORMER "Giovanni Allevi" ISRC ITAN71400012 INDEX 00 02:40:36FILE "12. Giovanni Allevi - Sweetie pie.wav" WAVE INDEX 01 00:00:00 TRACK 13 AUDIO TITLE "L'albatros" PERFORMER "Giovanni Allevi" ISRC ITAN71400013 INDEX 00 04:32:07FILE "13. Giovanni Allevi - L'albatros.wav" WAVE INDEX 01 00:00:00

Лог проверки качества

-----------------------
DON'T MODIFY THIS FILE
-----------------------
PERFORMER: auCDtect Task Manager, ver. 1.5.1RC6 build 1.5.1.7Copyright (c) 2008-2010 y-soft. All rights reservedhttp://y-soft.org
ANALYZER: auCDtect: CD records authenticity detector, version 0.8.2Copyright (c) 2004 Oleg Berngardt. All rights reserved.Copyright (c) 2004 Alexander Djourik. All rights reserved.
FILE: 01. Giovanni Allevi - Yuzen.flac Size: 14349226 Hash: 0ADD7179C38B813150EC49B4004E0E2D Accuracy: -m0 Conclusion: MPEG 100% Signature: B245A8B75DEB69DD0B32E2006A929B81D747E3CCFILE: 02. Giovanni Allevi - Loving you.flac Size: 10985661 Hash: D2F1B9E25A03E44D6ACF90C35416D035 Accuracy: -m0 Conclusion: MPEG 91% Signature: CFCAF3F98215E6DC582F0D51647DEBC83B76EE35FILE: 03. Giovanni Allevi - Amor sacro.flac Size: 8974633 Hash: 5DD1D8157C11D9C064E05CC6B12BA94D Accuracy: -m0 Conclusion: MPEG 100% Signature: 4A62463EDB939942C83F592BC8C15FEA55246F1DFILE: 04. Giovanni Allevi - Asteroid 111561.flac Size: 8649058 Hash: 43E87C0E14930DCCD58251698C1A6D16 Accuracy: -m0 Conclusion: MPEG 89% Signature: 6D88C13D09030251EA2DFC178C779FDF9553B6BCFILE: 05. Giovanni Allevi - The other side of me.flac Size: 18758615 Hash: B7382EAEF7F91A1E492135C27951CFD1 Accuracy: -m0 Conclusion: MPEG 100% Signature: 0DFE7355479AFF6CCBFE88D459CC66AA91F33D67FILE: 06. Giovanni Allevi - La stanza dei giochi.flac Size: 11784410 Hash: 582762930941A3397B60D6FCCAE43A9F Accuracy: -m0 Conclusion: MPEG 91% Signature: 9C902E25B6E06B58BF1E397885E2FFDF8DA30D60FILE: 07. Giovanni Allevi - It doesn't work.flac Size: 12659722 Hash: B801802A8549B874988B52BB72334970 Accuracy: -m0 Conclusion: MPEG 99% Signature: 67619ED18605E919B4C4D896EDABED6511DEA96EFILE: 08. Giovanni Allevi - Lovers.flac Size: 14622300 Hash: 827EECCF0A00A912DEDFD751B56BEE3E Accuracy: -m0 Conclusion: MPEG 100% Signature: AB8780EBE5964D13726E1F3B1761D0C587778286FILE: 09. Giovanni Allevi - My family.flac Size: 13060966 Hash: 88CF546FAD31CB8F0561E54AA1BAA0EE Accuracy: -m0 Conclusion: MPEG 100% Signature: D382AAC5095201079C6930F2171D4766FE88DDCAFILE: 10. Giovanni Allevi - Asian eyes.flac Size: 13861911 Hash: 15A6C06A5421158290F5B73AE8190F22 Accuracy: -m0 Conclusion: MPEG 100% Signature: BAFB7D22FD87573A0FD6DE94774520A3D7319FC5FILE: 11. Giovanni Allevi - Come with me.flac Size: 9350282 Hash: 2921A7D229A231A31412A3BA1CD0470B Accuracy: -m0 Conclusion: MPEG 100% Signature: 7BF378DA1199EB4D74773F7BF0D9D201F1CF36B4FILE: 12. Giovanni Allevi - Sweetie pie.flac Size: 13789948 Hash: 50EDE26117A71F61A5147B08B720E520 Accuracy: -m0 Conclusion: MPEG 91% Signature: 44A23535039EF5E5762E0536B38B41914520B2F3FILE: 13. Giovanni Allevi - L'albatros.flac Size: 16857745 Hash: B0FD57754A8F56B3BC1DF31085F10856 Accuracy: -m0 Conclusion: MPEG 100% Signature: EF8209291C314D4413426ACF20B809C6481CD2B3

Скриншот спектра частот




Показать сообщения:    

Текущее время: 06-Дек 22:57

Часовой пояс: UTC + 3


Вы не можете начинать темы
Вы не можете отвечать на сообщения
Вы не можете редактировать свои сообщения
Вы не можете удалять свои сообщения
Вы не можете голосовать в опросах
Вы не можете прикреплять файлы к сообщениям
Вы не можете скачивать файлы