(Modern Classical) Edvin Marton - Strings'n'Beats - 2003, FLAC (tracks+.cue) lossless


 

[Цитировать]

Edvin Marton -- Strings'n'Beats
-Жанр: Modern Classical
Страна-производитель диска: EU
Год издания диска: 2003
Издатель (лейбл): BMG Ariola Classics
Номер по каталогу: 74321 94941 2
Аудиокодек: FLAC
Тип рипа: tracks+.cue
Битрейт аудио: lossless
Продолжительность: 00:58:19
Источник: скачано с
сайт-источник/ник/другое: what.cd / hauserke
Наличие сканов в содержимом раздачи: да-Треклист:
01 - King of the Forest (3:31)
02 - Miss You (4:45)
03 - Bitter Sweet Symphony (3:59)
04 - Una Furtiva Lagrima (5:17)
05 - Magic Stradivarius (3:18)
06 - Birdman (4:01)
07 - Secret Emotions (4:35)
08 - Fire Dance (3:04)
09 - Gloomy Sunday (4:42)
10 - First Date (2:50)
11 - Wind of Spring (2:57)
12 - Panis Angelicus (3:55)
13 - Spaces of Freedom (4:21)
14 - Sarabande (3:36)
15 - Art on Ice (3:27)

Лог создания рипа

Exact Audio Copy V1.0 beta 3 from 29. August 2011
EAC extraction logfile from 6. December 2012, 0:30
edvin marton / Strings 'n' Beats
Used drive : TEAC CD-W552E Adapter: 0 ID: 1
Read mode : SecureUtilize accurate stream : YesDefeat audio cache : YesMake use of C2 pointers : No
Read offset correction : 6Overread into Lead-In and Lead-Out : NoFill up missing offset samples with silence : YesDelete leading and trailing silent blocks : NoNull samples used in CRC calculations : YesUsed interface : Native Win32 interface for Win NT & 2000Gap handling : Appended to previous track
Used output format : User Defined EncoderSelected bitrate : 1024 kBit/sQuality : HighAdd ID3 tag : NoCommand line compressor : C:\Program Files (x86)\Exact Audio Copy\Flac\flac.exeAdditional command line options : -0 -V -T "ARTIST=%artist%" -T "TITLE=%title%" -T "ALBUM=%albumtitle%" -T "DATE=%year%" -T "TRACKNUMBER=%tracknr%" -T "TOTALTRACKS=%numtracks%" -T "GENRE=%genre%" -T "COMMENT=Naftamusic Release!" %source%
TOC of the extracted CD
Track | Start | Length | Start sector | End sector --------------------------------------------------------- 1 | 0:00.00 | 3:30.68 | 0 | 15817 2 | 3:30.68 | 4:45.21 | 15818 | 37213 3 | 8:16.14 | 3:59.06 | 37214 | 55144 4 | 12:15.20 | 5:16.51 | 55145 | 78895 5 | 17:31.71 | 3:18.29 | 78896 | 93774 6 | 20:50.25 | 4:01.01 | 93775 | 111850 7 | 24:51.26 | 4:34.67 | 111851 | 132467 8 | 29:26.18 | 3:04.00 | 132468 | 146267 9 | 32:30.18 | 4:42.10 | 146268 | 167427 10 | 37:12.28 | 2:50.17 | 167428 | 180194 11 | 40:02.45 | 2:57.03 | 180195 | 193472 12 | 42:59.48 | 3:55.17 | 193473 | 211114 13 | 46:54.65 | 4:20.51 | 211115 | 230665 14 | 51:15.41 | 3:35.56 | 230666 | 246846 15 | 54:51.22 | 3:27.17 | 246847 | 262388
Track 1
Filename Q:\EAC rip\Lossles\FLAC\edvin.marton-Strings'n'Beats(2003)[FLAC]-Naftamusic\01. King of the Forest.wav
Pre-gap length 0:00:02.00
Peak level 100.0 % Extraction speed 1.7 X Track quality 100.0 % Test CRC 860880AB Copy CRC 860880AB Accurately ripped (confidence 3) [8E79D386] (AR v1) Copy OK
Track 2
Filename Q:\EAC rip\Lossles\FLAC\edvin.marton-Strings'n'Beats(2003)[FLAC]-Naftamusic\02. Miss You.wav
Pre-gap length 0:00:02.30
Peak level 99.7 % Extraction speed 1.9 X Track quality 100.0 % Test CRC CCC0029F Copy CRC CCC0029F Accurately ripped (confidence 3) [EFAF5911] (AR v1) Copy OK
Track 3
Filename Q:\EAC rip\Lossles\FLAC\edvin.marton-Strings'n'Beats(2003)[FLAC]-Naftamusic\03. Bitter Sweet Symphony.wav
Pre-gap length 0:00:01.64
Peak level 99.7 % Extraction speed 2.1 X Track quality 100.0 % Test CRC 4149BDD1 Copy CRC 4149BDD1 Accurately ripped (confidence 3) [0462759F] (AR v1) Copy OK
Track 4
Filename Q:\EAC rip\Lossles\FLAC\edvin.marton-Strings'n'Beats(2003)[FLAC]-Naftamusic\04. Una Furtiva Lagrima.wav
Pre-gap length 0:00:01.37
Peak level 100.0 % Extraction speed 2.4 X Track quality 100.0 % Test CRC 2E3A0210 Copy CRC 2E3A0210 Accurately ripped (confidence 3) [BF127B3F] (AR v1) Copy OK
Track 5
Filename Q:\EAC rip\Lossles\FLAC\edvin.marton-Strings'n'Beats(2003)[FLAC]-Naftamusic\05. Magic Stradivarius.wav
Pre-gap length 0:00:01.33
Peak level 99.6 % Extraction speed 2.4 X Track quality 100.0 % Test CRC AEC7E053 Copy CRC AEC7E053 Accurately ripped (confidence 3) [45D8945F] (AR v1) Copy OK
Track 6
Filename Q:\EAC rip\Lossles\FLAC\edvin.marton-Strings'n'Beats(2003)[FLAC]-Naftamusic\06. Birdman.wav
Pre-gap length 0:00:02.16
Peak level 99.4 % Extraction speed 2.3 X Track quality 99.9 % Test CRC 39F79773 Copy CRC 39F79773 Accurately ripped (confidence 3) [3F712D59] (AR v1) Copy OK
Track 7
Filename Q:\EAC rip\Lossles\FLAC\edvin.marton-Strings'n'Beats(2003)[FLAC]-Naftamusic\07. Secret Emotions.wav
Pre-gap length 0:00:01.64
Peak level 99.4 % Extraction speed 2.5 X Track quality 99.9 % Test CRC 7BB50C77 Copy CRC 7BB50C77 Accurately ripped (confidence 3) [8F7570EF] (AR v1) Copy OK
Track 8
Filename Q:\EAC rip\Lossles\FLAC\edvin.marton-Strings'n'Beats(2003)[FLAC]-Naftamusic\08. Fire Dance.wav
Pre-gap length 0:00:00.01
Peak level 100.0 % Extraction speed 2.7 X Track quality 100.0 % Test CRC D0C67BEA Copy CRC D0C67BEA Accurately ripped (confidence 3) [480E002D] (AR v1) Copy OK
Track 9
Filename Q:\EAC rip\Lossles\FLAC\edvin.marton-Strings'n'Beats(2003)[FLAC]-Naftamusic\09. Gloomy Sunday.wav
Pre-gap length 0:00:02.03
Peak level 99.1 % Extraction speed 3.0 X Track quality 100.0 % Test CRC A196D3F3 Copy CRC A196D3F3 Accurately ripped (confidence 3) [EF97631E] (AR v1) Copy OK
Track 10
Filename Q:\EAC rip\Lossles\FLAC\edvin.marton-Strings'n'Beats(2003)[FLAC]-Naftamusic\10. First Date.wav
Pre-gap length 0:00:01.64
Peak level 100.0 % Extraction speed 2.9 X Track quality 100.0 % Test CRC C2B84ED6 Copy CRC C2B84ED6 Accurately ripped (confidence 3) [41474FD6] (AR v1) Copy OK
Track 11
Filename Q:\EAC rip\Lossles\FLAC\edvin.marton-Strings'n'Beats(2003)[FLAC]-Naftamusic\11. Wind of Spring.wav
Pre-gap length 0:00:03.09
Peak level 99.9 % Extraction speed 3.0 X Track quality 100.0 % Test CRC 3189F415 Copy CRC 3189F415 Accurately ripped (confidence 3) [273A651B] (AR v1) Copy OK
Track 12
Filename Q:\EAC rip\Lossles\FLAC\edvin.marton-Strings'n'Beats(2003)[FLAC]-Naftamusic\12. Panis Angelicus.wav
Pre-gap length 0:00:02.16
Peak level 100.0 % Extraction speed 3.2 X Track quality 100.0 % Test CRC BAC664A9 Copy CRC BAC664A9 Accurately ripped (confidence 3) [E96A0E42] (AR v1) Copy OK
Track 13
Filename Q:\EAC rip\Lossles\FLAC\edvin.marton-Strings'n'Beats(2003)[FLAC]-Naftamusic\13. Spaces of Freedom.wav
Pre-gap length 0:00:02.01
Peak level 99.8 % Extraction speed 3.4 X Track quality 100.0 % Test CRC 6EF422CB Copy CRC 6EF422CB Accurately ripped (confidence 3) [AD28340F] (AR v1) Copy OK
Track 14
Filename Q:\EAC rip\Lossles\FLAC\edvin.marton-Strings'n'Beats(2003)[FLAC]-Naftamusic\14. Sarabande.wav
Pre-gap length 0:00:02.26
Peak level 100.0 % Extraction speed 3.4 X Track quality 100.0 % Test CRC 53CA9D23 Copy CRC 53CA9D23 Accurately ripped (confidence 3) [FF6784D7] (AR v1) Copy OK
Track 15
Filename Q:\EAC rip\Lossles\FLAC\edvin.marton-Strings'n'Beats(2003)[FLAC]-Naftamusic\15. Art on Ice.wav
Pre-gap length 0:00:00.58
Peak level 100.0 % Extraction speed 3.4 X Track quality 100.0 % Test CRC 88DFE8C8 Copy CRC 88DFE8C8 Accurately ripped (confidence 3) [3977620E] (AR v1) Copy OK
All tracks accurately ripped
No errors occurred
End of status report
==== Log checksum 9C54D22058AA64AAC26A5C8F925FD2605B08FE13B7739B62FCB043F57B8C0AE8 ====

Содержание индексной карты (.CUE)

REM GENRE ViolinREM DATE 2003REM DISCID D00DAA0FREM COMMENT "ExactAudioCopy v1.0b3"PERFORMER "edvin marton"TITLE "Strings 'n' Beats"FILE "01. King of the Forest.wav" WAVE TRACK 01 AUDIO TITLE "King of the Forest" PERFORMER "edvin marton" INDEX 01 00:00:00 TRACK 02 AUDIO TITLE "Miss You" PERFORMER "edvin marton" INDEX 00 03:28:38FILE "02. Miss You.wav" WAVE INDEX 01 00:00:00 TRACK 03 AUDIO TITLE "Bitter Sweet Symphony" PERFORMER "edvin marton" INDEX 00 04:43:32FILE "03. Bitter Sweet Symphony.wav" WAVE INDEX 01 00:00:00 TRACK 04 AUDIO TITLE "Una Furtiva Lagrima" PERFORMER "edvin marton" INDEX 00 03:57:44FILE "04. Una Furtiva Lagrima.wav" WAVE INDEX 01 00:00:00 TRACK 05 AUDIO TITLE "Magic Stradivarius" PERFORMER "edvin marton" INDEX 00 05:15:18FILE "05. Magic Stradivarius.wav" WAVE INDEX 01 00:00:00 TRACK 06 AUDIO TITLE "Birdman" PERFORMER "edvin marton" INDEX 00 03:16:13FILE "06. Birdman.wav" WAVE INDEX 01 00:00:00 TRACK 07 AUDIO TITLE "Secret Emotions" PERFORMER "edvin marton" INDEX 00 03:59:12FILE "07. Secret Emotions.wav" WAVE INDEX 01 00:00:00 TRACK 08 AUDIO TITLE "Fire Dance" PERFORMER "edvin marton" INDEX 00 04:34:66FILE "08. Fire Dance.wav" WAVE INDEX 01 00:00:00 TRACK 09 AUDIO TITLE "Gloomy Sunday" PERFORMER "edvin marton" INDEX 00 03:01:72FILE "09. Gloomy Sunday.wav" WAVE INDEX 01 00:00:00 TRACK 10 AUDIO TITLE "First Date" PERFORMER "edvin marton" INDEX 00 04:40:21FILE "10. First Date.wav" WAVE INDEX 01 00:00:00 TRACK 11 AUDIO TITLE "Wind of Spring" PERFORMER "edvin marton" INDEX 00 02:47:08FILE "11. Wind of Spring.wav" WAVE INDEX 01 00:00:00 TRACK 12 AUDIO TITLE "Panis Angelicus" PERFORMER "edvin marton" INDEX 00 02:54:62FILE "12. Panis Angelicus.wav" WAVE INDEX 01 00:00:00 TRACK 13 AUDIO TITLE "Spaces of Freedom" PERFORMER "edvin marton" INDEX 00 03:53:16FILE "13. Spaces of Freedom.wav" WAVE INDEX 01 00:00:00 TRACK 14 AUDIO TITLE "Sarabande" PERFORMER "edvin marton" INDEX 00 04:18:25FILE "14. Sarabande.wav" WAVE INDEX 01 00:00:00 TRACK 15 AUDIO TITLE "Art on Ice" PERFORMER "edvin marton" INDEX 00 03:34:73FILE "15. Art on Ice.wav" WAVE INDEX 01 00:00:00

.nfo

********************************************************************************** ****** oooo$$$$$$$$$$$$oooo oo$$$$$$$$$$$$$$$$$$$$$$$$o oo$$$$$$$$$$$$$$$$$$$$$$$$$$$$$$o o$ $$ o$ o $ oo o$$$$$$$$$$$$$$$$$$$$$$$$$$$$$$$$$$$$o $$ $$ $$o$oo $ $ "$ o$$$$$$$$$ $$$$$$$$$$$$$ $$$$$$$$$o $$$o$$o$"$$$$$$o$ o$$$$$$$$$ $$$$$$$$$$$ $$$$$$$$$$o $$$$$$$$ $$$$$$$ $$$$$$$$$$$ $$$$$$$$$$$ $$$$$$$$$$$$$$$$$$$$$$$ $$$$$$$$$$$$$$$$$$$$$$$ $$$$$$$$$$$$$ $$$$$$$$$$$$$$ """$$$ "$$$""""$$$$$$$$$$$$$$$$$$$$$$$$$$$$$$$$$$$$$$$$$$$$$$$$$ "$$$ $$$ o$$$$$$$$$$$$$$$$$$$$$$$$$$$$$$$$$$$$$$$$$$$$$$$$$$ "$$$o o$$" $$$$$$$$$$$$$$$$$$$$$$$$$$$$$$$$$$$$$$$$$$$$$$$$$$$ $$$o $$$ $$$$$$$$$$$$$$$$$$$$$$$$$$$$$$$$$$$$$$$$$$$$$" "$$$$$$ooooo$$$$o o$$$oooo$$$$$ $$$$$$$$$$$$$$$$$$$$$$$$$$$$$$$$$$$$$ o$$$$$$$$$$$$$$$$$ $$$$$$$$"$$$$ $$$$$$$$$$$$$$$$$$$$$$$$$$$$$$$$$$ $$$$"""""""" """" $$$$ "$$$$$$$$$$$$$$$$$$$$$$$$$$$$" o$$$ "$$$o """$$$$$$$$$$$$$$$$$$"$$" $$$ $$$o "$$""$$$$$$"""" o$$$ $$$$o o$$$" "$$$$o o$$$$$$o"$$$$o o$$$$ "$$$$$oo ""$$$$o$$$$$o o$$$$"" ""$$$$$oooo "$$$o$$$$$$$$$""" Art by: ""$$$$$$$oo $$$$$$$$$$ Christopher Johnson """"$$$$$$$$$$$ $$$$$$$$$$$$ $$$$$$$$$$" "$$$""""
***** Since: 2010 ****** **************************888888ba .8888b dP oo88 `8b 88 " 8888 88 .d8888b. 88aaa d8888P .d8888b. 88d8b.d8b. dP dP .d8888b. dP .d8888b.88 88 88' `88 88 88 88' `88 88'`88'`88 88 88 Y8ooooo. 88 88' `""88 88 88. .88 88 88 88. .88 88 88 88 88. .88 88 88 88. ...dP dP `88888P8 dP dP `88888P8 dP dP dP `88888P' `88888P' dP `88888P'**********************************************************************************
********************************************************************************** ****** The Naftamusic Release Team proudly presents: edvin marton - Strings 'n' Beats
********************************************************************************** ****** -- AUDIO INFORMATION --
Artist......: edvin martonAlbum.......: Strings 'n' BeatsGenre.......: ViolinSource......: CDYear........: 2003Ripper......: Exact Audio Copy (EAC) / Secure ModeCodec.......: FLACVersion.....: reference libFLAC 1.2.1 20070917Quality.....: Lossless (avg. compression: 69,9%)Channels....: Channel Numbers: 2 / 44100Hz / 16 BitDrive.......: TEAC CD-W552ERipped By...: atydigitalRIP Date....: 2012.12.05.
Included....:NFO, CUE, LOG, M3UCovers....:Front, Back, Disc, Inlay, Booklet
********************************************************************************** ****** -- TRACKLIIST --
01 - King of the Forest (00:03:31)02 - Miss You (00:04:45)03 - Bitter Sweet Symphony (00:03:59)04 - Una Furtiva Lagrima (00:05:17)05 - Magic Stradivarius (00:03:18)06 - Birdman (00:04:01)07 - Secret Emotions (00:04:35)08 - Fire Dance (00:03:04)09 - Gloomy Sunday (00:04:42)10 - First Date (00:02:50)11 - Wind of Spring (00:02:57)12 - Panis Angelicus (00:03:55)13 - Spaces of Freedom (00:04:21)14 - Sarabande (00:03:36)15 - Art on Ice (00:03:27)
Playing Time: 00:58:19 Total size: 411 MB
********************************************************************************** ****** -- NOTES --
Please do not modify these files before sharing other places!If you like this album please buy the original!
********************************************************************************** ****** -- GREETS --
Respect to Insane Bittorrent Community!
****************************************************************************************

Спектры

Лог проверки качества

[CUETools log; Date: 18.01.2015 14:11:51; Version: 2.1.2a][CTDB TOCID: 2dHo352JGW9gV9ZRCM0C62cZnAk-] found. [ CTDBID ] Status [84c9486d] (5/5) Accurately ripped[AccurateRip ID: 0021035c-01734a97-d00daa0f] found.Track [ CRC ] Status 01 [8e79d386] (04/10) Accurately ripped 02 [efaf5911] (04/10) Accurately ripped 03 [0462759f] (04/10) Accurately ripped 04 [bf127b3f] (04/10) Accurately ripped 05 [45d8945f] (04/10) Accurately ripped 06 [3f712d59] (04/10) Accurately ripped 07 [8f7570ef] (04/10) Accurately ripped 08 [480e002d] (04/10) Accurately ripped 09 [ef97631e] (04/10) Accurately ripped 10 [41474fd6] (04/10) Accurately ripped 11 [273a651b] (04/10) Accurately ripped 12 [e96a0e42] (04/10) Accurately ripped 13 [ad28340f] (04/10) Accurately ripped 14 [ff6784d7] (04/10) Accurately ripped 15 [3977620e] (04/10) Accurately rippedAccurateRip v2: 01 [0f28cc5e] (02/10) Accurately ripped 02 [4e929751] (02/10) Accurately ripped 03 [c6eedd06] (02/10) Accurately ripped 04 [38d256aa] (02/10) Accurately ripped 05 [5041ae0b] (02/10) Accurately ripped 06 [0999706f] (02/10) Accurately ripped 07 [eeb25cb3] (02/10) Accurately ripped 08 [cb6ae1b9] (02/10) Accurately ripped 09 [71318e66] (02/10) Accurately ripped 10 [949c3360] (02/10) Accurately ripped 11 [ec7d97fb] (02/10) Accurately ripped 12 [afe25ed1] (02/10) Accurately ripped 13 [da58415c] (02/10) Accurately ripped 14 [792216f5] (02/10) Accurately ripped 15 [f5e5be28] (02/10) Accurately rippedOffsetted by -646: 01 [8a368eb2] (02/10) Accurately ripped 02 [5e759cad] (02/10) Accurately ripped 03 [e27d86e1] (02/10) Accurately ripped 04 [8974c895] (02/10) Accurately ripped 05 [3d99cab5] (02/10) Accurately ripped 06 [e057b511] (02/10) Accurately ripped 07 [757ea2fb] (02/10) Accurately ripped 08 [5d130c5f] (02/10) Accurately ripped 09 [a036f47a] (02/10) Accurately ripped 10 [21589120] (02/10) Accurately ripped 11 [4fff01cd] (02/10) Accurately ripped 12 [7798e1a0] (02/10) Accurately ripped 13 [351ba01b] (02/10) Accurately ripped 14 [bbb7fa15] (02/10) Accurately ripped 15 [576315e4] (02/10) Accurately ripped
Track Peak [ CRC32 ] [W/O NULL] [ LOG ] -- 100,0 [FE5AB057] [BC274AE3] 01 100,0 [860880AB] [777537DD] CRC32 02 99,7 [CCC0029F] [20300A19] CRC32 03 99,7 [4149BDD1] [8CCBE00C] CRC32 04 100,0 [2E3A0210] [6E2760D7] CRC32 05 99,6 [AEC7E053] [DD00B4A9] CRC32 06 99,4 [39F79773] [B64A569B] CRC32 07 99,4 [7BB50C77] [94381037] CRC32 08 100,0 [D0C67BEA] [1C48C978] CRC32 09 99,1 [A196D3F3] [6C5C88EA] CRC32 10 100,0 [C2B84ED6] [464E077A] CRC32 11 99,9 [3189F415] [53746ED3] CRC32 12 100,0 [BAC664A9] [504477B8] CRC32 13 99,8 [6EF422CB] [B96E0BB4] CRC32 14 100,0 [53CA9D23] [0B0D26BB] CRC32 15 100,0 [88DFE8C8] [BF184BD1] CRC32



Показать сообщения:    

Текущее время: 11-Дек 16:47

Часовой пояс: UTC + 3


Вы не можете начинать темы
Вы не можете отвечать на сообщения
Вы не можете редактировать свои сообщения
Вы не можете удалять свои сообщения
Вы не можете голосовать в опросах
Вы не можете прикреплять файлы к сообщениям
Вы не можете скачивать файлы