(Classical Crossover, Vocal) [CD] Katherine Jenkins - Home Sweet Home - 2014, FLAC (image+.cue), lossless


 

[Цитировать]

KATHERINE JENKINSHOME SWEET HOME- Жанр: Classical Crossover, Vocal
Год издания диска: 2014
Издатель (лейбл): Decca
Номер по каталогу: 3773443
Страна: Wales, UK
Аудиокодек: FLAC
Тип рипа: image+.cue
Битрейт аудио: lossless
Продолжительность: 00:55:28
Источник: kpnemo (JVA)
Наличие сканов: да-
01. Land Of My Fathers (3:24)
02. Beethoven's Ode To Joy (With David Garrett) (3:44)
03. Sanctus (Elgar's Nimrod) (3:39)
04. Barcelona (With Alfie Boe) (4:28)
05. Dreaming Of The Days (Einaudi's I Giorni) (4:22)
06. World In Union (4:13)
07. Segreti (One Republic's Secrets) (4:29)
08. Remember (Bach's Goldberg Variations) (4:20)
09. We'll Gather Lilacs (3:27)
10. How Great Thou Art (4:59)
11. Home! Sweet Home! (3:51)
12. Anthem (From Chess) (3:24)
13. We Are The Champions (3:31)
14. Silent Night (3:38)-Отчёты

Лог создания рипа

Exact Audio Copy V0.99 prebeta 5 from 4. May 2009
Отчёт EAC об извлечении, выполненном 15. декабря 2014, 10:18
Katherine Jenkins / Home Sweet Home
Дисковод: ATAPI iHAS124 E Adapter: 0 ID: 0
Режим чтения : ДостоверностьИспользование точного потока : ДаОтключение кэша аудио : ДаИспользование указателей C2 : Нет
Коррекция смещения при чтении : 6Способность читать области Lead-in и Lead-out : НетЗаполнение пропущенных сэмплов тишиной : ДаУдаление блоков с тишиной в начале и конце : НетПри вычислениях CRC использовались нулевые сэмплы : ДаИнтерфейс : Встроенный Win32-интерфейс для Win NT/2000
Выходной формат : Пользовательский кодировщикВыбранный битрейт : 768 kBit/sКачество : ВысокийДобавление ID3-тэга : НетУтилита сжатия : C:\Program Files\Exact Audio Copy\Flac\flac.exeДополнительные параметры : -6 -V -T "ARTIST=%a" -T "TITLE=%t" -T "ALBUM=%g" -T "DATE=%y" -T "TRACKNUMBER=%n" -T "GENRE=%m" -T "COMMENT=%e" %s -o %d
TOC извлечённого CD
Трек | Старт | Длительность | Начальный сектор | Конечный сектор --------------------------------------------------------------------- 1 | 0:00.00 | 3:23.71 | 0 | 15295 2 | 3:23.71 | 3:43.55 | 15296 | 32075 3 | 7:07.51 | 3:38.47 | 32076 | 48472 4 | 10:46.23 | 4:28.30 | 48473 | 68602 5 | 15:14.53 | 4:21.74 | 68603 | 88251 6 | 19:36.52 | 4:12.40 | 88252 | 107191 7 | 23:49.17 | 4:29.00 | 107192 | 127366 8 | 28:18.17 | 4:19.71 | 127367 | 146862 9 | 32:38.13 | 3:27.19 | 146863 | 162406 10 | 36:05.32 | 4:58.41 | 162407 | 184797 11 | 41:03.73 | 3:50.42 | 184798 | 202089 12 | 44:54.40 | 3:23.54 | 202090 | 217368 13 | 48:18.19 | 3:31.34 | 217369 | 233227 14 | 51:49.53 | 3:37.68 | 233228 | 249570
Характеристики диапазона извлечения и сообщения об ошибках
Выбранный диапазон
Имя файла C:\EAC\Katherine Jenkins - Home Sweet Home\Katherine Jenkins - Home Sweet Home.wav
Пиковый уровень 98.0 % Качество диапазона 99.9 % CRC копии FF44878A Копирование... OK
Ошибок не произошло
AccurateRip: сводка
Трек 1 нет в базе данныхТрек 2 нет в базе данныхТрек 3 нет в базе данныхТрек 4 нет в базе данныхТрек 5 нет в базе данныхТрек 6 нет в базе данныхТрек 7 нет в базе данныхТрек 8 нет в базе данныхТрек 9 нет в базе данныхТрек 10 нет в базе данныхТрек 11 нет в базе данныхТрек 12 нет в базе данныхТрек 13 нет в базе данныхТрек 14 нет в базе данных
Ни одного трека нет в базе AccurateRip
Конец отчёта

Лог проверки качества

-----------------------
DON'T MODIFY THIS FILE
-----------------------
PERFORMER: auCDtect Task Manager, ver. 1.6.0 RC1 build 1.6.0.1Copyright (c) 2008-2010 y-soft. All rights reservedhttp://y-soft.org
ANALYZER: auCDtect: CD records authenticity detector, version 0.8.2Copyright (c) 2004 Oleg Berngardt. All rights reserved.Copyright (c) 2004 Alexander Djourik. All rights reserved.
FILE: Katherine Jenkins - Home Sweet Home.flac Size: 317824532 Hash: 75F2BEEDF55B581C4FE00B4BF9DF9924 Accuracy: -m0 Conclusion: CDDA 100% Signature: 07D7AF9EADC95F96DE972D3709520362B0FD6747

Динамический диапазон

foobar2000 1.2.2 / Замер динамического диапазона (DR) 1.1.1Дата отчёта: 2014-12-15 23:26:38
--------------------------------------------------------------------------------Анализ: Katherine Jenkins / Home Sweet Home--------------------------------------------------------------------------------
DR Пики RMS Продолжительность трека--------------------------------------------------------------------------------DR9 -0.46 дБ -13.93 дБ 3:24 ?-Land Of My FathersDR8 -0.18 дБ -12.22 дБ 3:44 ?-Beethoven's Ode To Joy (With David Garrett)DR10 -0.21 дБ -14.61 дБ 3:39 ?-Sanctus (Elgar's Nimrod)DR9 -0.17 дБ -12.68 дБ 4:28 ?-Barcelona (With Alfie Boe)DR9 -0.42 дБ -14.25 дБ 4:22 ?-Dreaming Of The Days (Einaudi's I Giorni)DR9 -0.17 дБ -12.65 дБ 4:13 ?-World In UnionDR9 -0.59 дБ -13.57 дБ 4:29 ?-Segreti (One Republic's Secrets)DR9 -0.22 дБ -12.57 дБ 4:20 ?-Remember (Bach's Goldberg Variations)DR10 -0.73 дБ -13.61 дБ 3:27 ?-We'll Gather LilacsDR10 -0.41 дБ -14.42 дБ 4:59 ?-How Great Thou ArtDR10 -0.17 дБ -14.86 дБ 3:51 ?-Home! Sweet Home!DR9 -0.29 дБ -13.48 дБ 3:24 ?-Anthem (From Chess)DR9 -0.17 дБ -12.51 дБ 3:31 ?-We Are The ChampionsDR10 -0.60 дБ -16.24 дБ 3:38 ?-Silent Night--------------------------------------------------------------------------------
Количество треков: 14Реальные значения DR: DR9
Частота: 44100 ГцКаналов: 2Разрядность: 16Битрейт: 764 кбит/сКодек: FLAC================================================================================

Доп. информация

Релиз полностью готов к воспроизведению в аудиоплеере (я ориентировался на foobar2000)При скачивании, если необходимо, переименуйте папку, в которой будет находиться альбомБольшая просьба к скачавшим поддерживать раздачу! Помогайте другим, ведь вам тоже может понадобиться помощь!Не забываем говорить "Спасибо"!Комментарии приветствуются!



Показать сообщения:    

Текущее время: 06-Дек 13:12

Часовой пояс: UTC + 3


Вы не можете начинать темы
Вы не можете отвечать на сообщения
Вы не можете редактировать свои сообщения
Вы не можете удалять свои сообщения
Вы не можете голосовать в опросах
Вы не можете прикреплять файлы к сообщениям
Вы не можете скачивать файлы