(Neo-classical) Rondo Veneziano - Zodiaco - 1998, FLAC (image+.cue) lossless


 

[Цитировать]

Rondo Veneziano - Zodiaco
Жанр: Neo-classical
Страна-производитель диска: EC
Год издания диска: 1998
Издатель (лейбл): KOCH
Номер по каталогу: 33503-2
Страна: Italy
Аудиокодек: FLAC
Тип рипа: image+.cue
Битрейт аудио: lossless
Источник: скачано с сети
Наличие сканов в содержимом раздачи: да
Треклист:
01. Zodiaco (3:51)
02. Acquario - Aria (4:55)
03. Toro - Terra (4:54)
04. Scorpione - Acqua (2:56)
05. Ariete - Fuoco (2:17)
06. Bilancia - Aria (6:00)
07. Leone - Fuoco (3:48)
08. Capricorno - Terra (3:53)
09. Pesci - Acqua (3:22)
10. Sagittario - Fuoco (2:43)
11. Cancro - Acqua (3:34)
12. Vergine - Terra (3:46)
13. Gemelli - Aria (3:24)

Лог создания рипа

Exact Audio Copy V0.99 prebeta 5 from 4. May 2009
EAC extraction logfile from 25. July 2011, 17:55
Rondo Veneziano / Zodiaco
Used drive : Optiarc DVD RW AD-7200S Adapter: 2 ID: 1
Read mode : SecureUtilize accurate stream : YesDefeat audio cache : YesMake use of C2 pointers : No
Read offset correction : 48Overread into Lead-In and Lead-Out : NoFill up missing offset samples with silence : YesDelete leading and trailing silent blocks : NoNull samples used in CRC calculations : YesUsed interface : Native Win32 interface for Win NT & 2000
Used output format : Internal WAV RoutinesSample format : 44.100 Hz; 16 Bit; Stereo
TOC of the extracted CD
Track | Start | Length | Start sector | End sector --------------------------------------------------------- 1 | 0:00.00 | 3:51.72 | 0 | 17396 2 | 3:51.72 | 4:55.05 | 17397 | 39526 3 | 8:47.02 | 4:54.13 | 39527 | 61589 4 | 13:41.15 | 2:56.15 | 61590 | 74804 5 | 16:37.30 | 2:16.67 | 74805 | 85071 6 | 18:54.22 | 6:00.43 | 85072 | 112114 7 | 24:54.65 | 3:48.57 | 112115 | 129271 8 | 28:43.47 | 3:52.63 | 129272 | 146734 9 | 32:36.35 | 3:22.12 | 146735 | 161896 10 | 35:58.47 | 2:43.00 | 161897 | 174121 11 | 38:41.47 | 3:34.33 | 174122 | 190204 12 | 42:16.05 | 3:46.60 | 190205 | 207214 13 | 46:02.65 | 3:24.40 | 207215 | 222554
Range status and errors
Selected range
Filename D:\!\!news\!flac\!\Rondo Veneziano - (c)1998 - Zodiaco [FLAC]\Rondo Veneziano - Zodiaco.wav
Peak level 100.0 % Range quality 100.0 % Test CRC 9F776FF0 Copy CRC 9F776FF0 Copy OK
No errors occurred
End of status report

Содержание индексной карты (.CUE)

REM GENRE ClassicalREM DATE 1998REM DISCID BF0B970DREM COMMENT "ExactAudioCopy v0.99pb5"PERFORMER "Rondo Veneziano"TITLE "Zodiaco"FILE "Rondo Veneziano - Zodiaco.flac" WAVE TRACK 01 AUDIO TITLE "Zodiaco" PERFORMER "Rondo Veneziano" INDEX 01 00:00:00 TRACK 02 AUDIO TITLE "Acquario-Aria" PERFORMER "Rondo Veneziano" INDEX 01 03:51:72 TRACK 03 AUDIO TITLE "Toro-Terra" PERFORMER "Rondo Veneziano" INDEX 01 08:47:02 TRACK 04 AUDIO TITLE "Scorpione-Acqua" PERFORMER "Rondo Veneziano" INDEX 01 13:41:15 TRACK 05 AUDIO TITLE "Ariete-Fuoco" PERFORMER "Rondo Veneziano" INDEX 01 16:37:30 TRACK 06 AUDIO TITLE "Bilancia-Aria" PERFORMER "Rondo Veneziano" INDEX 01 18:54:22 TRACK 07 AUDIO TITLE "Leone-Fuoco" PERFORMER "Rondo Veneziano" INDEX 01 24:54:65 TRACK 08 AUDIO TITLE "Capricorno-Terra" PERFORMER "Rondo Veneziano" INDEX 01 28:43:47 TRACK 09 AUDIO TITLE "Pesci-Acqua" PERFORMER "Rondo Veneziano" INDEX 01 32:36:35 TRACK 10 AUDIO TITLE "Sagittario-Fuoco" PERFORMER "Rondo Veneziano" INDEX 01 35:58:47 TRACK 11 AUDIO TITLE "Cancro-Acqua" PERFORMER "Rondo Veneziano" INDEX 01 38:41:47 TRACK 12 AUDIO TITLE "Vergine-Terra" PERFORMER "Rondo Veneziano" INDEX 01 42:16:05 TRACK 13 AUDIO TITLE "Gemelli-Aria" PERFORMER "Rondo Veneziano" INDEX 01 46:02:65

Лог проверки качества

[CUETools log; Date: 17.11.2014 2:38:25; Version: 2.1.4][CTDB TOCID: tnsKeoAMneQhuxrLKreJoyXZaQk-] found.Track | CTDB Status 1 | (6/6) Accurately ripped 2 | (6/6) Accurately ripped 3 | (6/6) Accurately ripped 4 | (6/6) Accurately ripped 5 | (6/6) Accurately ripped 6 | (6/6) Accurately ripped 7 | (6/6) Accurately ripped 8 | (6/6) Accurately ripped 9 | (6/6) Accurately ripped 10 | (6/6) Accurately ripped 11 | (6/6) Accurately ripped 12 | (6/6) Accurately ripped 13 | (5/6) Accurately ripped[AccurateRip ID: 0018c1eb-00f4e7ce-bf0b970d] found.Track [ CRC | V2 ] Status 01 [c43e1a39|2c51cd04] (00+00/21) No match 02 [94a771e0|65a59efb] (00+00/21) No match 03 [7e58a10c|77aa48d5] (00+00/21) No match 04 [0aa73ebc|5458a8f3] (00+00/21) No match 05 [b20255bd|0f1c38af] (00+00/21) No match 06 [bb2d2d09|8e1c88ca] (00+00/21) No match 07 [2a009a29|a1d6446a] (00+00/21) No match 08 [e7c367e5|abdd5d0e] (00+00/21) No match 09 [4e64a9b2|9fe9aee8] (00+00/20) No match 10 [37d649f5|313c796a] (00+00/21) No match 11 [17cae2f8|f6f5e684] (00+00/21) No match 12 [974eecb4|d95e19e2] (00+00/21) No match 13 [56dec640|2e2a1fac] (00+00/21) No matchOffsetted by 156: 01 [44d4040f] (15/21) Accurately ripped 02 [58b16c34] (15/21) Accurately ripped 03 [53774250] (15/21) Accurately ripped 04 [1dfb4465] (15/21) Accurately ripped 05 [65248a33] (15/21) Accurately ripped 06 [da6bce43] (15/21) Accurately ripped 07 [7f73fa8a] (15/21) Accurately ripped 08 [80926f41] (15/21) Accurately ripped 09 [ae9ef7db] (14/20) Accurately ripped 10 [2fd79778] (15/21) Accurately ripped 11 [960e770f] (15/21) Accurately ripped 12 [6419a70a] (15/21) Accurately ripped 13 [581433bf] (15/21) Accurately ripped
Track Peak [ CRC32 ] [W/O NULL] [ LOG ] -- 100,0 [9F776FF0] [79172C0D] CRC32 01 80,8 [749A00D7] [7F236961] 02 57,2 [EE8BDBC1] [4DB052E5] 03 94,4 [B43D3568] [1F73B935] 04 70,0 [F8989FE9] [60D7F3EC] 05 100,0 [921EFDE6] [62E0DB40] 06 86,7 [F40F772A] [D7F8FFEA] 07 91,5 [FD3513C9] [95D0E633] 08 70,9 [6B50F054] [8F235310] 09 94,6 [6FD25871] [9EB3FF74] 10 95,0 [CC4373A7] [56BDE5DC] 11 59,6 [4830E460] [00CE9E58] 12 100,0 [DC8ABD38] [E1BAB513] 13 74,5 [6A76A27A] [F09FBCAB]



Показать сообщения:    

Текущее время: 10-Дек 17:49

Часовой пояс: UTC + 3


Вы не можете начинать темы
Вы не можете отвечать на сообщения
Вы не можете редактировать свои сообщения
Вы не можете удалять свои сообщения
Вы не можете голосовать в опросах
Вы не можете прикреплять файлы к сообщениям
Вы не можете скачивать файлы