(Neo-classical) Rondo Veneziano - Arabesque - 1987, FLAC (image+.cue) lossless


 

[Цитировать]

Rondo Veneziano - Arabesque
Жанр: Neo-classical
Страна-производитель диска: Italy
Год издания диска: 1987
Издатель (лейбл): Baby Records
Номер по каталогу: 590 115-2
Аудиокодек: FLAC
Тип рипа: image+.cue
Битрейт аудио: lossless
Источник: скачано с сети
Наличие сканов в содержимом раздачи: да
Треклист:
01 - Arabesque 3:06
02 - Corso Delle Gondole 2:27
03 - Feste Veneziane 2:30
04 - Profumo D'oriente 3:17
05 - Fiaba Antica 3:09
06 - Armonie 2:37
07 - La Scala D'oro 3:24
08 - Arcobaleno 3:30
09 - Ritorno A Venezia 3:09
10 - Affresco 2:26
11 - Specchio Della Laguna 4:10
12 - Rive E Marine 2:10

Лог создания рипа

Exact Audio Copy V0.99 prebeta 5 from 4. May 2009
EAC extraction logfile from 21. July 2011, 15:17
Rondo Veneziano / Arabesque
Used drive : Optiarc DVD RW AD-7200S Adapter: 2 ID: 1
Read mode : SecureUtilize accurate stream : YesDefeat audio cache : YesMake use of C2 pointers : No
Read offset correction : 48Overread into Lead-In and Lead-Out : NoFill up missing offset samples with silence : YesDelete leading and trailing silent blocks : NoNull samples used in CRC calculations : YesUsed interface : Native Win32 interface for Win NT & 2000
Used output format : Internal WAV RoutinesSample format : 44.100 Hz; 16 Bit; Stereo
TOC of the extracted CD
Track | Start | Length | Start sector | End sector --------------------------------------------------------- 1 | 0:00.00 | 3:06.00 | 0 | 13949 2 | 3:06.00 | 2:27.00 | 13950 | 24974 3 | 5:33.00 | 2:30.00 | 24975 | 36224 4 | 8:03.00 | 3:17.38 | 36225 | 51037 5 | 11:20.38 | 3:09.00 | 51038 | 65212 6 | 14:29.38 | 2:37.37 | 65213 | 77024 7 | 17:07.00 | 3:24.00 | 77025 | 92324 8 | 20:31.00 | 3:29.50 | 92325 | 108049 9 | 24:00.50 | 3:09.25 | 108050 | 122249 10 | 27:10.00 | 2:26.38 | 122250 | 133237 11 | 29:36.38 | 4:10.37 | 133238 | 152024 12 | 33:47.00 | 2:10.25 | 152025 | 161799
Range status and errors
Selected range
Filename D:\!\!news\!flac\!\Rondo Veneziano - (c)1987 - Arabesque [FLAC]\Rondo Veneziano - Arabesque.wav
Peak level 100.0 % Range quality 100.0 % Test CRC 74CA36EA Copy CRC 74CA36EA Copy OK
No errors occurred
End of status report

Содержание индексной карты (.CUE)

REM GENRE InstrumentalREM DATE 1987REM DISCID 9F086D0CREM COMMENT "ExactAudioCopy v0.99pb5"PERFORMER "Rondo Veneziano"TITLE "Arabesque"FILE "Rondo Veneziano - Arabesque.flac" WAVE TRACK 01 AUDIO TITLE "Arabesque" PERFORMER "Rondo Veneziano" INDEX 01 00:00:00 TRACK 02 AUDIO TITLE "Corso Delle Gondole" PERFORMER "Rondo Veneziano" INDEX 01 03:06:00 TRACK 03 AUDIO TITLE "Feste Veneziane" PERFORMER "Rondo Veneziano" INDEX 01 05:33:00 TRACK 04 AUDIO TITLE "Profumo d'Oriente" PERFORMER "Rondo Veneziano" INDEX 01 08:03:00 TRACK 05 AUDIO TITLE "Fiaba Antica" PERFORMER "Rondo Veneziano" INDEX 01 11:20:38 TRACK 06 AUDIO TITLE "Armonie" PERFORMER "Rondo Veneziano" INDEX 01 14:29:38 TRACK 07 AUDIO TITLE "La Scala d'Oro" PERFORMER "Rondo Veneziano" INDEX 01 17:07:00 TRACK 08 AUDIO TITLE "Arcobaleno" PERFORMER "Rondo Veneziano" INDEX 01 20:31:00 TRACK 09 AUDIO TITLE "Ritorno A Venezia" PERFORMER "Rondo Veneziano" INDEX 01 24:00:50 TRACK 10 AUDIO TITLE "Affresco" PERFORMER "Rondo Veneziano" INDEX 01 27:10:00 TRACK 11 AUDIO TITLE "Specchio Della Laguna" PERFORMER "Rondo Veneziano" INDEX 01 29:36:38 TRACK 12 AUDIO TITLE "Rive E Marine" PERFORMER "Rondo Veneziano" INDEX 01 33:47:00

Лог проверки качества

[CUETools log; Date: 17.11.2014 0:40:57; Version: 2.1.4][CTDB TOCID: RQonGMQRg60UwRnFmxzyO5DzJsA-] found.Track | CTDB Status 1 | (2/2) Accurately ripped 2 | (2/2) Accurately ripped 3 | (2/2) Accurately ripped 4 | (2/2) Accurately ripped 5 | (2/2) Accurately ripped 6 | (2/2) Accurately ripped 7 | (2/2) Accurately ripped 8 | (2/2) Accurately ripped 9 | (2/2) Accurately ripped 10 | (2/2) Accurately ripped 11 | (2/2) Accurately ripped 12 | (2/2) Accurately ripped[AccurateRip ID: 000fd722-0094eded-9f086d0c] disk not present in database.
Track Peak [ CRC32 ] [W/O NULL] [ LOG ] -- 100,0 [74CA36EA] [5F7BCBC0] CRC32 01 100,0 [1EB64FB1] [667E9BF5] 02 53,8 [22CEA980] [B909D363] 03 78,6 [7F670E63] [28481C38] 04 75,1 [5C685CC4] [4B3B3FD2] 05 100,0 [A705EEDA] [3ABBDCBD] 06 67,0 [137FE0FE] [7546443C] 07 82,4 [B654CB12] [A68AC085] 08 73,5 [F4429943] [9C9C2474] 09 55,1 [64240A33] [3FA6390F] 10 70,7 [A8CC0527] [C33F09ED] 11 89,8 [2CA875F9] [6C100121] 12 37,5 [67B79E80] [5B16124A]



Показать сообщения:    

Текущее время: 11-Дек 05:22

Часовой пояс: UTC + 3


Вы не можете начинать темы
Вы не можете отвечать на сообщения
Вы не можете редактировать свои сообщения
Вы не можете удалять свои сообщения
Вы не можете голосовать в опросах
Вы не можете прикреплять файлы к сообщениям
Вы не можете скачивать файлы