(Vocal, Crossover) Blake - In Harmony - 2014, FLAC (image+.cue) lossless


 

[Цитировать]

BLAKE / In Harmony
Жанр: Vocal, Crossover
Страна-производитель диска: EU
Год издания диска: 2014
Издатель (лейбл): absolute
Номер по каталогу: INS608R
Страна: UK
Аудиокодек: FLAC
Тип рипа: image+.cue
Битрейт аудио: lossless
Продолжительность: 00:51:48
Источник: собственный рип
Наличие сканов в содержимом раздачи: да
Треклист:
01 You Needed Me
02 Love Me Tender
03 To Love Somebody
04 Wicked Game
05 Dream A Little Dream Of Me
06 Fields of Gold
07 Forever
08 You Raise Me Up (featuring Camilla Kerslake and The Sing To Beat Breast Cancer Choir)
09 Say That You Love Me
10 Falling Slowly (featuring Rachelle Ann Go)
11 The Prayer (featuring Rebecca Newman)
12 The Right Words
13 Waiting
14 Lullabye (Goodnight, My Angel)
Доп. информация: Обратите, пожалуйста, внимание, что это не альбом, а advance copy (промо-диск), с московского концерта 29.10.2014 г. В альбоме будет другой порядок композиций.

Лог создания рипа

Exact Audio Copy V1.0 beta 3 from 29. August 2011
EAC extraction logfile from 30. October 2014, 7:50
Blake / In Harmony
Used drive : Optiarc DVD RW AD-5200S Adapter: 5 ID: 0
Read mode : SecureUtilize accurate stream : YesDefeat audio cache : YesMake use of C2 pointers : No
Read offset correction : 48Overread into Lead-In and Lead-Out : NoFill up missing offset samples with silence : YesDelete leading and trailing silent blocks : NoNull samples used in CRC calculations : YesUsed interface : Native Win32 interface for Win NT & 2000
Used output format : Internal WAV RoutinesSample format : 44.100 Hz; 16 Bit; Stereo
TOC of the extracted CD
Track | Start | Length | Start sector | End sector --------------------------------------------------------- 1 | 0:00.00 | 4:01.10 | 0 | 18084 2 | 4:01.10 | 3:03.03 | 18085 | 31812 3 | 7:04.13 | 3:03.43 | 31813 | 45580 4 | 10:07.56 | 4:31.09 | 45581 | 65914 5 | 14:38.65 | 2:34.22 | 65915 | 77486 6 | 17:13.12 | 3:41.35 | 77487 | 94096 7 | 20:54.47 | 4:01.73 | 94097 | 112244 8 | 24:56.45 | 4:27.14 | 112245 | 132283 9 | 29:23.59 | 4:48.64 | 132284 | 153947 10 | 34:12.48 | 3:30.28 | 153948 | 169725 11 | 37:43.01 | 4:35.68 | 169726 | 190418 12 | 42:18.69 | 2:33.17 | 190419 | 201910 13 | 44:52.11 | 2:41.59 | 201911 | 214044 14 | 47:33.70 | 4:14.13 | 214045 | 233107
Range status and errors
Selected range
Filename F:\R_MUSIC\Blake [2014] In Harmony (wav)\Blake - In Harmony.wav
Peak level 98.3 % Extraction speed 3.9 X Range quality 100.0 % Copy CRC 9B7D1A14 Copy OK
No errors occurred
AccurateRip summary
Track 1 not present in databaseTrack 2 not present in databaseTrack 3 not present in databaseTrack 4 not present in databaseTrack 5 not present in databaseTrack 6 not present in databaseTrack 7 not present in databaseTrack 8 not present in databaseTrack 9 not present in databaseTrack 10 not present in databaseTrack 11 not present in databaseTrack 12 not present in databaseTrack 13 not present in databaseTrack 14 not present in database
None of the tracks are present in the AccurateRip database
End of status report
---- CUETools DB Plugin V2.1.3
[CTDB TOCID: QPAxmlRBS3XNp5a9OP1ht5rjZT0-] disk not present in database, Submit result: QPAxmlRBS3XNp5a9OP1ht5rjZT0- has been uploaded
==== Log checksum BECBBAB82F05A9207597368EFD9C8DB410E2DCD76C91012B26156441A91A912D ====

Содержание индексной карты (.CUE)

REM GENRE VocalREM DATE 2014REM DISCID C40C240EREM COMMENT "ExactAudioCopy v1.0b3"CATALOG 5060098706081PERFORMER "Blake"TITLE "In Harmony"FILE "Blake - In Harmony.flac" WAVE TRACK 01 AUDIO TITLE "You Needed Me" PERFORMER "Blake" ISRC GBHPD1400250 INDEX 01 00:00:00 TRACK 02 AUDIO TITLE "Love Me Tender" PERFORMER "Blake" ISRC GBHPD1400251 INDEX 00 03:57:44 INDEX 01 04:01:10 TRACK 03 AUDIO TITLE "To Love Somebody" PERFORMER "Blake" ISRC GBHPD1400252 INDEX 00 07:01:27 INDEX 01 07:04:13 TRACK 04 AUDIO TITLE "Wicked Game" PERFORMER "Blake" ISRC GBHPD1400253 INDEX 00 10:04:69 INDEX 01 10:07:56 TRACK 05 AUDIO TITLE "Dream A Little Dream of Me" PERFORMER "Blake" ISRC GBHPD1400254 INDEX 00 14:35:25 INDEX 01 14:38:65 TRACK 06 AUDIO TITLE "Fields of Gold" PERFORMER "Blake" ISRC GBHPD1400255 INDEX 00 17:10:20 INDEX 01 17:13:12 TRACK 07 AUDIO TITLE "Forever" PERFORMER "Blake" ISRC GBHPD1400256 INDEX 00 20:51:60 INDEX 01 20:54:47 TRACK 08 AUDIO TITLE "You Raise Me Up" PERFORMER "Blake (feat. Camilla Kerslake and the Sing to Beat Breast Cancer Choir)" ISRC GBHPD1400257 INDEX 00 24:52:64 INDEX 01 24:56:45 TRACK 09 AUDIO TITLE "Say That You Love Me" PERFORMER "Blake" ISRC GBHPD1400258 INDEX 00 29:20:74 INDEX 01 29:23:59 TRACK 10 AUDIO TITLE "Falling Slowly (feat. Rachelle Ann Go)" PERFORMER "Blake (feat. Rachelle Ann Go)" ISRC GBHPD1400259 INDEX 00 34:09:44 INDEX 01 34:12:48 TRACK 11 AUDIO TITLE "The Prayer (feat. Rebecca Newman)" PERFORMER "Blake (feat. Rebecca Newman)" ISRC GBHPD1400260 INDEX 00 37:40:16 INDEX 01 37:43:01 TRACK 12 AUDIO TITLE "The Right Words" PERFORMER "Blake" ISRC GBHPD1400261 INDEX 00 42:16:07 INDEX 01 42:18:69 TRACK 13 AUDIO TITLE "Waiting" PERFORMER "Blake" ISRC GBHPD1400262 INDEX 00 44:47:29 INDEX 01 44:52:11 TRACK 14 AUDIO TITLE "Lullabye (Goodnight, My Angel)" PERFORMER "Blake" ISRC GBHPD1400263 INDEX 00 47:28:30 INDEX 01 47:33:70

Об исполнителе (группе)

Известное британское трио, ранее бывшее квартетом.

Об альбоме (сборнике)

Новый альбом 2014 года.

Состав

Stephen Bowman - бас-баритон
Ollie Baines - тенор
Humphrey Berney - тенор

Сканы


mp3-версия альбома



Показать сообщения:    

Текущее время: 11-Дек 16:51

Часовой пояс: UTC + 3


Вы не можете начинать темы
Вы не можете отвечать на сообщения
Вы не можете редактировать свои сообщения
Вы не можете удалять свои сообщения
Вы не можете голосовать в опросах
Вы не можете прикреплять файлы к сообщениям
Вы не можете скачивать файлы