(Chamber Music) Peter Breiner and His Chamber Orchestra, Quido & Anna Hoelbling (Violin) - Beatles Go Baroque - 1993, FLAC (image+.cue) lossless


 

[Цитировать]

Peter Breiner and His Chamber Orchestra, Quido & Anna Hoelbling (Violin) / Beatles Go Baroque
Жанр: Chamber Music
Страна-производитель диска: Germany
Год издания диска: 1993
Издатель (лейбл): HNH International Ltd./NAXOS
Номер по каталогу: 8.990050
Страна: Slovakia
Аудиокодек: FLAC
Тип рипа: image+.cue
Битрейт аудио: lossless
Продолжительность: 00:56:45
Источник: собственный рип
Наличие сканов в содержимом раздачи: да
Треклист:
Beatles Concerto Grosso No.1
(In the Style of Handel)
- Juraj Alexander, Cello
[01] She Loves You - A tempo giusto [02:19]
[02] Lady Madonna - Allegro [02:18]
[03] Fool on the Hill - Adagio [02:46]
[04] Honey Pie - Allegro [02:10]
[05] Penny Lane - Allegro [03:38]
Beatles Concerto Grosso No.2
(In the Style of Vivaldi)
- Juraj Cizmarovic, Violin
[06] A Hard Day's Night [02:36]
[07] Girl [02:30]
[08] And I Love Her [03:06]
[09 Paperback Writer [03:34]
[10] Help [02:19]
Beatles Concerto Grosso No.3
(In the Style of J.S. Bach)
- Vladislav Brunner, Flute
[11] The Long and Winding Road - Overture [04:57]
[12] Eight Days a Week - Rondeau [02:34]
[13] She's Leaving Home - Sarabande [03:45]
[14] We Can Work It Out – Bourree [02:02]
[15] Hey Jude – Polonaise [04:22]
[16] Yellow Submarine [01:50]
Beatles Concerto Grosso No.4
- Juraj Alexander, Cello
[17] Here Comes the Sun [01:37]
[18] Michelle [03:28]
[19] Goodnight [03:11]
[20] Carry That Weight [01:40]

Лог создания рипа

Exact Audio Copy V1.0 beta 3 from 29. August 2011
EAC extraction logfile from 19. October 2014, 15:24
Beatles - Peter Breiner and his Chamber Orchestra / Beatles go Baroque
Used drive : ASUS SDRW-08D1S-U Adapter: 1 ID: 0
Read mode : SecureUtilize accurate stream : YesDefeat audio cache : YesMake use of C2 pointers : No
Read offset correction : 667Overread into Lead-In and Lead-Out : NoFill up missing offset samples with silence : YesDelete leading and trailing silent blocks : NoNull samples used in CRC calculations : YesUsed interface : Native Win32 interface for Win NT & 2000
Used output format : User Defined EncoderSelected bitrate : 128 kBit/sQuality : HighAdd ID3 tag : NoCommand line compressor : C:\Program Files (x86)\Exact Audio Copy\Flac\flac.exeAdditional command line options : -V -8 -T "Date=%year%" -T "Genre=%genre%" %source%
TOC of the extracted CD
Track | Start | Length | Start sector | End sector --------------------------------------------------------- 1 | 0:00.00 | 2:19.25 | 0 | 10449 2 | 2:19.25 | 2:19.00 | 10450 | 20874 3 | 4:38.25 | 2:46.00 | 20875 | 33324 4 | 7:24.25 | 2:10.00 | 33325 | 43074 5 | 9:34.25 | 3:38.00 | 43075 | 59424 6 | 13:12.25 | 2:36.00 | 59425 | 71124 7 | 15:48.25 | 2:31.00 | 71125 | 82449 8 | 18:19.25 | 3:06.00 | 82450 | 96399 9 | 21:25.25 | 3:34.00 | 96400 | 112449 10 | 24:59.25 | 2:19.00 | 112450 | 122874 11 | 27:18.25 | 4:57.00 | 122875 | 145149 12 | 32:15.25 | 2:34.00 | 145150 | 156699 13 | 34:49.25 | 3:45.00 | 156700 | 173574 14 | 38:34.25 | 2:02.00 | 173575 | 182724 15 | 40:36.25 | 4:22.00 | 182725 | 202374 16 | 44:58.25 | 1:50.00 | 202375 | 210624 17 | 46:48.25 | 1:37.00 | 210625 | 217899 18 | 48:25.25 | 3:28.02 | 217900 | 233501 19 | 51:53.27 | 3:11.73 | 233502 | 247899 20 | 55:05.25 | 1:40.27 | 247900 | 255426
Range status and errors
Selected range
Filename C:\Users\Олег\Desktop\Beatles - Peter Breiner and his Chamber Orchestra - Beatles go Baroque.wav
Peak level 100.0 % Extraction speed 4.1 X Range quality 99.9 % Test CRC ECFD457B Copy CRC ECFD457B Copy OK
No errors occurred
AccurateRip summary
Track 1 cannot be verified as accurate (confidence 10) [E61A5CAF], AccurateRip returned [97EB9CF6] (AR v2)Track 2 cannot be verified as accurate (confidence 10) [D973BF0F], AccurateRip returned [330E8EE9] (AR v2)Track 3 cannot be verified as accurate (confidence 10) [9BFE5DA0], AccurateRip returned [C9472E96] (AR v2)Track 4 cannot be verified as accurate (confidence 10) [744535C8], AccurateRip returned [9DF94682] (AR v2)Track 5 cannot be verified as accurate (confidence 10) [1807490D], AccurateRip returned [0AA26CC0] (AR v2)Track 6 cannot be verified as accurate (confidence 10) [59E2BD53], AccurateRip returned [C110D9F4] (AR v2)Track 7 cannot be verified as accurate (confidence 10) [5A6BEFCF], AccurateRip returned [9625133B] (AR v2)Track 8 cannot be verified as accurate (confidence 10) [7F2DF543], AccurateRip returned [77A35F4C] (AR v2)Track 9 cannot be verified as accurate (confidence 10) [E142EC10], AccurateRip returned [3723CCAF] (AR v2)Track 10 cannot be verified as accurate (confidence 10) [75969CC6], AccurateRip returned [1AF82EFD] (AR v2)Track 11 cannot be verified as accurate (confidence 10) [85003DD3], AccurateRip returned [35DC1572] (AR v2)Track 12 cannot be verified as accurate (confidence 10) [D4231FFD], AccurateRip returned [BEDF44AE] (AR v2)Track 13 cannot be verified as accurate (confidence 10) [0D8E3622], AccurateRip returned [E4606199] (AR v2)Track 14 cannot be verified as accurate (confidence 10) [BD591447], AccurateRip returned [52F9A581] (AR v2)Track 15 cannot be verified as accurate (confidence 10) [B5710C51], AccurateRip returned [D1B509D6] (AR v2)Track 16 cannot be verified as accurate (confidence 10) [2967BF48], AccurateRip returned [A71B24EA] (AR v2)Track 17 cannot be verified as accurate (confidence 10) [24CAC112], AccurateRip returned [DE21FFEE] (AR v2)Track 18 cannot be verified as accurate (confidence 10) [92A7D1AF], AccurateRip returned [9E611782] (AR v2)Track 19 cannot be verified as accurate (confidence 10) [7CD8B5A7], AccurateRip returned [6293C856] (AR v2)Track 20 cannot be verified as accurate (confidence 11) [B68CDEAB], AccurateRip returned [2316A51D] (AR v2)
No tracks could be verified as accurateYou may have a different pressing from the one(s) in the database
End of status report
==== Log checksum 5135CD0527B82B03E12CD31248AD530963B04446B1135D699F8E0458A89591F3 ====

Содержание индексной карты (.CUE)

REM GENRE "Chamber Music"REM DATE 1992REM DISCID F50D4D14REM COMMENT "ExactAudioCopy v1.0b3"PERFORMER "Beatles - Peter Breiner and his Chamber Orchestra"TITLE "Beatles go Baroque"FILE "Beatles - Peter Breiner and his Chamber Orchestra - Beatles go Baroque.flac" WAVE TRACK 01 AUDIO TITLE "She loves you - Concerto Grosso N°1 - A tempo giusto" PERFORMER "Beatles - Peter Breiner and his Chamber Orchestra" INDEX 01 00:00:00 TRACK 02 AUDIO TITLE "Lady Madonna - Concerto Grosso N°1 - Allegro" PERFORMER "Beatles - Peter Breiner and his Chamber Orchestra" INDEX 01 02:19:25 TRACK 03 AUDIO TITLE "Fool on the hill - Concerto Grosso N°1 - Adagio" PERFORMER "Beatles - Peter Breiner and his Chamber Orchestra" INDEX 01 04:38:25 TRACK 04 AUDIO TITLE "Honey Pie - Concerto Grosso N°1 - Allegro" PERFORMER "Beatles - Peter Breiner and his Chamber Orchestra" INDEX 01 07:24:25 TRACK 05 AUDIO TITLE "Penny Lane - Concerto Grosso N°1 - Allegro" PERFORMER "Beatles - Peter Breiner and his Chamber Orchestra" INDEX 01 09:34:25 TRACK 06 AUDIO TITLE "A hard day's night - Concerto Grosso N°2" PERFORMER "Beatles - Peter Breiner and his Chamber Orchestra" INDEX 00 13:10:00 INDEX 01 13:12:25 TRACK 07 AUDIO TITLE "Girl - Concerto Grosso N°2" PERFORMER "Beatles - Peter Breiner and his Chamber Orchestra" INDEX 01 15:48:25 TRACK 08 AUDIO TITLE "And I love her - Concerto Grosso N°2" PERFORMER "Beatles - Peter Breiner and his Chamber Orchestra" INDEX 01 18:19:25 TRACK 09 AUDIO TITLE "Paperback Writer - Concerto Grosso N°2" PERFORMER "Beatles - Peter Breiner and his Chamber Orchestra" INDEX 01 21:25:25 TRACK 10 AUDIO TITLE "Help - Concerto Grosso N°2" PERFORMER "Beatles - Peter Breiner and his Chamber Orchestra" INDEX 01 24:59:25 TRACK 11 AUDIO TITLE "The long and winding road - Concerto Grosso N°3 - Overture" PERFORMER "Beatles - Peter Breiner and his Chamber Orchestra" INDEX 00 27:15:70 INDEX 01 27:18:25 TRACK 12 AUDIO TITLE "Eight days a week - Concerto Grosso N°3 - Rondeau" PERFORMER "Beatles - Peter Breiner and his Chamber Orchestra" INDEX 01 32:15:25 TRACK 13 AUDIO TITLE "She's leaving home - Concerto Grosso N°3 - Sarabande" PERFORMER "Beatles - Peter Breiner and his Chamber Orchestra" INDEX 01 34:49:25 TRACK 14 AUDIO TITLE "We can work it out - Concerto Grosso N°3 - Bourree" PERFORMER "Beatles - Peter Breiner and his Chamber Orchestra" INDEX 01 38:34:25 TRACK 15 AUDIO TITLE "Hey Jude - Concerto Grosso N°3 - Polonaise" PERFORMER "Beatles - Peter Breiner and his Chamber Orchestra" INDEX 01 40:36:25 TRACK 16 AUDIO TITLE "Yellow Submarine - Concerto Grosso N°3 - Badinerie" PERFORMER "Beatles - Peter Breiner and his Chamber Orchestra" INDEX 01 44:58:25 TRACK 17 AUDIO TITLE "Here comes the sun - Concerto Grosso N°4" PERFORMER "Beatles - Peter Breiner and his Chamber Orchestra" INDEX 00 46:45:40 INDEX 01 46:48:25 TRACK 18 AUDIO TITLE "Michelle - Concerto Grosso N°4" PERFORMER "Beatles - Peter Breiner and his Chamber Orchestra" INDEX 01 48:25:25 TRACK 19 AUDIO TITLE "Goodnight - Concerto Grosso N°4" PERFORMER "Beatles - Peter Breiner and his Chamber Orchestra" INDEX 01 51:53:27 TRACK 20 AUDIO TITLE "Carry that weight - Concerto Grosso N°4" PERFORMER "Beatles - Peter Breiner and his Chamber Orchestra" INDEX 01 55:05:25



Показать сообщения:    

Текущее время: 09-Дек 22:29

Часовой пояс: UTC + 3


Вы не можете начинать темы
Вы не можете отвечать на сообщения
Вы не можете редактировать свои сообщения
Вы не можете удалять свои сообщения
Вы не можете голосовать в опросах
Вы не можете прикреплять файлы к сообщениям
Вы не можете скачивать файлы