(Instrumental, Symphonic Rock) The London Starlight Orchestra - 20 Beatles Greatest Hits - 1988, FLAC (image+.cue) lossless


 

[Цитировать]

The London Starlight Orchestra / 20 Beatles Greatest Hits
Жанр: Instrumental, Symphonic Rock
Страна-производитель диска: Holland
Год издания диска: 1988
Издатель (лейбл): Star inc.
Номер по каталогу: CD 86021
Страна: UK
Аудиокодек: FLAC
Тип рипа: image+.cue
Битрейт аудио: lossless
Продолжительность: 01:07:07
Источник: собственный рип
Наличие сканов в содержимом раздачи: да
Треклист:
1. Yesterday
2. Do You Want to Know a Secret
3. Michelle
4. Penny Lane
5. Hey Jude
6. I'm Fixing a Hole
7. She's Leaving Home
8. And I Love Her
9. Something
10. When I'm Sxty Four
11. A Day in the Life
12. Here Comes the Sun
13. You've Got to Hide Your Love Away
14. Eleanor Rigby
15. Fool on the Hill
16. With a Little Help from My Friends
17. Let It Be
18. Lucy in the Sky with Diamonds
19. Long and Winding Road
20. All You Need Is Love

Лог создания рипа

Exact Audio Copy V1.0 beta 3 from 29. August 2011
Отчёт EAC об извлечении, выполненном 30. сентября 2014, 22:49
London Starlight Orchestra / 20 Beatles Greatest Hits
Дисковод: PIONEER DVD-RW DVR-218L Adapter: 2 ID: 1
Режим чтения : ДостоверностьИспользование точного потока : ДаОтключение кэша аудио : ДаИспользование указателей C2 : Нет
Коррекция смещения при чтении : 6Способность читать области Lead-in и Lead-out : НетЗаполнение пропущенных сэмплов тишиной : ДаУдаление блоков с тишиной в начале и конце : НетПри вычислениях CRC использовались нулевые сэмплы : ДаИнтерфейс : Установленный внешний ASPI-интерфейс
Выходной формат : Пользовательский кодировщикВыбранный битрейт : 1024 kBit/sКачество : ВысокийДобавление ID3-тега : ДаУтилита сжатия : C:\Program Files\FLAC\flac.exeДополнительные параметры : -V -8 -T "Date=%year%" -T "Genre=%genre%" %source%
TOC извлечённого CD
Трек | Старт | Длительность | Начальный сектор | Конечный сектор --------------------------------------------------------------------- 1 | 0:00.00 | 3:22.62 | 0 | 15211 2 | 3:22.62 | 2:39.50 | 15212 | 27186 3 | 6:02.37 | 3:02.55 | 27187 | 40891 4 | 9:05.17 | 2:59.70 | 40892 | 54386 5 | 12:05.12 | 4:27.00 | 54387 | 74411 6 | 16:32.12 | 2:40.55 | 74412 | 86466 7 | 19:12.67 | 3:34.40 | 86467 | 102556 8 | 22:47.32 | 2:35.18 | 102557 | 114199 9 | 25:22.50 | 3:07.07 | 114200 | 128231 10 | 28:29.57 | 2:42.05 | 128232 | 140386 11 | 31:11.62 | 5:05.05 | 140387 | 163266 12 | 36:16.67 | 3:10.70 | 163267 | 177586 13 | 39:27.62 | 2:43.35 | 177587 | 189846 14 | 42:11.22 | 2:49.35 | 189847 | 202556 15 | 45:00.57 | 3:10.65 | 202557 | 216871 16 | 48:11.47 | 2:49.10 | 216872 | 229556 17 | 51:00.57 | 4:36.60 | 229557 | 250316 18 | 55:37.42 | 3:42.33 | 250317 | 266999 19 | 59:20.00 | 3:52.42 | 267000 | 284441 20 | 63:12.42 | 3:54.18 | 284442 | 302009
Характеристики диапазона извлечения и сообщения об ошибках
Выбранный диапазон
Имя файла C:\Users\Администратор\Desktop\20 Beatles Greatest Hits (1)\London Starlight Orchestra - 20 Beatles Greatest Hits.wav
Подозрительная позиция 0:14:55 Подозрительная позиция 0:14:57 Подозрительная позиция 0:14:59 - 0:15:00
Пиковый уровень 100.0 % Скорость извлечения 1.2 X Качество диапазона 99.9 % CRC теста E061EEED CRC копии FD87033E Копирование завершено
Были ошибки
AccurateRip: сводка
Трек 1 : извлечено точно (доверие 3) [A0AD10BB] (AR v2)Трек 2 : извлечено точно (доверие 3) [87BEA8B5] (AR v2)Трек 3 : извлечено точно (доверие 3) [BF60EC0D] (AR v2)Трек 4 : извлечено точно (доверие 3) [FD3B23B5] (AR v2)Трек 5 точность не определена (достоверность 3) [CDCB3599], AccurateRip вернул [2350625E] (AR v2)Трек 6 : извлечено точно (доверие 3) [6DE4A797] (AR v2)Трек 7 : извлечено точно (доверие 3) [60D2A73A] (AR v2)Трек 8 : извлечено точно (доверие 3) [14D178E1] (AR v2)Трек 9 : извлечено точно (доверие 3) [2AE57BEC] (AR v2)Трек 10 : извлечено точно (доверие 3) [27D1A6B2] (AR v2)Трек 11 : извлечено точно (доверие 3) [26C13268] (AR v2)Трек 12 : извлечено точно (доверие 3) [A01A0B4C] (AR v2)Трек 13 : извлечено точно (доверие 3) [79318D99] (AR v2)Трек 14 : извлечено точно (доверие 3) [B285628C] (AR v2)Трек 15 : извлечено точно (доверие 3) [C22E6E2C] (AR v2)Трек 16 : извлечено точно (доверие 3) [75FFC150] (AR v2)Трек 17 : извлечено точно (доверие 3) [0AAFE7F1] (AR v2)Трек 18 : извлечено точно (доверие 3) [4974764D] (AR v2)Трек 19 : извлечено точно (доверие 3) [644CFAE7] (AR v2)Трек 20 : извлечено точно (доверие 3) [2887CBB1] (AR v2)
19 трек(и) скопированы точно 1 трек(и) не удалось проверить на точность
Некоторые треки не прошли проверку на точность
Конец отчёта
==== Контрольная сумма отчёта 33FAA05E9CF83736183B1FC34F13945A44960D4BB2AC9A3C921080F429E80B9E ====

Содержание индексной карты (.CUE)

REM GENRE SymphonyREM DISCID 2B0FBA14REM COMMENT "ExactAudioCopy v1.0b3"PERFORMER "London Starlight Orchestra"TITLE "20 Beatles Greatest Hits"FILE "London Starlight Orchestra - 20 Beatles Greatest Hits.flac" WAVE TRACK 01 AUDIO TITLE "Yesterday" PERFORMER "London Starlight Orchestra" INDEX 01 00:00:00 TRACK 02 AUDIO TITLE "Do you want ti know a secret" PERFORMER "London Starlight Orchestra" INDEX 01 03:22:62 TRACK 03 AUDIO TITLE "Michelle" PERFORMER "London Starlight Orchestra" INDEX 01 06:02:37 TRACK 04 AUDIO TITLE "Penny Lane" PERFORMER "London Starlight Orchestra" INDEX 01 09:05:17 TRACK 05 AUDIO TITLE "Hey jude" PERFORMER "London Starlight Orchestra" INDEX 01 12:05:12 TRACK 06 AUDIO TITLE "I'm fixing a hole" PERFORMER "London Starlight Orchestra" INDEX 01 16:32:12 TRACK 07 AUDIO TITLE "She 's leaving home" PERFORMER "London Starlight Orchestra" INDEX 01 19:12:67 TRACK 08 AUDIO TITLE "And I love here" PERFORMER "London Starlight Orchestra" INDEX 01 22:47:32 TRACK 09 AUDIO TITLE "Somethings" PERFORMER "London Starlight Orchestra" INDEX 01 25:22:50 TRACK 10 AUDIO TITLE "When I'm sixty-four" PERFORMER "London Starlight Orchestra" INDEX 01 28:29:57 TRACK 11 AUDIO TITLE "A day in the life" PERFORMER "London Starlight Orchestra" INDEX 01 31:11:62 TRACK 12 AUDIO TITLE "Here comes the sun" PERFORMER "London Starlight Orchestra" INDEX 01 36:16:67 TRACK 13 AUDIO TITLE "You've got the hide your love away" PERFORMER "London Starlight Orchestra" INDEX 01 39:27:62 TRACK 14 AUDIO TITLE "Eleanor Rigby" PERFORMER "London Starlight Orchestra" INDEX 01 42:11:22 TRACK 15 AUDIO TITLE "The fool on the hill" PERFORMER "London Starlight Orchestra" INDEX 01 45:00:57 TRACK 16 AUDIO TITLE "With a little help from my friends" PERFORMER "London Starlight Orchestra" INDEX 01 48:11:47 TRACK 17 AUDIO TITLE "Let it be" PERFORMER "London Starlight Orchestra" INDEX 01 51:00:57 TRACK 18 AUDIO TITLE "Lucy in the sky with diamonds" PERFORMER "London Starlight Orchestra" INDEX 01 55:37:42 TRACK 19 AUDIO TITLE "The long and winding road" PERFORMER "London Starlight Orchestra" INDEX 01 59:20:00 TRACK 20 AUDIO TITLE "All you need is love" PERFORMER "London Starlight Orchestra" INDEX 01 63:12:42
Доп. информация: К сожалению в 5 треке ошибка данных, хотя на диске ни одной царапины, на качестве звука никак не сказывается.



Показать сообщения:    

Текущее время: 10-Дек 21:36

Часовой пояс: UTC + 3


Вы не можете начинать темы
Вы не можете отвечать на сообщения
Вы не можете редактировать свои сообщения
Вы не можете удалять свои сообщения
Вы не можете голосовать в опросах
Вы не можете прикреплять файлы к сообщениям
Вы не можете скачивать файлы