(Classical Crossover, Minimalism, Electronic) InnerAct - Simeon Ten Holt: Canto Ostinato Audio Visual - 2013, FLAC (tracks+.cue) lossless


 

[Цитировать]

InnerAct / Simeon Ten Holt: Canto Ostinato Audio Visual
Жанр: Classical Crossover, Minimalism, Electronic
Страна-производитель диска: The Netherlands
Год издания диска: 2013
Издатель (лейбл): Etcetera
Номер по каталогу: KTD6007
Аудиокодек: FLAC
Тип рипа: tracks+.cue
Битрейт аудио: lossless
Продолжительность: 1:00:58
Источник: CD
Наличие сканов в содержимом раздачи: нет
Треклист:
1 Canto Ostinato - 1 - 19 18:39
2 Canto Ostinato - 20 - 36 12:41
3 Canto Ostinato - 37 - 55 9:33
4 Canto Ostinato - 56 - 73 10:13
5 Canto Ostinato - 74 - 84, 106 9:53
Gwyneth Wentink (1981) – Harp player
Wouter Snoei (1977) – Electronics
Arnout Hulskamp (1978) – Visuals

Лог создания рипа

X Lossless Decoder version 20131102 (145.0)
XLD extraction logfile from 2013-11-12 18:43:30 +0100
InnerAct / Canto Ostinato Audio Visual
Used drive : MATSHITA DVD-R UJ-8A8 (revision HB14)Media type : Pressed CD
Ripper mode : XLD Secure RipperDisable audio cache : OK for the drive with a cache less than 1375KiBMake use of C2 pointers : NORead offset correction : 6Max retry count : 100Gap status : Analyzed, Appended (except HTOA)
TOC of the extracted CD Track | Start | Length | Start sector | End sector --------------------------------------------------------- 1 | 00:00:00 | 18:39:00 | 0 | 83924 2 | 18:39:00 | 12:41:00 | 83925 | 140999 3 | 31:20:00 | 09:32:42 | 141000 | 183941 4 | 40:52:42 | 10:12:47 | 183942 | 229888 5 | 51:05:14 | 09:53:08 | 229889 | 274371
List of alternate offset correction values # | Absolute | Relative | Confidence ------------------------------------------ 1 | 102 | 96 | 2
AccurateRip Summary (DiscID: 000deee8-003ee6b8-390e4a05) Track 01 : OK (v2, confidence 2/2, with different offset) Track 02 : OK (v2, confidence 2/2, with different offset) Track 03 : OK (v2, confidence 2/2, with different offset) Track 04 : OK (v2, confidence 2/2, with different offset) Track 05 : OK (v2, confidence 2/2, with different offset) ->All tracks accurately ripped.
All Tracks Album gain : -5.36 dB Peak : 0.960571 Statistics Read error : 0 Jitter error (maybe fixed) : 0 Retry sector count : 0 Damaged sector count : 0
Track 01 Filename : /Users/gerbenhup/Verwerking/InnerAct/InnerAct - Canto Ostinato Audio Visual (2013) [FLAC]/Disc 01/01 1 - 19.flac Pre-gap length : 00:02:00
Track gain : -4.50 dB Peak : 0.960297 CRC32 hash (test run) : 1B075F23 CRC32 hash : 1B075F23 CRC32 hash (skip zero) : 171C729A AccurateRip v1 signature : B580BCBA AccurateRip v2 signature : 85C637BE (6E789289 w/correction) ->Accurately ripped with different offset (v2, confidence 2/2, offset +96) Statistics Read error : 0 Jitter error (maybe fixed) : 0 Retry sector count : 0 Damaged sector count : 0
Track 02 Filename : /Users/gerbenhup/Verwerking/InnerAct/InnerAct - Canto Ostinato Audio Visual (2013) [FLAC]/Disc 01/02 20 - 36.flac
Track gain : -6.11 dB Peak : 0.960541 CRC32 hash (test run) : 4FAB67A1 CRC32 hash : 4FAB67A1 CRC32 hash (skip zero) : 6D1E2765 AccurateRip v1 signature : 0BC1D254 AccurateRip v2 signature : EC55B02F (5D76AF47 w/correction) ->Accurately ripped with different offset (v2, confidence 2/2, offset +96) Statistics Read error : 0 Jitter error (maybe fixed) : 0 Retry sector count : 0 Damaged sector count : 0
Track 03 Filename : /Users/gerbenhup/Verwerking/InnerAct/InnerAct - Canto Ostinato Audio Visual (2013) [FLAC]/Disc 01/03 37 - 55.flac
Track gain : 0.74 dB Peak : 0.835632 CRC32 hash (test run) : FCFE7792 CRC32 hash : FCFE7792 CRC32 hash (skip zero) : 8E001E8A AccurateRip v1 signature : A0AA02C1 AccurateRip v2 signature : 0A88AFBA (4E13BEB5 w/correction) ->Accurately ripped with different offset (v2, confidence 2/2, offset +96) Statistics Read error : 0 Jitter error (maybe fixed) : 0 Retry sector count : 0 Damaged sector count : 0
Track 04 Filename : /Users/gerbenhup/Verwerking/InnerAct/InnerAct - Canto Ostinato Audio Visual (2013) [FLAC]/Disc 01/04 56 - 73.flac
Track gain : -5.30 dB Peak : 0.960388 CRC32 hash (test run) : 73C96803 CRC32 hash : 73C96803 CRC32 hash (skip zero) : 1FBCC196 AccurateRip v1 signature : B16D290D AccurateRip v2 signature : 0620F34C (456C79F1 w/correction) ->Accurately ripped with different offset (v2, confidence 2/2, offset +96) Statistics Read error : 0 Jitter error (maybe fixed) : 0 Retry sector count : 0 Damaged sector count : 0
Track 05 Filename : /Users/gerbenhup/Verwerking/InnerAct/InnerAct - Canto Ostinato Audio Visual (2013) [FLAC]/Disc 01/05 74 - 84, 106.flac
Track gain : -6.71 dB Peak : 0.960571 CRC32 hash (test run) : 897DAD1C CRC32 hash : 897DAD1C CRC32 hash (skip zero) : 2BBEE490 AccurateRip v1 signature : B7EFD741 AccurateRip v2 signature : F9E1DCEC (56D158B6 w/correction) ->Accurately ripped with different offset (v2, confidence 2/2, offset +96) Statistics Read error : 0 Jitter error (maybe fixed) : 0 Retry sector count : 0 Damaged sector count : 0
No errors occurred
End of status report

Содержание индексной карты (.CUE)

TITLE "Canto Ostinato Audio Visual"PERFORMER "InnerAct"REM GENRE "Minimal"REM DATE "2013"REM DISCID 390E4A05REM REPLAYGAIN_ALBUM_GAIN -5.36 dBREM REPLAYGAIN_ALBUM_PEAK 0.960571FILE "01 1 - 19.flac" WAVE TRACK 01 AUDIO TITLE "1 - 19" ISRC NLXE61300001 REM REPLAYGAIN_TRACK_GAIN -4.50 dB REM REPLAYGAIN_TRACK_PEAK 0.960297 INDEX 01 00:00:00FILE "02 20 - 36.flac" WAVE TRACK 02 AUDIO TITLE "20 - 36" ISRC NLXE61300002 REM REPLAYGAIN_TRACK_GAIN -6.11 dB REM REPLAYGAIN_TRACK_PEAK 0.960541 INDEX 01 00:00:00FILE "03 37 - 55.flac" WAVE TRACK 03 AUDIO TITLE "37 - 55" ISRC NLXE61300003 REM REPLAYGAIN_TRACK_GAIN 0.74 dB REM REPLAYGAIN_TRACK_PEAK 0.835632 INDEX 01 00:00:00FILE "04 56 - 73.flac" WAVE TRACK 04 AUDIO TITLE "56 - 73" ISRC NLXE61300004 REM REPLAYGAIN_TRACK_GAIN -5.30 dB REM REPLAYGAIN_TRACK_PEAK 0.960388 INDEX 01 00:00:00FILE "05 74 - 84, 106.flac" WAVE TRACK 05 AUDIO TITLE "74 - 84, 106" ISRC NLXE61300005 REM REPLAYGAIN_TRACK_GAIN -6.71 dB REM REPLAYGAIN_TRACK_PEAK 0.960571 INDEX 01 00:00:00

Об исполнителе (группе)

Об альбоме (сборнике)

Canto Ostinato is a revolutionary piece that Simeon Ten Holt wrote between 1976 and 1979. The piece consists of 106 cells (loops), which can be repeated by the performers interpretation. Next to the number of repeats, the performer determines the articulations, phrasing, dynamics and at certain spots, the order in the piece. This makes each performance of Canto Ostinato unique. Improvisation and interaction drive each performance.
The performers agree upon signs that indicate who takes the lead and when they move to the next cell. Because of the tonality, the usage of these cells and the repetitive nature, the composition is labeled as minimal music. Canto moves people, and has achieved a worldwide following.
InnerAct presents a version for harp, electronics and visuals. On this CD, the audio part is presented. During the performance, Wouter Snoei edits the sound of the harp, recording and manipulating it on the spot. In addition, he adds a synthetic, completely electronic layer, for which the full score of Canto was digitized. This creates the possibility of generating multiple voices similar to various instruments, with Wentink and Snoei entering into a sonic dialogue with each other.



Показать сообщения:    

Текущее время: 06-Дек 13:11

Часовой пояс: UTC + 3


Вы не можете начинать темы
Вы не можете отвечать на сообщения
Вы не можете редактировать свои сообщения
Вы не можете удалять свои сообщения
Вы не можете голосовать в опросах
Вы не можете прикреплять файлы к сообщениям
Вы не можете скачивать файлы